#TITLE:IF YOU WERE HERE;
#SUBTITLE:(L.E.D.-G STYLE REMIX);
#ARTIST:JENNIFER;
#TITLETRANSLIT:;
#SUBTITLETRANSLIT:;
#ARTISTTRANSLIT:;
#GENRE:;
#CREDIT:;
#BANNER:IF YOU WERE HERE (L.E.D.-G STYLE REMIX)-bn.png;
#BACKGROUND:IF YOU WERE HERE (L.E.D.-G STYLE REMIX)-bg.png;
#LYRICSPATH:;
#CDTITLE:;
#MUSIC:IF YOU WERE HERE (L.E.D.-G STYLE REMIX).ogg;
#OFFSET:0.000000;
#SAMPLESTART:72.029999;
#SAMPLELENGTH:20.000000;
#SELECTABLE:YES;
#DISPLAYBPM:85.000000:170.000000;
#BPMS:0.000000=170.000000
,171.000000=85.000000
,187.000000=170.000000
;
#STOPS:69.000000=0.176000,
70.500000=0.176000
;
#BGCHANGES:;
#KEYSOUNDS:;
#ATTACKS:;

//---------------dance-single - ----------------
#NOTES:
     dance-single:
     :
     Beginner:
     3:
     0.162155,0.192737,0.108968,0.000000,0.000000,125.000000,113.000000,12.000000,0.000000,0.000000,0.000000,0.162155,0.192737,0.108968,0.000000,0.000000,125.000000,113.000000,12.000000,0.000000,0.000000,0.000000:
0000
0000
0000
0000
,
0000
0000
0000
0000
,
0000
0000
0000
0000
,
0000
0000
0000
0000
,
0000
0000
0000
0000
,
0010
0000
0000
0000
,
0010
0000
0000
0000
,
0100
0000
0100
0000
,
0100
0000
0000
0000
,
0001
0000
0001
0000
,
0001
0000
0000
0000
,
1000
0000
1000
0000
,
1000
0000
0000
0000
,
0001
0000
0100
0000
,
1000
0000
0001
0000
,
0010
0000
0100
0000
,
1001
0000
0000
0000
,
0010
0000
0000
1000
,
0000
0100
0000
1000
,
0000
0100
0000
0001
,
0000
0010
0000
0001
,
0000
0000
0000
0010
,
0000
0001
0000
0010
,
0000
0001
0000
0100
,
0000
1000
0000
1001
,
0000
0000
0000
1000
,
1000
0000
0000
1000
,
1000
0000
0000
0001
,
0001
0000
0000
0001
,
0001
0000
0000
0010
,
0010
0000
0000
0010
,
0010
0000
0000
0100
,
0100
0000
0000
0100
,
0100
0000
0000
1001
,
0000
0000
0000
1001
,
0000
0000
0000
1001
,
0000
0000
0000
1001
,
0000
0000
0000
0110
,
0000
0000
0000
0110
,
0000
0000
0000
0110
,
0000
0000
0000
0110
,
0000
0000
0000
0000
,
0000
0000
0000
0010
,
0000
0010
0000
0100
,
0000
0100
0000
0001
,
0000
0001
0000
1000
,
0000
1000
0000
1000
,
0000
0100
0000
1000
,
0000
0001
0000
0010
,
0000
0010
0000
0010
,
0010
0010
0000
0001
,
0000
0100
0000
0001
,
0000
1000
0000
0100
,
0000
0001
0000
0100
,
0000
0000
0000
1000
,
0000
1000
0000
0100
,
0000
0100
0000
0010
,
0000
0010
0000
0001
,
0000
0001
0000
1000
,
0000
1000
0000
0010
,
0000
0010
0000
0100
,
0000
0100
0000
1001
,
0000
0000
0000
1000
,
1000
0000
0000
0100
,
0100
0000
0000
0010
,
0010
0000
0000
0001
,
0001
0000
0000
0010
,
0010
0000
0000
0100
,
0100
0000
0000
1000
,
1000
0000
0000
0100
,
0100
0000
0000
1001
,
0000
0000
0000
0000
;

//---------------dance-single - ----------------
#NOTES:
     dance-single:
     :
     Easy:
     8:
     0.385280,0.481843,0.227017,0.072645,0.000000,297.000000,272.000000,25.000000,8.000000,0.000000,0.000000,0.385280,0.481843,0.227017,0.072645,0.000000,297.000000,272.000000,25.000000,8.000000,0.000000,0.000000:
0000
0000
0000
0000
,
0000
0000
0000
0000
,
0000
0000
0000
0000
,
0000
0000
0000
0000
,
0000
0000
0000
0000
,
0110
0000
0000
0000
0000
0000
0000
1000
,
0001
0000
0000
0000
0000
0000
0000
0100
,
0010
0000
0000
1000
0001
0000
0000
0010
,
0200
0000
0000
0301
,
0010
0001
0100
0001
,
0010
0000
0001
0000
0100
0001
0010
0000
,
1000
0010
1000
0100
,
2000
0000
3002
0000
,
0013
0000
0100
0000
1000
0001
0100
0000
,
0010
0000
0100
0000
0001
1000
0100
0000
,
0001
0100
0001
0000
1000
0100
1000
0000
,
2002
0000
3003
0000
,
0000
0000
0010
0000
0000
0100
1000
0000
,
1000
0100
0100
0010
,
0010
0000
0001
0010
0001
0000
0001
0000
,
0001
0100
0100
0010
,
0010
0000
1000
0100
1000
0000
1000
0000
,
0010
1000
0010
0001
,
0010
0000
0001
0010
0001
0000
0001
0000
,
0100
0001
0100
2002
,
0000
0000
3003
0010
,
1000
0000
0001
0000
0100
0000
0010
1000
,
0001
0100
0000
0000
1001
0000
0100
0000
,
1000
0000
0001
0000
0010
0000
0100
1000
,
0001
0010
0000
0000
1001
0000
0010
0000
,
1000
0000
0100
0000
1000
0000
0010
1000
,
0100
1000
0000
0000
0110
0000
0100
0000
,
0001
0000
0010
0000
0001
0000
0100
0001
,
0010
0001
0000
0000
0110
0000
1001
0000
,
0110
1001
0110
0010
,
0100
0010
0100
0001
,
0001
1000
1000
0010
,
0010
0100
0100
0110
,
1001
0110
1001
0001
,
0010
0100
1000
0010
,
1001
0100
1001
0001
,
0110
1000
0110
0200
,
0000
0000
0000
0310
,
0010
0100
0100
0010
,
0010
0100
0100
0001
,
0001
1000
1000
0010
,
0100
0000
0010
0100
0010
0100
1000
0000
,
0100
1000
0110
0001
,
0100
0001
0110
1000
,
0001
1000
1001
0001
,
1000
0001
1001
0100
,
1000
0000
0100
1000
0100
0000
0010
0000
,
0001
0000
0010
0001
0010
0000
0001
0000
,
1000
0000
0001
1000
0001
0000
1000
0001
,
1000
1001
1001
0001
,
0001
0010
0010
0100
,
0100
0000
1000
0100
1000
0000
1000
0000
,
1000
0010
0010
0100
,
0100
0000
0001
0010
0001
0000
0001
0000
,
0100
0001
0100
1000
,
0100
0000
1000
0100
1000
0000
1000
0000
,
0010
1000
0010
0001
,
0010
0000
0001
0010
0001
0000
0010
0000
,
0001
0100
0010
1000
,
0100
0000
0010
1000
0100
0000
0010
0000
,
1000
0100
0010
0001
,
0100
0000
0010
0001
0100
0000
1000
0000
,
0100
0001
0010
1000
,
0100
0000
1000
0100
0001
0000
0001
0000
,
0010
1000
0100
0001
,
0010
0000
0001
0100
1000
0000
0100
0000
,
0000
0000
0000
0000
;

//---------------dance-single - ----------------
#NOTES:
     dance-single:
     :
     Medium:
     10:
     0.485167,0.578212,0.326904,0.099887,0.018161,374.000000,338.000000,36.000000,11.000000,0.000000,0.000000,0.485167,0.578212,0.326904,0.099887,0.018161,374.000000,338.000000,36.000000,11.000000,0.000000,0.000000:
0000
0000
0000
0000
,
0000
0000
0000
0000
,
0000
0000
0000
0000
,
0000
0000
0000
0000
,
0000
0000
0000
0000
,
0110
0000
0000
0000
0000
0000
0000
1000
,
0001
0000
0000
0000
0000
0000
0000
0100
,
0010
0000
0000
1000
0001
0000
0000
0010
,
0001
0000
0000
0010
0000
0000
0100
0000
0000
1000
0000
0000
0001
0000
0000
0000
,
0001
0010
0100
0000
0001
0010
0100
0000
,
0001
0010
0100
0000
0110
0000
1001
0000
,
1000
0010
0100
0000
1000
0010
0100
0000
,
1000
0000
0000
0010
0000
0000
0100
0000
0000
0001
0000
0000
1000
0000
0000
0000
,
0001
0100
1000
0000
0001
0100
1000
0000
,
0010
0001
0100
0000
0010
1000
0100
0000
,
1000
0100
0001
0000
1000
0100
0001
0000
,
0220
0000
0330
0000
,
0002
0000
0003
2000
0000
3000
0010
0000
,
0001
0000
0100
0000
1000
0000
0010
1000
,
0100
0010
0001
0100
0010
0000
0010
0000
,
1000
0000
0100
0000
0001
0000
0010
0001
,
0100
0010
1000
0100
0010
0000
1000
0000
,
0110
0000
0001
0000
0110
0000
0001
0010
,
0100
0010
0001
1000
0100
0000
0001
0000
,
0110
1000
0110
2002
,
0000
0000
3003
1000
,
1000
0000
0001
0000
0001
0000
0010
1000
,
0100
0010
0000
0001
0001
0000
0001
1000
,
0100
0000
0010
1000
0100
0000
0010
0001
,
0100
0010
0000
1000
1000
0000
0001
0000
,
0001
0000
1000
0000
1000
0000
0001
1000
,
0100
0010
0000
0100
0100
0000
1000
0001
,
0100
0000
0100
0001
0010
0000
1000
0001
,
0010
0100
0000
0010
0100
0000
1001
0000
,
1100
1001
0101
1001
,
1010
0000
1001
0000
0011
0000
0010
1000
,
0100
0000
0010
1000
0100
0000
0010
0001
,
0100
0000
0010
0001
0100
0000
1001
0000
,
0011
1001
1010
1001
,
0011
1001
1010
2000
,
3010
0002
0013
2000
,
3100
0002
0103
0020
,
0000
0000
0000
1030
,
0100
0001
0010
0100
,
1000
0000
0010
0000
0001
0000
1000
1000
,
0100
0100
0010
0010
0001
0001
0100
0010
,
1000
0100
0001
0010
1000
1001
0001
0000
,
0100
0001
0000
0010
0100
0000
1000
0100
,
0000
0000
1100
0000
0101
0000
0010
1000
,
0100
0000
0010
0001
0100
0000
0010
1000
,
0100
0000
0010
0001
0100
0000
1000
0000
,
0010
1000
0000
0100
0010
0000
0001
0010
,
0000
0000
0011
0000
1010
0000
0100
0001
,
0010
0100
0000
1000
0010
0100
0000
0001
,
0010
0100
1000
0000
0110
0000
0100
0000
,
1000
0000
0010
0000
0001
0000
0100
0001
,
0010
0100
1000
0010
0100
0000
0100
0000
,
0001
0000
0010
0000
1000
0000
0100
1000
,
0010
0100
0001
0010
0100
0000
0001
0000
,
0110
0000
1000
0000
0110
0000
1000
0100
,
0010
0100
1000
0001
0010
0000
1000
0000
,
0110
0000
0001
0000
0110
0000
0001
0100
,
0010
0100
0001
1000
0010
0000
1000
0100
,
1000
0000
0001
0100
0001
0000
1000
0100
,
1000
0010
1000
0100
1000
0000
0001
0100
,
0001
0000
1000
0100
1000
0000
0001
0100
,
0001
0010
0001
0100
0001
0000
1000
0010
,
0100
0000
0001
0010
0100
0000
1000
0100
,
0010
0001
0100
1000
0100
0000
0001
0100
,
0010
0000
1000
0100
0010
0000
0001
0010
,
1000
0010
0001
0100
1000
0000
1001
0000
,
0000
0000
0000
0000
;

//---------------dance-single - ----------------
#NOTES:
     dance-single:
     :
     Hard:
     13:
     0.588946,0.867318,0.208855,0.236097,0.199775,454.000000,431.000000,23.000000,26.000000,0.000000,0.000000,0.588946,0.867318,0.208855,0.236097,0.199775,454.000000,431.000000,23.000000,26.000000,0.000000,0.000000:
0000
0000
0000
0000
,
0000
0000
0000
0000
,
0000
0000
0000
0000
,
0000
0000
0000
0000
,
0000
0000
0000
0000
,
0110
0000
0000
0000
0000
0000
0000
1000
,
0001
0000
0000
0000
0000
0000
0000
0100
,
0010
0000
0000
1000
0001
0000
0000
0010
,
0002
0000
0000
0023
0000
0000
0230
0000
0000
1300
0010
0000
0100
0000
0001
0000
,
0010
0001
0100
0001
0010
0001
0100
0001
,
0010
0001
0100
0010
1000
0100
0010
0001
,
1000
0100
1000
0010
1000
0100
1000
0010
,
1010
0000
0000
0100
0000
0000
0011
0000
0000
0001
0010
0000
0100
0000
0010
0000
,
0001
0010
1000
0010
0001
0010
1000
0010
,
0001
0100
1000
0100
0001
0100
1000
0100
,
0010
1000
0100
0010
0001
0100
0010
1000
,
2002
0000
3003
0000
,
1000
0000
0010
1000
0000
0000
0001
0100
0001
0100
0000
0000
0001
0000
0010
0000
,
0001
0000
0010
0000
0100
0000
0000
0100
0000
0000
0100
0000
1000
0000
0010
0000
,
1000
0000
0010
0000
0100
0000
0000
0100
0000
0000
0100
0000
0001
0000
1000
0000
,
0001
0000
1000
0000
0010
0000
0000
0010
0000
0000
0010
0000
0100
0000
0001
0000
,
0010
0000
0001
0000
1000
0000
0000
1000
0000
0000
1000
0000
0010
0000
0100
0000
,
0010
0000
0100
0000
0001
0000
0000
0001
0000
0000
0001
0000
1000
0000
0100
0000
,
1000
0000
0100
0000
0010
0000
0000
0010
0000
0000
0010
0000
0001
0000
1000
0000
,
0001
0000
1000
0000
0010
0000
0000
0010
0000
0000
0010
0000
0200
0000
0000
0000
,
0000
0000
0300
1010
,
0101
0000
0001
0010
0100
0010
0001
1000
,
0100
1000
0000
0001
0001
0000
1000
0010
,
0100
0010
1000
0001
0010
0100
1000
0010
,
0100
0001
0000
1000
1000
0000
0001
0010
,
1000
0000
0010
0001
0100
0010
1000
0010
,
0100
1000
0000
0100
0010
0000
1000
0010
,
0001
0010
0100
0001
0100
0010
1000
0010
,
0100
1000
0000
0001
0010
0100
1100
0000
,
0101
0000
1100
0000
0101
0000
0010
1000
,
0100
0000
0010
0001
0100
0010
2000
0000
,
3001
0000
0010
0002
0000
2003
0000
3010
,
0100
0001
0000
1000
0100
0010
0011
0000
,
1010
0000
0011
0000
1010
0000
0001
0010
,
0100
1000
0000
0010
0100
0001
0020
0000
,
0130
0000
2000
0000
3010
0000
0010
1000
,
0100
0010
0001
0100
0010
0200
0000
0000
,
0000
0000
0000
0320
,
2030
0000
3002
0000
1003
1001
0200
0000
,
0302
0000
0000
0000
2003
0000
0000
0000
3001
0000
1001
0000
1000
0001
0100
0000
,
0001
1000
0100
0000
1000
0001
0010
0000
0001
1000
0010
0000
1000
0001
0010
0100
,
0000
1000
0010
0100
0000
0001
0010
0100
1000
0000
1001
0000
0002
0000
0000
0000
,
0013
0200
0000
0310
0002
0000
1003
0020
,
0000
0130
0010
0000
1001
0000
0010
1000
,
0100
0010
0000
1001
0000
0110
0000
0001
,
0010
0100
0000
0100
0100
0000
2000
0000
,
3100
0020
0000
0130
2000
0000
3001
0200
,
0000
0310
0100
0000
1001
0000
0010
0001
,
0100
0010
0000
1000
0100
0010
0000
0001
,
0100
0010
1000
0000
1001
0000
1000
0100
,
1000
0000
0100
0000
0010
0000
0000
0010
0000
0000
0010
0000
0001
0000
0100
0000
,
0001
0000
0100
0000
0010
0000
0000
0010
0000
0000
0010
0000
1000
0000
0001
0000
,
1000
0000
0001
0000
0100
0000
0000
0100
0000
0000
0100
0000
0010
0000
1000
0000
,
0100
0000
1000
0000
0001
0000
0000
0001
0000
0000
0001
0000
0100
0000
0010
0000
,
0100
0000
0010
0000
1000
0000
0000
1000
0000
0000
1000
0000
0001
0000
0010
0000
,
0001
0000
0010
0000
0100
0000
0000
0100
0000
0000
0100
0000
1000
0000
0001
0000
,
1000
0000
0001
0000
0100
0000
0000
0100
0000
0000
0100
0000
0010
0000
1000
0000
,
0100
0000
1000
0000
0001
0000
0000
0001
0000
0000
0001
0000
1000
0000
0010
0100
,
0000
0010
0100
0000
0001
0000
0010
0100
0000
0010
0100
0000
1000
0000
0010
0100
,
0000
0010
0100
0000
0001
0000
0010
0000
0100
0000
1000
0000
0001
0000
0100
0010
,
0000
1000
0010
0000
1000
0000
0100
0010
0000
0001
0010
0000
0001
0000
1000
0001
,
0000
0100
0010
0000
1000
0000
0100
0000
0010
0000
0001
0000
0010
0000
1000
0000
,
0010
0001
0100
1000
0100
0001
1000
0100
,
0001
0100
1000
0010
0001
0010
1000
0010
,
0100
0001
0100
1000
0001
0010
1000
0010
,
0100
0001
0010
0100
0001
0100
0110
0000
,
0000
0000
0000
0000
;

//---------------dance-double - ----------------
#NOTES:
     dance-double:
     :
     Easy:
     8:
     0.372308,0.417597,0.208855,0.054484,0.000000,287.000000,264.000000,23.000000,6.000000,0.000000,0.000000,0.372308,0.417597,0.208855,0.054484,0.000000,287.000000,264.000000,23.000000,6.000000,0.000000,0.000000:
00000000
00000000
00000000
00000000
,
00000000
00000000
00000000
00000000
,
00000000
00000000
00000000
00000000
,
00000000
00000000
00000000
00000000
,
00000000
00000000
00000000
00000000
,
01000000
00000000
00000000
00000000
00000000
00000000
00000000
00010000
,
00001000
00000000
00000000
00000000
00000000
00000000
00000000
00000100
,
00000010
00000000
00000000
00000001
00001000
00000000
00000000
00000001
,
00000020
00000000
00000000
00000130
,
00000001
00000010
00001000
00000010
,
00000001
00000000
00000100
00000000
00001000
00010000
00001000
00000000
,
00010000
00100000
10000000
00100000
,
00020000
00000000
00031000
00011000
,
00010000
00000000
01000000
00000000
10000000
01000000
00100000
00000000
,
00010000
00000000
01000000
00000000
00010000
00100000
01000000
00000000
,
00100000
00001000
00010000
00000100
,
00001001
00000000
00000000
00000000
,
00000020
00000000
00000030
00000200
00000000
00000300
00000001
00000000
,
00000010
00000100
00000010
00000001
,
00000010
00000000
00000001
00000100
00001000
00000000
00010000
00000000
,
00001000
00100000
00001000
01000000
,
00010000
00000000
01000000
00010000
01000000
00000000
00010000
00000000
,
10000000
00100000
01000000
00001000
,
00010000
00000000
00001000
00010000
00001000
00000000
00010000
00000000
,
00000010
00000100
00001000
00000200
,
00000000
00000000
00000300
00000010
,
00000001
00000000
00001000
00000000
00000100
00000000
00000010
00000001
,
00001000
00000100
00000000
00000000
00000110
00000000
00010000
00000000
,
00001000
00000000
00100000
00000000
00001000
00000000
00010000
00001000
,
00100000
00001000
00000000
00000000
00011000
00000000
00010000
00000000
,
00000100
00000000
00010000
00000000
00000010
00000000
00010000
00000100
,
00010000
00000010
00000000
00000000
00011000
00000000
00100000
00000000
,
00010000
00000000
10000000
00000000
01000000
00000000
00100000
00010000
,
10000000
01000000
00000000
00000000
10010000
00000000
00100000
00000000
,
00011000
00100000
00011000
00001000
,
00000010
00000001
00000100
00001000
,
00000100
00001000
00000100
00000001
,
00000100
00000001
00001001
00000010
,
00011000
00000010
00011000
00000010
,
00000001
00000100
00001000
00000001
,
00000001
00001000
00001000
00010000
,
00010000
10000000
20000000
00000000
,
00000000
00000000
00000000
30100000
,
10000000
00010000
01000000
00001000
,
00010000
00000100
00000010
00000001
,
00001000
00000010
00000100
00001000
,
00010000
00000000
01000000
01000000
00100000
00100000
00010000
00000000
,
01000000
00010000
01100000
10000000
,
00100000
10000000
01100000
00100000
,
00001000
00100000
00011000
00001000
,
00000100
00001000
00011000
00001000
,
00000010
00000100
00000110
00000001
,
00000100
00001000
00011000
00001000
,
00001000
00000000
00010000
00000000
00010000
00000000
00001000
00010000
,
00001000
00011000
00011000
00100000
,
01000000
00100000
01000000
10000000
,
01000000
00000000
10000000
01000000
00010000
00000000
00001000
00000000
,
00010000
00000100
00010000
00000010
,
00001000
00000000
00000010
00001000
00000010
00000000
00001000
00000000
,
00000001
00000100
00000010
00010000
,
00001000
00000000
00010000
00001000
00010000
00000000
00001000
00000000
,
01000000
00100000
00010000
00100000
,
10000000
00000000
01000000
10000000
01000000
00000000
00100000
00000000
,
10000000
01000000
00010000
00001000
,
00000100
00000001
00001001
00000001
,
00000100
00001000
00010000
01000000
,
10000000
00100000
10010000
10000000
,
00100000
00010000
00001000
00000010
,
00000001
00000100
00001001
00000001
,
00000010
00001000
00010000
00100000
,
10000000
00000000
00100000
10000000
01000000
00000000
10010000
00000000
,
00000000
00000000
00000000
00000000
;

//---------------dance-double - ----------------
#NOTES:
     dance-double:
     :
     Medium:
     11:
     0.500734,0.578212,0.281501,0.090807,0.018161,386.000000,355.000000,31.000000,10.000000,0.000000,0.000000,0.500734,0.578212,0.281501,0.090807,0.018161,386.000000,355.000000,31.000000,10.000000,0.000000,0.000000:
00000000
00000000
00000000
00000000
,
00000000
00000000
00000000
00000000
,
00000000
00000000
00000000
00000000
,
00000000
00000000
00000000
00000000
,
00000000
00000000
00000000
00000000
,
01000000
00000000
00000000
00000000
00000000
00000000
00000000
00010000
,
00001000
00000000
00000000
00000000
00000000
00000000
00000000
00000100
,
00000010
00000000
00000000
00000001
00001000
00000000
00000000
00000001
,
00000010
00000000
00000000
00000100
00000000
00000000
00001000
00000000
00000000
00000010
00000000
00000000
00001001
00000000
00000000
00000000
,
00000001
00000010
00000100
00000000
00001000
00000010
00000100
00000000
,
00000010
00001000
00000100
00000000
00011000
00000000
00110000
00000000
,
10000000
00100000
01000000
00000000
00010000
00100000
01000000
00000000
,
01000000
00000000
00000000
00010000
00000000
00000000
00001000
00000000
00000000
00000100
00000000
00000000
00000010
00000000
00001000
00000000
,
00000001
00000010
00000100
00000000
00001000
00000010
00000100
00000000
,
00000001
00000010
00000100
00000000
00001000
00000100
00010000
00000000
,
00001000
00010000
01000000
10000000
00100000
01000000
00010000
10000000
,
20020000
00000000
30030000
00000000
,
02000000
00000000
03001000
00020000
00000000
00030100
00000010
00000000
,
00000001
00000000
00000100
00000000
00000010
00000000
00000001
00001000
,
00000100
00010000
00001000
00100000
01000000
00000000
00100000
00000000
,
10000000
00000000
01000000
00000000
00100000
00000000
10000000
00010000
,
01000000
00001000
00010000
00000100
00001000
00000000
00000010
00000100
,
00000001
00000000
00001000
00000010
00000100
00000000
00000001
00000010
,
00000100
00010000
00001000
01000000
00100000
00000000
10000000
00100000
,
01000000
00000000
00010000
00100000
01000000
00000000
10000000
00100000
,
01000000
00001000
00010000
00000100
00000010
00000000
00001000
00000000
,
00001010
00000000
00000100
00000000
00000101
00000000
00000001
00000100
,
00001000
00010000
00000000
00001000
00001000
00000000
00010000
00001000
,
00100000
00000000
00001000
00010000
00000100
00000000
00001000
00010000
,
01000000
10000000
00000000
00010000
00010000
00000000
00010000
00000000
,
00110000
00000000
10000000
00000000
11000000
00000000
10000000
01000000
,
00010000
00001000
00000000
00010000
00010000
00000000
00001000
00010000
,
00000010
00000000
00010000
00001000
01000000
00000000
00010000
00001000
,
00000100
00000001
00000000
00001000
00001000
00000000
00000011
00000000
,
00000101
00001010
00001100
00011000
,
00110000
00000000
01010000
00000000
10010000
00000000
00010000
01000000
,
10000000
00000000
10000000
01000000
00010000
00000000
00010000
00100000
,
10000000
00000000
10000000
00100000
00010000
00000000
10100000
00000000
,
11000000
00110000
01010000
00011000
,
00001010
00001100
00001001
00000002
,
00000013
00002000
00003100
00000020
,
00010030
00200000
00301000
00020000
,
00000000
00000000
00000000
10030000
,
01000000
00010000
00001000
00000100
,
00000001
00000000
00000010
00000000
00000100
00000000
00000001
00000001
,
00000010
00000010
00001000
00001000
00010000
00010000
00001000
00100000
,
01000000
10000000
00100000
01000000
00010000
01100000
10000000
00000000
,
00010000
00100000
00000000
10000000
00100000
00000000
01000000
00010000
,
00000000
00000000
00110000
00000000
00011000
00000000
00001000
00000010
,
00000000
00000001
00000000
00000100
00000000
00000020
00000000
00001030
,
00000100
00000010
00000000
00000001
00000001
00000000
00000010
00000000
,
00001000
00000010
00000000
00000001
00000010
00000000
00000100
00001000
,
00000000
00000000
00001010
00000000
00011000
00000000
00010000
00100000
,
10000000
01000000
00000000
10000000
00100000
01000000
00000000
00100000
,
01000000
00001000
00010000
00000000
00011000
00000000
01000000
00000000
,
10000000
00000000
00100000
00000000
01000000
00000000
10000000
00010000
,
00100000
00001000
00010000
00000100
00000010
00000000
00000100
00000000
,
00000001
00000000
00000010
00000000
00000100
00000000
00000001
00001000
,
00000010
00010000
00001000
00100000
00010000
00000000
01000000
00100000
,
10000000
00000000
00010000
01000000
00100000
00000000
10000000
01000000
,
00100000
00001000
00010000
00000010
00000100
00000000
00000001
00000100
,
00000010
00000000
00001000
00000100
00000010
00000000
00000001
00000100
,
00000010
00010000
00001000
00100000
01000000
00000000
01000000
10000000
,
00100000
00000000
01000000
00010000
00100000
00000000
00010000
00100000
,
10000000
00100000
00010000
00001000
00000100
00000000
00000010
00000001
,
00000100
00000000
00000010
00001000
00000100
00000000
00001000
00000010
,
00000001
00000010
00001000
00010000
01000000
00000000
01000000
00010000
,
00100000
00000000
00010000
00100000
10000000
00000000
10000000
00100000
,
00010000
00001000
00000100
00000010
00000100
00000000
00000100
00001000
,
00000010
00000000
00001000
00000010
00000001
00000000
00000001
00000010
,
00001000
00010000
01000000
00100000
01000000
00000000
10010000
00000000
,
00000000
00000000
00000000
00000000
;

//---------------dance-double - ----------------
#NOTES:
     dance-double:
     :
     Hard:
     13:
     0.569488,0.674580,0.272420,0.236097,0.172533,439.000000,409.000000,30.000000,26.000000,0.000000,0.000000,0.569488,0.674580,0.272420,0.236097,0.172533,439.000000,409.000000,30.000000,26.000000,0.000000,0.000000:
00000000
00000000
00000000
00000000
,
00000000
00000000
00000000
00000000
,
00000000
00000000
00000000
00000000
,
00000000
00000000
00000000
00000000
,
00000000
00000000
00000000
00000000
,
01000000
00000000
00000000
00000000
00000000
00000000
00000000
00010000
,
00001000
00000000
00000000
00000000
00000000
00000000
00000000
00000100
,
00000010
00000000
00000000
00000001
00001000
00000000
00000000
00000001
,
00002000
00000000
00000000
00003200
00000000
00000000
00000310
00000000
00000000
00000001
00000000
00000000
00000010
00000000
00000100
00000000
,
00001000
00000100
00000001
00000100
00001000
00000100
00000001
00001000
,
00000010
00000001
00000010
00001000
00000010
00000001
00000100
00001000
,
00010000
00100000
10000000
00100000
00010000
00100000
10000000
00010000
,
01010000
00000000
00000000
01100000
00000000
00000000
10100000
00000000
00000000
10010000
00000000
00000000
00100000
00000000
01000000
00000000
,
00010000
01000000
10000000
01000000
00010000
01000000
10000000
00010000
,
00100000
10000000
00100000
00010000
00100000
10000000
01000000
00010000
,
00001000
00000100
00000001
00000010
00001000
00000010
00000001
00000100
,
00000020
00000000
00000030
00000000
,
00000000
00000000
00000000
00000000
00001000
00000000
00000000
00000000
00000000
00000000
00010000
00000000
00010000
00000000
00000000
00001000
,
00000000
00000000
00010000
00000000
01000000
00000000
00000000
00100000
00000000
00000000
01000000
00000000
10000000
00000000
00100000
00000000
,
01000000
00000000
00010000
00000000
00100000
00000000
01000000
00000000
10000000
00000000
00100000
00000000
01000000
00000000
00000000
00010000
,
00000000
00000000
00100000
00000000
00001000
00000000
00000000
00000100
00000000
00000000
00000010
00000000
00001000
00000000
00000010
00000000
,
00000100
00000000
00000001
00000000
00000010
00000000
00000100
00000000
00001000
00000000
00000001
00000000
00000100
00000000
00000000
00001010
,
00000000
00000000
00000010
00000000
00000100
00000000
00000000
00000110
00000000
00000000
00000001
00000000
00000010
00000000
00000100
00000000
,
00010000
00000000
00001000
00000000
00100000
00000000
01000000
00000000
10000000
00000000
00010000
00000000
01000000
00000000
00000000
10010000
,
00000000
00000000
00100000
00000000
01000000
00000000
00000000
01100000
00000000
00000000
00010000
00000000
00220000
00000000
00000000
00000000
,
00000000
00000000
00000000
00000000
00330000
00000000
10000000
00010000
,
01000000
00000000
00010000
10000000
01000000
00000000
00100000
10000000
,
01000000
00010000
00000000
00001000
00001000
00000000
00001000
00000100
,
00000001
00000000
00000001
00001000
00000100
00000000
00000010
00000001
,
00000100
00001000
00000000
00010000
00010000
00000000
00001000
00010000
,
00100000
00000000
10000000
00010000
01000000
00000000
00100000
10000000
,
01000000
00010000
00000000
00001000
00001000
00000000
00010000
00001000
,
00000010
00000000
00000001
00001000
00000100
00000000
00000010
00000001
,
00000100
00001000
00000000
00010000
00001000
00100000
00101000
00000000
,
00011000
00000000
00001010
00000000
00011000
00000000
00001000
00010000
,
01000000
00000000
00010000
01000000
10000000
00100000
00010000
00000000
,
00100000
00000000
10000000
00000000
01000000
00000000
00010000
01000000
,
10000000
00100000
00000000
00100000
01000000
00001000
01001000
00000000
,
00011000
00000000
00001100
00000000
00011000
00000000
00010000
00001000
,
00000100
00000001
00000000
00000001
00000010
00001000
00000010
00000000
,
00000001
00000100
00000010
00002000
,
00003200
00000320
00000032
00000000
,
00000000
00000000
00000000
00000000
00000000
00000000
00000000
00000000
00000000
00000000
00000000
00000000
00002003
00000000
00000000
00003020
,
00000000
00000000
00000032
00000000
00000000
00000023
00000000
00000000
00000130
00000000
00000110
00000000
00001000
00000000
00010000
00000000
,
01000000
00000000
00100000
00000000
00010000
00000000
10000000
00000000
00100000
00000000
01000000
00000000
20000000
00000000
00000000
32000000
,
00000000
00000000
03020000
00000000
00000000
00230000
00000000
00000000
10300000
00000000
01100000
00000000
00010000
00100000
01000000
10000000
,
00000000
00100000
01000000
00010000
00000000
00100000
01000000
10000000
00100000
00000000
01100000
00000000
20000000
00000000
00000000
00000000
,
31000000
00200000
00000000
00310000
02000000
00000000
03001000
00200000
,
00000000
00310000
01000000
00000000
00011000
00000000
00010000
00001000
,
00000000
00011000
00000000
00001100
00000000
00000020
00000000
00000031
,
00000100
00001000
00000000
00000010
00000010
00000000
00000002
00000000
,
00000013
00000200
00000000
00001300
00000020
00000000
00010030
00000200
,
00000000
00001300
00000010
00000000
00011000
00000000
00001000
00000100
,
00000010
00001000
00000000
00000001
00000010
00000100
00000000
00001000
,
00000100
00000000
00000010
00000000
00000001
00000000
00000000
00000000
00000110
00000000
00000000
00000000
00001000
00000000
00000000
00010000
,
00000000
00000000
00001000
00000000
00000010
00000000
00000000
00000100
00000000
00000000
00000010
00000000
00000001
00000000
00000100
00000000
,
00000010
00000000
00001000
00000000
00000100
00000000
00000010
00000000
00000001
00000000
00000100
00000000
00000010
00000000
00000000
00001000
,
00000000
00000000
00000100
00000000
00010000
00000000
00000000
00100000
00000000
00000000
01000000
00000000
00010000
00000000
01000000
00000000
,
00100000
00000000
10000000
00000000
01000000
00000000
00100000
00000000
00010000
00000000
10000000
00000000
00100000
00000000
00000000
01010000
,
00000000
00000000
01000000
00000000
00100000
00000000
00000000
01100000
00000000
00000000
10000000
00000000
01000000
00000000
00100000
00000000
,
00001000
00000000
00010000
00000000
00000100
00000000
00000010
00000000
00000001
00000000
00001000
00000000
00000010
00000000
00000000
00001001
,
00000000
00000000
00000100
00000000
00000010
00000000
00000000
00000110
00000000
00000000
00001000
00000000
00000100
00000000
00000010
00000000
,
00000001
00000000
00000100
00000000
00000010
00000000
00001000
00000000
00000001
00000000
00000010
00000000
00000010
00000000
00000001
00000010
,
00000000
00000001
00000100
00000000
00000010
00000000
00000100
00000010
00000000
00001000
00000010
00000000
00001000
00000000
00000100
00000000
,
00000001
00000000
00001000
00000000
00000010
00000000
00000001
00000000
00000100
00000000
00000010
00000000
00001000
00000000
00000100
00010000
,
00000000
00001000
00010000
00000000
00001000
00000000
00100000
00010000
00000000
01000000
00100000
00000000
10000000
00000000
00100000
00000000
,
00010000
10000000
01000000
00010000
00100000
01000000
10000000
01000000
,
00100000
00010000
10000000
00100000
00010000
00100000
00001000
00100000
,
00010000
10000000
01000000
00010000
00100000
00001000
00010000
00000100
,
00000001
00000100
00001000
00000010
00000001
00001000
00000100
00000010
,
00001000
00010000
00001000
00000010
00000001
00000010
00000110
00000000
,
00000000
00000000
00000000
00000000
;

//---------------dance-single - ----------------
#NOTES:
     dance-single:
     :
     Challenge:
     18:
     1.022224,1.717609,0.199775,0.054484,1.407504,788.000000,766.000000,22.000000,6.000000,0.000000,0.000000,1.022224,1.717609,0.199775,0.054484,1.407504,788.000000,766.000000,22.000000,6.000000,0.000000,0.000000:
// measure 0
0000
0000
0000
0000
,  // measure 1
0000
0000
0000
0000
,  // measure 2
0000
0000
0000
0000
,  // measure 3
0000
0000
0000
0000
,  // measure 4
0000
0000
0000
0000
,  // measure 5
0010
0000
1000
0010
0000
1000
0010
0100
0001
0000
0010
0001
0000
0010
0001
1000
,  // measure 6
0010
0000
0100
0001
0000
0100
0001
1000
0001
0010
0100
0000
1000
0000
1000
0000
,  // measure 7
1100
0000
0010
0100
0000
1000
0001
0000
0101
0000
1000
0001
0000
0010
0100
0000
,  // measure 8
1100
0000
0000
0101
0000
0000
1100
0000
0000
0001
1000
0000
0001
0010
0100
1000
,  // measure 9
0010
0000
0100
0001
0100
0010
0100
0001
1000
0000
0100
0010
0100
1000
0001
1000
,  // measure 10
0010
0000
0100
0001
0100
0010
1000
0001
1000
0100
0010
0000
0001
0000
0001
1000
,  // measure 11
0100
0000
1000
0010
1000
0010
0100
0001
0010
0000
0100
1000
0000
0001
0000
0100
,  // measure 12
0010
0000
1000
0010
0000
1000
0010
0000
1000
0010
0000
0000
1000
0010
1000
0010
,  // measure 13
0100
0000
0001
0010
0100
0010
0001
1000
0010
0000
1000
0100
1000
0010
0100
0001
,  // measure 14
0010
0000
0100
1000
0010
1000
0010
0100
0001
0010
0001
0100
0001
0010
0001
1000
,  // measure 15
0100
0000
1000
0100
0010
0001
0010
0100
1000
0000
0001
0010
0100
1000
0100
0010
,  // measure 16
0002
0000
2000
3003
,  // measure 17
1010
0000
0100
0001
0010
0000
0001
0100
1000
0010
0001
0000
1000
0000
0010
0100
,  // measure 18
0000
0100
0001
0000
0010
0000
0001
1000
0000
1000
0010
0000
0100
0000
0010
1000
,  // measure 19
0000
1000
0001
0000
0010
0000
0100
0010
0000
0010
0001
0000
0100
0000
0010
1000
,  // measure 20
0000
0010
0100
0000
0001
0000
1000
0100
0000
1000
0001
0000
0010
0000
0100
0010
,  // measure 21
0000
0001
0100
0000
0010
0000
1000
0100
0000
1000
0001
0000
0110
0000
1000
0010
,  // measure 22
0000
1000
0001
0000
0100
0000
0010
1000
0000
0001
0100
0000
0001
0000
0010
0100
,  // measure 23
0000
0100
1000
0000
0010
0000
1000
0100
0000
0100
0001
0000
1010
0000
0100
0010
,  // measure 24
0000
1000
0001
0000
0010
0000
0100
0010
0000
0001
1000
0000
0010
0000
1000
0001
,  // measure 25
0000
0001
0010
0100
1000
0000
0010
0100
0000
0100
0001
1000
0010
0000
0100
0000
,  // measure 26
0001
0000
0100
0000
0010
1000
0001
0000
0010
0000
0100
0000
1000
0010
1000
0000
,  // measure 27
0100
0000
0010
0000
0001
0100
0001
0000
1000
0000
0010
0000
0100
0010
0100
0000
,  // measure 28
0001
0000
1000
0000
0001
0010
0100
0000
0010
0000
0001
0000
1000
0010
0100
0000
,  // measure 29
0010
0000
1000
0000
0001
0010
0100
0000
1000
0000
0001
0000
0100
0010
1000
0000
,  // measure 30
0001
0000
0010
0000
0001
1000
0010
0000
1000
0000
0100
0000
0010
0001
0010
0000
,  // measure 31
0100
0000
0001
0000
0100
1000
0010
0000
0100
0000
0001
0000
1000
0010
0100
0000
,  // measure 32
0010
0000
1000
0000
0100
0010
0001
0000
1000
0000
0001
0000
0100
0001
0010
0000
,  // measure 33
0100
0000
1000
0000
0010
0000
0100
0001
0000
0001
0010
0100
2000
0000
0010
0000
,  // measure 34
3002
0000
0010
0000
1003
0001
0100
0000
0010
0000
1000
0000
0100
0000
0010
0001
,  // measure 35
0000
0010
0001
0000
0100
0000
0010
1000
0000
0010
1000
0000
0001
0100
0000
0010
,  // measure 36
0000
1000
0100
0000
0010
0100
0000
0010
0000
0001
1000
0000
0001
0000
1000
0010
,  // measure 37
0000
1000
0010
0000
0100
0000
0001
0010
0000
0001
0010
0000
1001
0000
0100
0010
,  // measure 38
1000
0010
0100
0010
1000
0000
0001
0010
0100
0010
0001
1000
0100
0000
1000
0010
,  // measure 39
1000
0010
0100
0001
1000
0000
0001
0010
0100
0010
0100
1000
0001
0000
0100
0010
,  // measure 40
1000
0010
0100
0000
0001
0000
1000
0001
0010
0100
1000
0000
0001
1000
0100
0010
,  // measure 41
0100
0010
1000
0001
1000
0001
1000
0100
0010
0100
0001
0010
0001
0010
1000
0100
,  // measure 42
1000
0001
0100
0010
1000
0100
0010
0001
0100
0010
0001
1000
0010
0000
0000
1000
,  // measure 43
0100
0010
0001
0000
0100
0010
0000
0000
1010
0000
0101
0000
1000
0001
0000
0010
,  // measure 44
0000
0001
0000
0200
0000
0010
0010
0010
0301
0000
0000
0000
1001
0000
0010
1000
,  // measure 45
0100
0010
0100
0010
0001
1000
0010
0000
0110
0000
0001
0010
0001
1000
0100
0000
0010
0001
0010
0100
1000
0000
1010
0000
0101
0000
0001
0010
0100
0000
1100
0000
,  // measure 46
0011
0000
0000
0000
0000
0000
0000
0000
0000
0000
0000
0000
0100
0000
0000
0000
0000
0000
0010
0000
0000
0000
0000
0000
1000
0000
0000
0000
0000
0000
0000
0000
0000
0000
0000
0000
1001
0000
0000
0000
0000
0000
0000
0000
0000
0000
0000
0000
0110
0000
0000
0000
0000
0000
0000
0000
0000
0000
0000
0000
0000
0000
0000
0000
0000
0000
0000
0000
0000
0000
0000
0000
1010
0000
0000
0000
0000
0000
0000
0000
0000
0000
0000
0000
0000
0000
0000
0000
0000
0000
0000
0000
0000
0000
0000
0000
0011
0000
0000
0000
0000
0000
0000
0000
0000
0000
0000
0000
1000
0000
0000
0000
0000
0000
0100
0000
0000
0000
0000
0000
0010
0000
0000
0000
0000
0000
0000
0000
0000
0000
0000
0000
0001
0000
0000
0000
1000
0000
0000
0000
0001
0000
0000
0000
1000
0000
0000
0000
0000
0000
0000
0000
0000
0000
0000
0000
0000
0000
0000
0000
0000
0000
0000
0000
0000
0000
0000
0000
0010
0000
0000
0000
0000
0000
0000
0000
0000
0000
0000
0000
0000
0000
0000
0000
0000
0000
0000
0000
0000
0000
0000
0000
,  // measure 47
0100
0000
0001
0010
1000
0000
0100
0000
0010
0000
0001
1000
0010
0000
0100
0001
,  // measure 48
1000
0000
0100
0000
0010
0001
0010
0000
0100
1000
0001
0000
0100
1000
0010
0000
,  // measure 49
0100
0000
0001
0010
0001
0000
0100
0000
1000
0010
1000
0000
0001
0000
0010
0000
,  // measure 50
0001
0000
0100
0000
1000
0010
0100
0010
1000
0001
0100
0000
0101
0000
0010
0000
,  // measure 51
0001
0000
0100
0000
1000
0010
1000
0010
0100
0001
0100
0001
0010
0100
0010
0001
,  // measure 52
0100
1000
0010
1000
0010
0100
0001
0010
0001
1000
0010
1000
0010
0100
0010
0001
,  // measure 53
1000
0001
0010
1000
0001
0100
0010
0100
0010
0100
0001
1000
0100
0010
0001
0100
,  // measure 54
0001
0000
0000
0010
0000
0000
1000
0000
0000
0100
0000
0000
0010
0000
0000
0000
0000
0000
0001
0000
0000
1000
0000
0000
0001
0000
0000
0000
0000
0000
1000
0000
0100
0000
1000
0000
0100
0000
0000
0000
0000
0000
0010
0000
0000
0001
0000
0000
,  // measure 55
0000
0001
0010
0000
0100
0000
1000
0010
0000
1000
0010
0000
1000
0000
0100
0010
,  // measure 56
0000
0010
0001
0000
0100
0000
0001
1000
0000
0001
0100
0000
0010
0000
1000
0100
,  // measure 57
0000
0100
0001
0000
1000
0000
0001
0010
0000
0010
0100
0000
1000
0000
0010
1000
,  // measure 58
0000
0001
0100
0000
0010
0000
1000
0100
0010
0000
0001
0000
0100
0000
0010
1000
,  // measure 59
0000
0010
1000
0000
0001
0000
1000
0100
0000
0010
0001
0000
0100
0000
0001
0010
,  // measure 60
0000
0100
1000
0000
0001
0000
0010
0001
0000
1000
0100
0000
0010
0000
0001
1000
,  // measure 61
0000
1000
0010
0000
0001
0000
0100
0010
0000
0001
1000
0000
0100
0000
1000
0010
,  // measure 62
0000
0001
0100
0000
0001
0000
0010
0001
0100
0000
1000
0000
0001
0010
0001
0010
,  // measure 63
0000
1000
0100
0000
1000
0010
1000
0010
0000
0100
0001
0000
0010
0100
1000
0100
,  // measure 64
0000
0010
0001
0000
1000
0001
0010
0001
0000
1000
0100
0000
0010
0100
0010
0001
,  // measure 65
0000
0001
1000
0000
0001
0100
0010
1000
0000
1000
0100
0000
0010
0001
1000
0001
,  // measure 66
0000
0010
0100
0000
1000
0000
0001
0100
1000
0000
0010
0000
0100
0000
0001
0010
,  // measure 67
0001
1000
0001
0010
0100
0000
0010
0001
1000
0010
1000
0100
0001
0000
1000
0001
,  // measure 68
0010
0100
0010
0001
1000
0000
0010
1000
0100
0010
0001
0100
0010
0000
1000
0001
,  // measure 69
1000
0100
0010
0001
0100
0000
0010
1000
0001
1000
0100
0010
0001
0100
0001
0100
,  // measure 70
0010
0000
0000
1000
0000
0000
0010
0000
0000
1000
0000
0000
0100
0000
0000
0000
0000
0000
1000
0000
0010
0000
0100
0000
0001
0000
0000
0000
0000
0000
1000
0000
0100
0000
0010
0000
0002
0000
0000
0000
0000
0000
0000
0000
0000
0000
0000
0000
,  // measure 71
0000
0000
0000
0000
,  // measure 72
0000
0000
0000
0003
;
