#TITLE:IF YOU WERE HERE (B4 ZA BEAT MIX);
#SUBTITLE:;
#ARTIST:JENNIFER;
#TITLETRANSLIT:;
#SUBTITLETRANSLIT:;
#ARTISTTRANSLIT:;
#GENRE:;
#CREDIT:;
#BANNER:IF YOU WERE HERE (B4 ZA BEAT MIX)-bn.png;
#BACKGROUND:IF YOU WERE HERE (B4 ZA BEAT MIX)-bg.png;
#LYRICSPATH:;
#CDTITLE:;
#MUSIC:IF YOU WERE HERE (B4 ZA BEAT MIX).ogg;
#OFFSET:0.000000;
#SAMPLESTART:42.356998;
#SAMPLELENGTH:20.000000;
#SELECTABLE:YES;
#DISPLAYBPM:168.000000:171.000000;
#BPMS:0.000000=169.985001
,4.000000=169.742004
,20.000000=169.998001
,120.000000=170.070999
,184.000000=168.009003
,185.000000=170.106003
,248.000000=171.225998
;
#STOPS:
;
#BGCHANGES:23.000=IF YOU WERE HERE (B4 ZA BEAT MIX).mp4=1.000=1=0=0=StretchNoLoop==CrossFade==,
99999=-nosongbg-=1.000=0=0=0 // don't automatically add -songbackground-
;
#KEYSOUNDS:;
#ATTACKS:;

//---------------dance-single - ----------------
#NOTES:
     dance-single:
     :
     Easy:
     6:
     0.325010,0.342065,0.096583,0.000000,0.000000,212.000000,203.000000,9.000000,0.000000,0.000000,0.000000,0.325010,0.342065,0.096583,0.000000,0.000000,212.000000,203.000000,9.000000,0.000000,0.000000,0.000000:
0000
0000
0000
0000
,
0000
0000
0000
0000
,
0000
0000
0000
0000
,
0000
0000
0000
0000
,
0000
0000
0000
0000
,
0000
0000
0000
0000
,
1000
1000
0001
0001
,
1000
1000
0001
0001
,
1000
1000
0001
0001
,
1000
1000
0100
0100
,
1000
1000
0001
0001
,
1000
1000
0001
0001
,
1000
1000
0001
0001
,
1001
0000
0000
0000
,
0100
0100
0010
0010
,
1000
0100
0010
0000
,
0001
0100
1000
0100
,
0010
0001
0100
0000
,
0010
0010
1000
1000
,
0001
0010
0100
0000
,
1000
0001
0100
0010
,
1000
0100
0010
0000
,
0001
0001
0100
0100
,
0010
0010
1000
1000
,
0100
0010
0001
0100
,
0010
1000
0100
0000
,
0010
0010
0001
0001
,
1000
1000
0010
0010
,
0100
0001
1000
0100
,
0010
0010
0010
0010
,
1001
0000
0110
0000
,
1000
0001
0100
0000
,
0010
1000
0001
0100
,
0010
1000
0100
0000
,
1001
0000
0110
0000
,
1000
0100
0010
0001
,
1000
1000
0010
0010
,
0100
0001
0010
0000
,
1000
1000
0100
0100
,
0001
0001
0010
0010
,
0100
0100
1000
1000
,
0001
0100
0010
1000
,
0100
0100
0010
0010
,
0001
0001
0100
0100
,
0010
0010
1000
1000
,
0100
0100
0010
0010
,
0001
0000
1000
0000
,
1000
0100
0010
0000
,
0001
0100
1000
0100
,
0010
0001
0100
0000
,
0010
1000
0100
0010
,
0001
0100
0010
0000
,
1000
1000
0100
0100
,
0010
0001
1000
0010
,
1001
0000
0110
0000
,
0001
1000
0010
0100
,
0001
0010
0100
1000
,
0001
0100
0010
0000
,
1001
0000
0110
0000
,
1000
0001
0100
0010
,
1000
1000
0100
0100
,
0010
0001
0100
0000
,
0010
0000
0010
0000
,
0010
0000
0010
0010
;

//---------------dance-single - ----------------
#NOTES:
     dance-single:
     :
     Medium:
     8:
     0.406262,0.478891,0.214629,0.000000,0.000000,265.000000,245.000000,20.000000,0.000000,0.000000,0.000000,0.406262,0.478891,0.214629,0.000000,0.000000,265.000000,245.000000,20.000000,0.000000,0.000000,0.000000:
0000
0000
0000
0000
,
0000
0000
0000
0000
,
0000
0000
0000
0000
,
0000
0000
0000
0000
,
0000
0000
0000
0000
,
0000
0000
0000
0000
,
1000
1000
0001
0001
,
0100
0000
0100
0000
0010
0000
1000
1000
,
1000
0100
0010
0010
,
0001
0000
0001
0000
0100
0000
0010
0010
,
0010
1000
0100
0100
,
0010
0010
0010
0000
0001
0000
0001
0000
,
1000
1000
0010
0010
,
1001
0000
0000
0000
,
0100
0000
0100
0000
0010
1000
0100
0000
,
0010
0000
0010
0001
0000
0000
0000
0000
,
1100
0000
0000
0101
0000
0000
0000
0000
,
1010
0000
0000
1100
0000
0000
0000
0000
,
0001
0000
0001
0000
0100
0010
1000
0000
,
0100
0000
0100
0010
0000
0000
0000
0000
,
1001
0000
0000
1100
0000
0000
0000
0000
,
1001
0000
0000
0101
0000
0000
0000
0000
,
0010
1000
0100
0010
,
0010
0001
0100
0010
,
0010
1000
0100
0010
,
0001
0100
0010
1000
,
0100
0010
0001
0100
,
0100
0010
1000
0100
,
0100
0010
0001
0100
,
0110
1001
1100
1001
,
0100
0010
1000
0000
0100
0000
0100
0000
,
0010
0001
1000
0000
0010
0000
0010
0000
,
0100
0001
1000
0100
,
0010
0000
0001
0000
1000
0010
1000
0000
,
0001
0010
0100
0000
1000
0000
0001
0000
,
0100
0010
1000
0000
0100
0000
0010
0000
,
0001
0100
0010
0000
1000
0100
0010
0000
,
0001
1000
0010
0100
0000
0000
0000
0000
,
0001
0001
1000
1000
,
0100
0100
0100
0000
0010
0000
0001
0000
,
0100
0100
0010
0010
,
1000
0000
0100
0000
0010
0001
0010
0000
,
0100
0100
1000
1000
,
0001
0001
0001
0000
0100
0000
0100
0000
,
0010
0010
1000
1000
,
0100
0010
0100
0010
0100
0010
0100
0000
,
1000
0000
0001
0000
,
1000
0100
1000
0000
0001
0100
0001
0000
,
0010
0100
1000
0001
,
0100
0010
1000
0000
,
0001
0000
0010
0000
0100
1000
0100
0000
,
0010
0000
0001
0000
0100
0010
0100
0000
,
0001
1000
0100
0010
,
1001
1100
0101
1001
,
0010
0100
0001
0000
1000
0000
0100
0000
,
0010
0001
0100
0000
0010
1000
0100
0000
,
0010
0001
1000
0100
,
1001
0101
1001
0000
,
0100
0010
0001
0000
1000
0000
0010
0000
,
0100
0001
1000
0100
,
0010
0001
0010
0000
0100
1000
0100
0000
,
0010
0001
0100
0010
0000
0000
0000
0000
,
0010
0000
0000
0000
0010
0100
0010
0000
,
0010
0100
0010
0100
0010
0000
0010
0000
;

//---------------dance-single - ----------------
#NOTES:
     dance-single:
     :
     Hard:
     11:
     0.573366,0.549451,0.268286,0.000000,0.000000,374.000000,349.000000,25.000000,0.000000,0.000000,0.000000,0.573366,0.549451,0.268286,0.000000,0.000000,374.000000,349.000000,25.000000,0.000000,0.000000,0.000000:
0000
0000
0000
0000
,
0000
0000
0000
0000
,
0000
0000
0000
0000
,
0000
0000
0000
0000
,
0000
0000
0000
0000
,
0000
0000
0000
0000
,
1000
0100
1000
0100
0010
0010
0010
0000
,
0001
0100
0001
0100
0010
0010
0010
0000
,
1000
0001
1000
0001
0100
0100
0100
0000
,
0010
1000
0100
1000
0001
0001
0001
0000
,
0100
0010
0100
0010
1000
1000
1000
0000
,
0001
0010
0001
0010
0100
0100
0100
0000
,
1000
0001
1000
0001
0100
0100
0100
0000
,
0010
1000
0100
1000
0001
0001
0001
0000
,
0010
0001
0100
0010
1000
0100
0010
0000
,
0001
1000
0010
0100
0001
0010
0100
0000
,
1000
0010
0100
0001
1000
0100
0010
0001
,
0100
0010
1000
0100
0010
0001
0001
0000
,
0100
0010
1000
0001
0010
0100
1000
0000
,
0001
0100
0010
1000
0100
0010
0001
0000
,
1000
0100
0010
0001
1000
0010
0100
0001
,
0010
0100
1000
0001
0100
0010
0010
0000
,
1000
0100
0010
0001
0000
1000
1000
0000
,
0010
0100
0001
1000
0000
0100
0100
0000
,
0010
0001
0010
0000
0100
1000
0100
0000
,
0010
0001
0100
0010
0000
1000
1000
0000
,
0001
0100
0010
1000
0000
0001
0001
0000
,
0010
0100
1000
0001
0000
0100
0100
0000
,
0010
1000
0010
0000
0100
0001
0100
0000
,
0010
1000
0100
0010
0001
0100
0010
0000
,
1001
0000
0000
0101
0000
0000
1100
0000
,
0000
1010
0000
0000
0101
0000
1001
0000
,
0100
1000
0100
0000
0010
0001
0010
0000
,
0100
1000
0010
0100
0000
0001
0001
0000
,
1100
0000
0000
0101
0000
0000
1010
0000
,
0000
1100
0000
0000
1001
0000
0011
0000
,
0100
1000
0100
0000
0010
0001
0100
0000
,
0010
1000
0100
0010
0000
0001
0001
0000
,
1000
0100
1000
0100
0010
0010
0010
0000
,
0001
0001
0001
0100
0010
0010
0010
0000
,
1000
0100
1000
0100
0010
0010
0010
0000
,
0001
1000
0001
0100
0010
0010
0010
0000
,
1000
0100
1000
0100
0010
0010
0010
0000
,
0001
0100
0001
0100
0010
0010
0010
0000
,
1000
0001
1000
0001
0100
0100
0100
0000
,
0010
1000
0100
0010
0001
0001
0001
0000
,
0000
0000
1000
0000
0010
0100
0010
0000
,
1000
0100
0010
0001
0000
1000
1000
0000
,
0010
1000
0100
0000
0010
0001
0100
0000
,
0010
1000
0100
0010
0000
0001
0001
0000
,
1000
0100
0010
0001
0000
0100
0100
0000
,
0010
1000
0100
0010
0000
0001
0001
0000
,
1000
0010
0100
0000
0001
0010
0100
0000
,
1000
0010
0100
0001
0010
0100
1000
0000
,
1001
0000
0000
0101
0000
0000
0110
0000
,
0000
1010
0000
0000
1100
0000
0101
0000
,
1000
0100
0010
0000
0001
0100
0010
0000
,
1000
0001
0010
0100
0000
1000
1000
0000
,
1001
0000
0000
0101
0000
0000
1010
0000
,
0000
1100
0000
0000
0011
0000
0101
0000
,
0010
1000
0100
0000
0010
0001
0100
0000
,
0010
1000
0100
0010
0000
0001
0001
0000
,
1001
0000
0000
0000
0010
1000
0100
0000
,
0010
0001
1000
0010
0100
0000
0100
0000
,
0001
0000
0000
0000
;

//---------------dance-double - ----------------
#NOTES:
     dance-double:
     :
     Easy:
     6:
     0.305080,0.306651,0.000000,0.000000,0.000000,199.000000,199.000000,0.000000,0.000000,0.000000,0.000000,0.305080,0.306651,0.000000,0.000000,0.000000,199.000000,199.000000,0.000000,0.000000,0.000000,0.000000:
00000000
00000000
00000000
00000000
,
00000000
00000000
00000000
00000000
,
00000000
00000000
00000000
00000000
,
00000000
00000000
00000000
00000000
,
00000000
00000000
00000000
00000000
,
00000000
00000000
00000000
00000000
,
10000000
10000000
00010000
00010000
,
01000000
01000000
00001000
00001000
,
00010000
00010000
00000010
00000010
,
00001000
00000001
00000010
00000100
,
00010000
00010000
00001000
00001000
,
00100000
00100000
00010000
00010000
,
10000000
10000000
01000000
01000000
,
00100000
00000000
00000000
00000000
,
00010000
01000000
00001000
00001000
,
00010000
00000100
00001000
00001000
,
00000001
00000100
00001000
00000100
,
00010000
00010000
00010000
00000000
,
00001000
00100000
00010000
00010000
,
10000000
00100000
01000000
01000000
,
00001000
00010000
00000100
00001000
,
00000001
00000100
00000010
00000000
,
00001000
00001000
00000100
00000000
,
00010000
00010000
00001000
00000000
,
00100000
00010000
10000000
00100000
,
01000000
01000000
00010000
00000000
,
00100000
00100000
00001000
00000000
,
00010000
00010000
00000100
00000000
,
00000010
00000001
00000100
00000010
,
00010000
00001000
00100000
00010000
,
10000000
00000000
01000000
00000000
,
00100000
00010000
01000000
00001000
,
00010000
00010000
00000010
00000010
,
00001000
00000001
00000100
00000000
,
00000010
00000000
00001000
00000000
,
00000100
00000100
00010000
00010000
,
00001000
00100000
00010000
10000000
,
00100000
01000000
00010000
00000000
,
00100000
00100000
00001000
00001000
,
00010000
00010000
00000010
00000010
,
00001000
00001000
00000001
00000001
,
00000100
00000010
00001000
00000100
,
00010000
00010000
00001000
00001000
,
00100000
00100000
00010000
00010000
,
10000000
10000000
01000000
01000000
,
00100000
00010000
01000000
00001000
,
00010000
00000000
00000100
00000000
,
00000010
00000001
00000100
00000000
,
00000010
00000010
00010000
00010000
,
00001000
00100000
00010000
00000000
,
10000000
00000000
00100000
00000000
,
01000000
00010000
00100000
00000000
,
00001000
00001000
00010000
00010000
,
00000100
00000100
00001000
00001000
,
00000001
00000000
00000100
00000000
,
00000010
00000010
00001000
00001000
,
00000100
00010000
00001000
00100000
,
00010000
00010000
10000000
00000000
,
00100000
00000000
01000000
00000000
,
00001000
00001000
00010000
00010000
,
00000100
00001000
00000001
00000100
,
00000010
00000010
00001000
00000000
,
00000100
00000000
00010000
00000000
,
00001000
00000000
00100000
00000000
;

//---------------dance-double - ----------------
#NOTES:
     dance-double:
     :
     Medium:
     8:
     0.403196,0.410478,0.010731,0.000000,0.000000,263.000000,262.000000,1.000000,0.000000,0.000000,0.000000,0.403196,0.410478,0.010731,0.000000,0.000000,263.000000,262.000000,1.000000,0.000000,0.000000,0.000000:
00000000
00000000
00000000
00000000
,
00000000
00000000
00000000
00000000
,
00000000
00000000
00000000
00000000
,
00000000
00000000
00000000
00000000
,
00000000
00000000
00000000
00000000
,
00000000
00000000
00000000
00000000
,
10000000
01000000
00100000
00000000
00010000
00000000
00010000
00000000
,
01000000
00001000
00010000
00000000
00000100
00000000
00000100
00000000
,
00001000
00000001
00000100
00000000
00000010
00000000
00000010
00000000
,
00001000
00000100
00010000
00000000
00001000
00000000
00001000
00000000
,
00100000
00010000
10000000
00000000
01000000
00000000
01000000
00000000
,
00100000
00010000
01000000
00000000
00001000
00000000
00001000
00000000
,
00010000
00000100
00001000
00000000
00000001
00000000
00000001
00000000
,
00000100
00000010
00001000
00000000
00000100
00000000
00000100
00000000
,
00010000
00000000
00001000
00000000
00100000
00010000
10000000
00000000
,
00100000
01000000
00001000
00000000
00010000
00000000
00000000
00000000
,
00000100
00001000
00000001
00000000
00000100
00000010
00001000
00000000
,
00000100
00010000
00001000
00000000
,
00100000
00000000
00010000
00000000
10000000
01000000
00100000
00000000
,
00010000
01000000
00001000
00000000
00010000
00000000
00000000
00000000
,
00000100
00000010
00000001
00000000
00001000
00000100
00010000
00000000
,
00001000
00100000
00010000
00000000
,
10000000
00000000
01000000
00000000
00100000
00010000
00000000
00000000
,
01000000
00001000
00010000
00000000
,
00000100
00000010
00000001
00001000
,
00000010
00010000
00001000
00000000
,
00100000
00000000
00010000
00000000
10000000
01000000
00000000
00000000
,
00100000
00001000
00010000
00000000
,
00000100
00000010
00000001
00000100
,
00000010
00000000
00001000
00000000
00000100
00010000
00001000
00000000
,
00100000
00000000
00010000
00000000
10000000
01000000
10000000
00000000
,
00010000
00000000
01000000
00000000
00001000
00010000
00001000
00000000
,
00010000
00000100
00001000
00000001
,
00000100
00000000
00000100
00000000
00000100
00000010
00001000
00000000
,
00000100
00000000
00010000
00000000
00001000
00010000
00001000
00000000
,
00100000
00000000
00010000
00000000
10000000
01000000
10000000
00000000
,
00010000
01000000
00001000
00010000
,
00000010
00000000
00001000
00000001
00000000
00000000
00000000
00000000
,
00000010
00000100
00001000
00000000
00000010
00000000
00010000
00000000
,
00001000
01000000
00010000
00000000
10000000
00000000
01000000
00000000
,
00100000
00001000
00010000
00000000
00000100
00000000
00000010
00000000
,
00000001
00000100
00000010
00000000
00001000
00000000
00000100
00000000
,
00010000
00001000
00100000
00000000
00010000
00000000
10000000
00000000
,
00100000
01000000
00010000
00000000
00100000
00000000
00001000
00000000
,
00010000
00000100
00001000
00000000
00000001
00000000
00000100
00000000
,
00000010
00001000
00000100
00000000
00010000
00000000
00001000
00000000
,
00000000
00000000
00100000
00000000
00010000
10000000
01000000
00000000
,
00100000
00000000
00010000
00000000
01000000
00001000
00010000
00000000
,
00000100
00001000
00000001
00000100
,
00000010
00001000
00000100
00010000
,
00001000
00000000
00100000
00000000
00010000
10000000
00100000
00000000
,
01000000
00000000
00001000
00000000
00010000
00000010
00001000
00000000
,
00000001
00000001
00000010
00000010
,
00000100
00000100
00010000
00010000
,
00001000
00100000
00010000
00000000
10000000
00000000
10000000
00000000
,
00100000
01000000
00001000
00000000
00010000
00000000
00010000
00000000
,
00000100
00001000
00000001
00000000
00000100
00000010
00001000
00000000
,
00000100
00010000
00001000
00000000
,
00100000
00010000
10000000
00000000
01000000
00000000
01000000
00000000
,
00100000
00010000
01000000
00000000
00001000
00000000
00001000
00000000
,
00010000
00000100
00001000
00000000
00000001
00000100
00000010
00000000
,
00001000
00000100
00010000
00000000
,
00011000
00000000
00100000
00010000
,
10000000
10000000
01000000
01000000
;

//---------------dance-double - ----------------
#NOTES:
     dance-double:
     :
     Hard:
     11:
     0.576433,0.547304,0.010731,0.000000,0.000000,376.000000,375.000000,1.000000,0.000000,0.000000,0.000000,0.576433,0.547304,0.010731,0.000000,0.000000,376.000000,375.000000,1.000000,0.000000,0.000000,0.000000:
00000000
00000000
00000000
00000000
,
00000000
00000000
00000000
00000000
,
00000000
00000000
00000000
00000000
,
00000000
00000000
00000000
00000000
,
00000000
00000000
00000000
00000000
,
00000000
00000000
00000000
00000000
,
10000000
01000000
00100000
00010000
01000000
01000000
01000000
00000000
,
00001000
00010000
00000100
00001000
00000001
00000001
00000001
00000000
,
00000100
00000010
00001000
00000100
00010000
00010000
00010000
00000000
,
00001000
00100000
00010000
10000000
01000000
01000000
01000000
00000000
,
00100000
00010000
01000000
00001000
00010000
00010000
00010000
00000000
,
00000100
00001000
00000001
00000100
00000010
00000010
00000010
00000000
,
00001000
00000100
00010000
00001000
00100000
00100000
00100000
00000000
,
00010000
10000000
00100000
01000000
00001000
00001000
00001000
00000000
,
00010000
00000100
00001000
00000001
00000100
00000010
00001000
00000100
,
00010000
00001000
00100000
00010000
00000000
10000000
10000000
00000000
,
00100000
01000000
00001000
00010000
00000000
00000100
00000100
00000000
,
00001000
00000001
00000100
00000010
00000000
00001000
00001000
00000000
,
00000100
00010000
00001000
00100000
00010000
10000000
00100000
01000000
,
00001000
00010000
00000010
00001000
00000000
00000001
00000001
00000000
,
00000010
00000100
00001000
00000010
00000000
00010000
00010000
00000000
,
00001000
00100000
00010000
10000000
00000000
00100000
01000000
00010000
,
00100000
00000000
00001000
00000000
00010000
00000100
00000000
00000000
,
00001000
00000001
00000100
00000000
00000010
00001000
00000100
00000000
,
00010000
00001000
00100000
00010000
10000000
00100000
01000000
00010000
,
00100000
00001000
00010000
00000100
00001000
00000001
00000100
00000000
,
00000010
00000000
00001000
00000000
00000100
00010000
00000000
00000000
,
00001000
00100000
00010000
00000000
10000000
00100000
01000000
00000000
,
00001000
00010000
00000010
00001000
00000001
00000010
00000100
00000000
,
00010000
00001000
00100000
00010000
10000000
00100000
01000000
00000000
,
00001000
00010000
00000010
00001000
00000000
00000001
00000001
00000000
,
00000010
00000100
00010000
00001000
00000000
00100000
00100000
00000000
,
00010000
10000000
00100000
01000000
00001000
00010000
00000100
00000000
,
00001000
00000001
00000100
00000010
00000000
00001000
00001000
00000000
,
00000100
00010000
00001000
00100000
00000000
00010000
00010000
00000000
,
10000000
01000000
00100000
00010000
00000000
01000000
01000000
00000000
,
00001000
00010000
00000010
00000000
00001000
00000001
00000010
00000000
,
00000100
00010000
00001000
00100000
00000000
00010000
00010000
00000000
,
10000000
00100000
01000000
00010000
10000000
10000000
10000000
00000000
,
01000000
00100000
00010000
01000000
00001000
00001000
00001000
00000000
,
00010000
00000010
00001000
00000100
00000010
00000010
00000010
00000000
,
00000001
00001000
00000100
00010000
00001000
00001000
00001000
00000000
,
00100000
00010000
10000000
00100000
01000000
01000000
01000000
00000000
,
00001000
00010000
00000100
00001000
00000001
00000001
00000001
00000000
,
00000010
00000100
00010000
00001000
00100000
00100000
00100000
00000000
,
00010000
10000000
00100000
01000000
00010000
00010000
00010000
00000000
,
00000000
00000000
00100000
00000000
00001000
00010000
00000100
00000000
,
00001000
00000001
00000100
00000010
00001000
00000100
00010000
00000000
,
00001000
00100000
00010000
00000000
10000000
00100000
01000000
00000000
,
00010000
00100000
00001000
00010000
00000100
00001000
00000001
00000000
,
00000010
00000100
00001000
00000010
00010000
00001000
00100000
00000000
,
00010000
10000000
00100000
01000000
00010000
00100000
00001000
00000000
,
00010000
00000010
00001000
00000000
00000001
00000010
00000100
00000000
,
00010000
00001000
00100000
00010000
10000000
00100000
01000000
00010000
,
00100000
00001000
00010000
00000000
00000100
00001000
00000001
00000000
,
00000010
00000100
00001000
00000000
00000010
00010000
00001000
00000000
,
00100000
00010000
10000000
00000000
00100000
01000000
00001000
00000000
,
00010000
00000010
00001000
00000001
00000000
00000100
00000100
00000000
,
00000010
00001000
00000100
00010000
00001000
00100000
00010000
00000000
,
10000000
00100000
01000000
00010000
00100000
00001000
00010000
00000000
,
00000010
00001000
00000001
00000000
00000010
00000100
00001000
00000000
,
00000010
00010000
00001000
01000000
00000000
00010000
00010000
00000000
,
11000000
00000000
00000000
00000000
00100000
00010000
00100000
00000000
,
00001000
00010000
00000010
00001000
00000001
00000000
00000001
00000000
;

//---------------dance-couple - ----------------
#NOTES:
     dance-couple:
     :
     Challenge:
     5:
     0.269819,0.480769,0.236092,0.000000,0.000000,176.000000,154.000000,22.000000,0.000000,0.000000,0.000000,0.269819,0.480769,0.236092,0.000000,0.000000,176.000000,154.000000,22.000000,0.000000,0.000000,0.000000:
00000000
00000000
00000000
00000000
,
00000000
00000000
00000000
00000000
,
00000000
00000000
00000000
00000000
,
00000000
00000000
00000000
00000000
,
00000000
00000000
00000000
00000000
,
00000000
00000000
00000000
00000000
,
10000000
10000000
00001000
00001000
,
00010000
00010000
00000001
00000001
,
00100000
00100000
00000010
00000010
,
01000000
01000000
00000100
00000100
,
10000000
10000000
00001000
00001000
,
00010000
00010000
00000001
00000001
,
00100000
00100000
00000010
00000010
,
10011001
00000000
00000000
00000000
,
01000010
00000000
01000000
00000000
00100000
00010000
01000000
00000000
,
00100010
00000000
00100000
10000000
00000000
00000000
00000000
00000000
,
01010010
00000000
00000000
11000000
00000000
00000000
00000000
00000000
,
00110010
00000000
00000000
01010000
00000000
00000000
00000000
00000000
,
00100100
00000000
00000100
00000000
00000010
00001000
00000100
00000000
,
00100010
00000000
00000010
00000001
00000000
00000000
00000000
00000000
,
00101100
00000000
00000000
00000101
00000000
00000000
00000000
00000000
,
00101010
00000000
00000000
00001100
00000000
00000000
00000000
00000000
,
00100000
10000000
01000000
00100000
,
00100000
00010000
01000000
00100000
,
00000010
00001000
00000100
00000010
,
00000010
00000001
00000100
00000010
,
00100000
10000000
01000000
00100000
,
00000010
00001000
00000100
00000010
,
00100010
00010001
01000100
00100010
,
10010000
01100000
00001001
00000110
,
10010001
00000000
00000000
01010000
00000000
00000000
11000000
00000000
,
00000001
10100000
00000000
00000000
01010000
00000000
10010000
00000000
,
01000001
10000000
01000000
00000000
00100000
00010000
00100000
00000000
,
01000001
10000000
00100000
01000000
00000000
00010000
00010000
00000000
,
10001001
00000000
00000000
00000101
00000000
00000000
00001100
00000000
,
10000000
00001010
00000000
00000000
00000101
00000000
00001001
00000000
,
10000100
00001000
00000100
00000000
00000010
00000001
00000010
00000000
,
10000100
00001000
00000010
00000100
00000000
00000001
00000001
00000000
,
10000000
01000000
10000000
01000000
00100000
00100000
00100000
00000000
,
00001000
00000100
00001000
00000100
00000010
00000010
00000010
00000000
,
00010000
01000000
00010000
01000000
00100000
00100000
00100000
00000000
,
00000001
00000100
00000001
00000100
00000010
00000010
00000010
00000000
,
10000000
00010000
10000000
00010000
01000000
01000000
01000000
00000000
,
00001000
00000001
00001000
00000001
00000100
00000100
00000100
00000000
,
00100000
10000000
01000000
00100000
00010000
00010000
00010000
00000000
,
00000010
00001000
00000100
00000010
00000001
00000001
00000001
00000000
,
10000000
00000000
00000001
00000000
,
10000000
01000000
10000000
00000000
00000001
00000100
00000001
00000000
,
00100010
01000100
00011000
10000001
,
01000100
00100010
00011000
00000000
,
10000000
00000000
00100000
00000000
01000000
00010000
01000000
00000000
,
00000100
00000000
00001000
00000000
00000010
00000100
00000010
00000000
,
10001000
00010001
01000100
00100010
,
00001100
11000000
00000101
01010000
,
10001001
00000000
00000000
00000101
00000000
00000000
00000110
00000000
,
10000000
00001010
00000000
00000000
00001100
00000000
00000101
00000000
,
10001000
00000100
00000010
00000000
00000001
00000100
00000010
00000000
,
10001000
00000001
00000010
00000100
00000000
00001000
00001000
00000000
,
10010001
00000000
00000000
01010000
00000000
00000000
01100000
00000000
,
00000001
10100000
00000000
00000000
11000000
00000000
01010000
00000000
,
10000001
01000000
00100000
00000000
00010000
01000000
00100000
00000000
,
10000001
00010000
00100000
01000000
00000000
10000000
10000000
00000000
,
10011001
00000000
00000000
00000000
00100010
00011000
01000100
00000000
,
00100010
10000001
00011000
00100010
01000100
00000000
01000100
00000000
,
10000001
00000000
00000000
00000000
;

//---------------dance-solo - ----------------
#NOTES:
     dance-solo:
     :
     Easy:
     4:
     0.318878,0.307859,0.010731,0.000000,0.000000,208.000000,207.000000,1.000000,0.000000,0.000000,0.000000,0.318878,0.307859,0.010731,0.000000,0.000000,208.000000,207.000000,1.000000,0.000000,0.000000,0.000000:
000000
000000
000000
000000
,
000000
000000
000000
000000
,
000000
000000
000000
000000
,
000000
000000
000000
000000
,
000000
000000
000000
000000
,
000000
000000
000000
000000
,
100000
100000
001000
001000
,
010000
010000
000001
000001
,
000100
000100
000010
000010
,
010000
010000
000001
000001
,
100000
100000
000100
000100
,
001000
001000
000010
000010
,
100000
100000
000001
000001
,
010000
010000
001000
001000
,
000100
000100
000001
000000
,
010000
010000
000010
000000
,
100000
000100
001000
000001
,
100000
001000
010000
000000
,
000001
000001
000100
000000
,
000010
000010
010000
000000
,
000100
100000
001000
010000
,
000001
000100
000010
000000
,
010000
010000
001000
001000
,
000100
000001
100000
000000
,
000010
000010
001000
001000
,
000100
100000
000001
000000
,
010000
010000
000010
000010
,
000100
000001
010000
000000
,
000010
100000
000100
001000
,
000001
000001
100000
100000
,
000010
000000
010000
000001
,
000000
000100
001000
100000
,
000001
001000
000010
100000
,
000001
000100
001000
000000
,
010000
000000
000001
001000
,
000000
000010
100000
000001
,
010000
010000
001000
001000
,
000100
000001
001000
000000
,
000010
000010
100000
100000
,
000100
000100
010000
010000
,
000001
000001
100000
100000
,
001000
001000
001000
000100
,
000001
000001
010000
010000
,
000010
000010
100000
100000
,
000100
000100
001000
001000
,
000001
000001
000001
100000
,
000000
000010
001000
001000
,
000100
100000
000010
000010
,
010000
001000
000100
000100
,
000001
010000
000010
100000
,
000100
001000
000010
000010
,
100000
001000
010000
010000
,
000001
100000
000100
000100
,
001000
000010
100000
100000
,
000001
000000
010000
001000
,
000000
000100
000001
001000
,
000010
000010
100000
100000
,
001000
000100
000001
000000
,
010000
000000
000010
100000
,
000000
000100
001000
000001
,
100000
100000
001000
001000
,
000100
000001
010000
000000
,
010010
000000
001000
000000
,
000100
000000
100000
100000
;

//---------------dance-solo - ----------------
#NOTES:
     dance-solo:
     :
     Medium:
     6:
     0.407795,0.410478,0.010731,0.000000,0.000000,266.000000,265.000000,1.000000,0.000000,0.000000,0.000000,0.407795,0.410478,0.010731,0.000000,0.000000,266.000000,265.000000,1.000000,0.000000,0.000000,0.000000:
000000
000000
000000
000000
,
000000
000000
000000
000000
,
000000
000000
000000
000000
,
000000
000000
000000
000000
,
000000
000000
000000
000000
,
000000
000000
000000
000000
,
010000
000000
010000
000000
000001
100000
000100
000000
,
001000
000000
001000
000000
000010
100000
000001
000000
,
010000
000000
010000
000000
001000
000100
000001
000000
,
100000
000000
100000
000000
000010
001000
000100
000000
,
100000
000000
100000
000000
001000
000100
000001
000000
,
010000
000000
010000
000000
000010
100000
000100
000000
,
001000
000000
001000
000000
000010
100000
000001
000000
,
000100
000000
000100
000000
001000
010000
000001
000000
,
100000
000000
100000
000000
000010
001000
000000
000000
,
000100
100000
000100
000000
010000
000000
000000
000000
,
000010
000100
000010
000000
001000
000000
000000
000000
,
000100
100000
001000
000000
,
010000
000000
010000
000000
000001
000100
000000
000000
,
000010
010000
000100
000000
001000
000000
000000
000000
,
000001
000100
001000
000000
010000
000000
000000
000000
,
000001
100000
000010
000000
,
000100
000000
000001
010000
000001
000000
100000
000000
,
000010
000000
001000
000100
001000
000000
000001
000000
,
100000
000000
001000
010000
001000
000000
000100
000000
,
000001
001000
000010
100000
,
001000
000000
010000
000001
010000
000000
000010
000000
,
100000
000000
000100
001000
000100
000000
100000
000000
,
000010
000000
010000
000001
010000
000000
001000
000000
,
000100
000001
010000
000010
,
100000
000100
100000
000000
000010
000000
010000
000000
,
000001
000100
000001
000000
010000
000000
000010
000000
,
100000
000100
001000
000001
,
100000
000000
001000
000100
001000
000000
000000
000000
,
010000
000001
010000
000000
000010
000000
100000
000000
,
000100
001000
000100
000000
100000
000000
000010
000000
,
010000
000001
000100
001000
,
010000
000001
010000
000000
000010
000000
000000
000000
,
100000
000000
100000
000000
000100
001000
000100
000000
,
100000
000000
100000
000000
000010
010000
000010
000000
,
000100
000000
000100
000000
000001
010000
000001
000000
,
100000
000000
100000
000000
000010
001000
000010
000000
,
000100
000000
000100
000000
000001
010000
000001
000000
,
100000
000000
100000
000000
000010
001000
000010
000000
,
010000
000000
010000
000000
000001
000100
000001
000000
,
001000
000000
001000
000000
000010
100000
000010
000000
,
000000
000000
010000
000000
000001
001000
000001
000000
,
100000
001000
000100
000001
,
010000
000010
010000
000000
000001
100000
000001
000000
,
001000
000100
100000
001000
,
010000
000000
000001
000000
100000
000100
100000
000000
,
000001
000000
010000
000000
001000
000100
001000
000000
,
010000
000001
100000
000010
,
000000
001000
001000
001000
,
000001
100000
001000
000000
010000
000000
000001
000000
,
100000
000010
001000
000000
000100
000000
100000
000000
,
000010
010000
000010
000000
100000
000001
100000
000000
,
000010
001000
000100
000000
,
100000
000010
010000
000000
000001
000000
000100
000000
,
001000
010000
000001
000000
100000
000000
000010
000000
,
001000
000100
001000
000000
000001
100000
000001
000000
,
010000
001000
000100
000000
,
100001
000000
000000
000000
010000
001000
010000
000000
,
000001
000001
100000
100000
;

//---------------dance-solo - ----------------
#NOTES:
     dance-solo:
     :
     Hard:
     7:
     0.602495,0.581511,0.010731,0.000000,0.000000,393.000000,392.000000,1.000000,0.000000,0.000000,0.000000,0.602495,0.581511,0.010731,0.000000,0.000000,393.000000,392.000000,1.000000,0.000000,0.000000,0.000000:
000000
000000
000000
000000
,
000000
000000
000000
000000
,
000000
000000
000000
000000
,
000000
000000
000000
000000
,
000000
000000
000000
000000
,
000000
000000
000000
000000
,
001000
000001
100000
000010
000100
000001
000001
000000
,
010000
001000
000100
000001
100000
000010
000010
000000
,
001000
000100
100000
001000
010000
000001
000001
000000
,
000100
000010
010000
000100
100000
001000
001000
000000
,
000100
000001
010000
000010
100000
000100
000100
000000
,
001000
000001
100000
001000
010000
000001
000001
000000
,
000100
001000
010000
000001
100000
000010
000010
000000
,
001000
000100
100000
001000
010000
000001
000001
000000
,
000100
001000
010000
000001
100000
000010
001000
000000
,
000100
100000
001000
010000
000001
100000
000010
000000
,
001000
000100
100000
001000
010000
000001
100000
000100
,
001000
000001
100000
001000
000000
010000
010000
000000
,
000001
100000
000100
001000
000010
100000
000001
000000
,
010000
001000
000100
000001
001000
000010
100000
000000
,
000100
010000
001000
000100
000001
100000
000010
001000
,
000100
100000
001000
010000
000000
000001
000100
000001
,
010000
000010
100000
000100
001000
000010
100000
000000
,
000001
010000
001000
000100
000001
010000
000010
000000
,
100000
000100
001000
000010
100000
001000
000100
000001
,
010000
000010
100000
000100
010000
000010
000100
000001
,
001000
000010
100000
000100
010000
001000
000100
000000
,
000001
010000
000010
100000
000100
001000
000010
000000
,
100000
000001
100000
000000
000010
010000
000010
000000
,
000100
000001
001000
000010
100000
000100
010000
000010
,
000100
000001
010000
000010
100000
000100
001000
000000
,
000010
100000
000001
010000
001000
000100
000001
000000
,
010000
001000
010000
000000
000001
000100
000001
000000
,
010000
000010
100000
000100
000000
001000
001000
000000
,
000001
000100
001000
010000
000001
100000
000010
000000
,
001000
000100
100000
001000
010000
000001
000100
000000
,
001000
010000
001000
000000
100000
000001
100000
000000
,
000010
001000
000100
100000
000000
000001
000001
000000
,
000100
001000
010000
000001
100000
100000
100000
000000
,
000010
001000
000100
100000
001000
001000
001000
000000
,
010000
000001
000100
000010
010000
010000
010000
000000
,
000100
100000
001000
010000
000001
000001
000001
000000
,
000100
001000
010000
000001
100000
100000
100000
000000
,
000010
001000
000100
100000
000010
000010
000010
000000
,
010000
000001
100000
000010
001000
001000
001000
000000
,
000100
100000
000010
010000
000001
000001
000001
000000
,
000000
000000
100000
000100
001000
000001
100000
000000
,
000010
010000
000100
100000
001000
010000
000001
000000
,
000100
001000
010000
000001
100000
000010
001000
000000
,
000100
100000
000010
010000
000001
000100
001000
000000
,
010000
000001
100000
000010
001000
000100
100000
000000
,
001000
010000
000001
000100
001000
100000
000001
000000
,
001000
000100
100000
000010
010000
000001
000100
000000
,
001000
010000
000001
100000
000010
001000
000100
100000
,
001000
010000
000001
000000
100000
000010
001000
000000
,
000100
100000
001000
000000
010000
000001
000100
000000
,
000010
100000
000100
000000
010000
000010
000100
000000
,
000001
000100
001000
100000
000000
000001
000001
000000
,
010000
000010
001000
000000
000100
100000
001000
000000
,
010000
000001
100000
000000
000010
001000
000100
000000
,
100000
001000
010000
000000
000001
000100
000010
000000
,
010000
000100
100000
000001
000000
001000
001000
000000
,
101000
000000
000000
000000
000100
000001
000100
000000
,
000010
010000
000010
010000
000001
000000
100000
000000
;

//---------------dance-single - ----------------
#NOTES:
     dance-single:
     :
     Beginner:
     3:
     0.173236,0.309066,0.021463,0.000000,0.000000,113.000000,111.000000,2.000000,0.000000,0.000000,0.000000,0.173236,0.309066,0.021463,0.000000,0.000000,113.000000,111.000000,2.000000,0.000000,0.000000,0.000000:
0000
0000
0000
0000
,
0000
0000
0000
0000
,
0000
0000
0000
0000
,
0000
0000
0000
0000
,
0000
0000
0000
0000
,
0000
0000
0000
0000
,
0001
0000
0001
0000
,
1000
0000
1000
0000
,
0001
0000
0001
0000
,
0100
0000
0010
0000
,
0100
0000
0100
0000
,
0010
0000
0010
0000
,
1000
0000
1000
0000
,
0001
0000
1000
0000
,
0010
0000
1000
0000
,
0100
0000
0000
0000
,
0010
0000
0001
0000
,
0100
0000
0010
0000
,
1000
0000
1000
0000
,
1000
0000
0000
0000
,
0001
0000
1000
0000
,
0001
0000
0100
0000
,
0010
0000
0010
0000
,
0010
0000
0000
0000
,
1000
0000
1000
0000
,
0001
0000
0010
0000
,
0001
0000
0001
0000
,
0001
0000
0000
0000
,
0100
0000
0010
0000
,
1000
0000
0010
0000
,
1000
0000
0001
0000
,
1000
0000
0100
0000
,
0010
0000
0010
0000
,
0010
0000
0000
0000
,
0001
0000
0100
0000
,
0001
0000
1000
0000
,
0010
0000
1000
0000
,
0100
0000
0010
0000
,
0001
0000
0001
0000
,
1000
0000
1000
0000
,
0001
0000
0001
0000
,
1000
0000
0100
0000
,
0010
0000
0010
0000
,
0001
0000
0001
0000
,
0100
0000
0100
0000
,
0001
0000
1000
0000
,
0010
0000
0010
0000
,
0100
0000
0000
0000
,
0010
0000
1000
0000
,
0001
0000
1000
0000
,
0100
0000
0010
0000
,
0001
0000
0000
0000
,
0100
0000
0100
0000
,
0010
0000
0010
0000
,
1000
0000
0100
0000
,
1000
0000
0001
0000
,
1000
0000
0010
0000
,
0100
0000
0000
0000
,
0001
0000
0001
0000
,
1000
0000
1000
0000
,
0001
0000
1000
0000
,
0010
0000
0100
0000
,
0110
0000
1001
0000
,
0100
0100
0100
0100
,
0100
0000
0000
0000
;

//---------------dance-single - ----------------
#NOTES:
     dance-single:
     :
     Challenge:
     16:
     0.904508,1.009495,0.128777,0.000000,1.014123,590.000000,578.000000,12.000000,0.000000,0.000000,0.000000,0.904508,1.009495,0.128777,0.000000,1.014123,590.000000,578.000000,12.000000,0.000000,0.000000,0.000000:
// measure 0
0000
0000
0000
0000
,  // measure 1
0000
0000
0000
0000
,  // measure 2
0000
0000
0000
0000
,  // measure 3
0000
0000
0000
0000
,  // measure 4
0000
0000
0000
0000
,  // measure 5
0000
0000
0000
0000
,  // measure 6
0001
0000
0001
0000
0001
0000
1000
0010
0000
1000
0000
0100
0000
0010
0001
0000
,  // measure 7
0100
0000
0100
0000
0100
0000
0010
1000
0000
0001
0000
1000
0000
0010
0100
0000
,  // measure 8
0010
0000
0010
0000
0010
0000
1000
0100
0000
1000
0000
0001
0000
0100
0010
0000
,  // measure 9
1000
0000
1000
0000
1000
0000
0100
0010
0000
0010
0000
0010
0000
0001
1000
0000
,  // measure 10
0001
0000
0001
0000
0001
0000
1000
0010
0000
0100
0000
0010
0000
1000
0001
0000
,  // measure 11
0100
0000
0100
0000
0100
0000
0001
0010
0000
0001
0000
1000
0000
0010
0100
0000
,  // measure 12
0010
0000
0010
0000
0010
0000
0100
0001
0000
1000
0000
0100
0000
1000
0010
0000
,  // measure 13
1000
0000
1000
0000
1000
0000
0010
0100
0000
0100
0000
0100
0000
0001
1000
0000
,  // measure 14
1100
0000
0000
0000
0101
0000
0000
0000
0010
1000
0010
0000
0100
0000
0001
0000
,  // measure 15
0010
0000
1000
0000
0010
0000
0100
0000
0010
0001
1000
0000
0010
0000
0100
0000
,  // measure 16
0001
0000
0100
0000
0010
0000
0100
0000
0001
1000
0001
0000
0010
0000
0100
0000
,  // measure 17
1000
0000
0010
0000
1000
0000
0100
0010
0000
0010
0001
0000
0100
0000
0010
0000
,  // measure 18
1010
0000
0000
0000
0011
0000
0000
0000
0100
1000
0001
0000
1000
0000
0010
0000
,  // measure 19
0100
0000
1000
0000
0100
0000
0001
0000
0100
0010
1000
0000
0001
0000
0100
0000
,  // measure 20
0010
0000
1000
0000
0010
0000
0001
0000
0010
1000
0100
0000
1000
0000
0001
0000
,  // measure 21
0100
0000
0010
0000
0100
0000
0001
1000
0000
0001
0010
0000
0100
0000
1000
0000
,  // measure 22
0010
0000
1000
0100
0000
0010
0000
0001
1000
0001
0100
0000
0010
0000
1000
0000
,  // measure 23
0100
0000
1000
0001
0000
0100
0000
0010
0100
0001
1000
0000
0001
0000
0010
0000
,  // measure 24
0100
0000
1000
0010
0000
1000
0000
0001
0010
0100
0010
0000
0001
0000
1000
0000
,  // measure 25
0010
0000
0001
0000
0010
0000
1000
0000
0100
0010
0001
0000
1000
0000
0010
0000
,  // measure 26
0100
0000
0001
0010
0000
0001
0000
1000
0100
1000
0010
0000
0100
0000
0001
0000
,  // measure 27
0010
0000
0100
1000
0000
0010
0000
1000
0001
0010
0001
0000
0100
0000
1000
0000
,  // measure 28
0100
0000
0001
0010
0000
0100
0000
1000
0010
1000
0001
0000
0100
0000
0010
0000
,  // measure 29
1000
0000
0100
0000
1000
0001
0000
0001
0100
0010
1000
0001
0010
0100
1000
0000
,  // measure 30
0001
0000
0100
0000
0010
0000
1000
0001
0100
0001
1000
0000
0010
0000
0100
0000
,  // measure 31
0001
0000
0100
0000
0010
0000
1000
0000
0100
1000
0010
0000
0001
0000
0100
0000
,  // measure 32
0001
0000
0010
0000
1000
0000
0100
0010
0000
0010
0001
0000
1000
0000
0010
0000
,  // measure 33
0100
0000
0001
0000
1000
0000
0010
0000
1000
0001
1000
0001
0100
0010
0100
0010
,  // measure 34
1000
0000
0100
0000
0010
0000
0001
1000
0100
1000
0001
0000
0100
0000
0010
0000
,  // measure 35
1000
0000
0001
0000
0010
0000
0100
1000
0010
1000
0001
0000
0100
0000
0010
0000
,  // measure 36
1000
0000
0001
0000
0010
0000
0100
1000
0000
0001
1000
0000
0010
0000
0100
0000
,  // measure 37
0001
0010
0001
0010
0001
0100
0001
0100
0010
1000
0010
1000
0100
1000
0100
1000
,  // measure 38
0001
0000
0001
0000
0001
0000
0010
0100
0000
1000
0000
0010
0000
0100
0010
1000
,  // measure 39
0100
0000
0100
0000
0100
0000
0010
0001
0000
1000
0000
0001
0000
1000
0100
0000
,  // measure 40
0010
0000
0010
0000
0010
0000
0001
1000
0000
0001
0000
1000
0000
0001
0100
0000
,  // measure 41
1000
0000
1000
0000
1000
0000
0001
0010
0000
0001
0000
0100
0000
0010
1000
0000
,  // measure 42
0001
0000
0001
0000
0001
0000
0010
0100
0000
1000
0000
0010
0000
1000
0001
0000
,  // measure 43
0100
0010
0100
0000
0100
0000
0001
1000
0001
0010
0000
0100
0000
1000
0001
0000
,  // measure 44
0010
0000
0010
0000
0010
0000
0001
0100
0000
0001
0000
1000
0000
0001
0100
0000
,  // measure 45
0010
1000
0010
1000
0001
0010
0001
0010
0001
0100
0001
0100
1000
0100
1000
0100
,  // measure 46
0001
0000
0000
0000
1001
0000
0010
1000
0000
0010
0100
0000
0001
0000
1000
0000
,  // measure 47
0100
0000
0010
0001
0000
1000
0000
0001
0100
0010
1000
0000
0001
0000
0100
0000
,  // measure 48
0010
0000
1000
0100
0000
0010
0000
0001
0100
0001
1000
0000
0010
0000
0100
0000
,  // measure 49
0001
0000
0010
0000
1000
0000
0010
0000
0001
1000
0001
0000
0100
0000
0010
0000
,  // measure 50
1000
0000
0100
0010
0000
0001
0000
0100
0010
0100
0001
0000
1000
0000
0010
0000
,  // measure 51
0100
0000
0010
1000
0000
0100
0000
0010
0001
0100
0001
0000
1000
0000
0010
0000
,  // measure 52
0100
0000
0001
0010
0000
0100
0000
1000
0010
1000
0001
0000
1000
0100
0010
0000
,  // measure 53
0001
0000
0100
0000
0001
1000
0000
0010
1000
0100
0010
0001
1000
0001
0100
0010
,  // measure 54
1000
0000
0100
0000
0010
0000
0001
1000
0001
0100
0010
0000
1000
0000
0100
0000
,  // measure 55
0001
0000
0100
0000
0010
0000
0100
1000
0010
0100
0001
0000
1000
0000
0010
0000
,  // measure 56
0100
0000
0001
0000
0100
0000
0010
1000
0001
1000
0100
0000
0010
0000
0001
0000
,  // measure 57
0100
0000
0010
0000
1000
0000
0001
0000
0010
0100
0010
0100
1000
0001
1000
0001
,  // measure 58
0100
0000
0010
0000
1000
0000
0001
0010
0001
1000
0100
0000
1000
0000
0010
0000
,  // measure 59
0100
0000
0001
0000
0010
0000
0100
1000
0001
1000
0010
0000
0100
0000
0001
0000
,  // measure 60
0110
0000
1000
0000
0100
0000
0010
0001
1000
0001
1000
0010
0100
0000
0001
0000
,  // measure 61
1000
0100
0010
0001
1000
0100
0010
0001
1000
0010
0100
0001
1000
0010
0100
0001
,  // measure 62
0010
0100
1001
0000
0100
1010
0101
0000
,  // measure 63
1000
1000
1000
0001
0011
0100
1100
0001
,  // measure 64
0110
0000
0000
0000
1000
0000
0001
0000
1000
0000
0000
0010
0000
0000
0100
0000
;
