#TITLE:ICARUS;
#SUBTITLE:;
#ARTIST:Eagle;
#TITLETRANSLIT:;
#SUBTITLETRANSLIT:;
#ARTISTTRANSLIT:;
#GENRE:;
#CREDIT:;
#BANNER:ICARUS-bn.png;
#BACKGROUND:ICARUS-bg.png;
#LYRICSPATH:;
#CDTITLE:;
#MUSIC:ICARUS.ogg;
#OFFSET:1.025000;
#SAMPLESTART:33.070999;
#SAMPLELENGTH:20.000000;
#LASTBEATHINT:0.049867;
#SELECTABLE:YES;
#DISPLAYBPM:126.000000:251.000000;
#BPMS:0.000000=176.000000
,168.000000=125.999992
,204.000000=131.000000
,212.000000=136.000000
,220.000000=141.000000
,224.000000=146.000000
,228.000000=151.000000
,232.000000=156.000000
,236.000000=161.000000
,240.000000=166.000000
,244.000000=171.000000
,248.000000=176.000000
,252.000000=181.000000
,254.000000=186.000000
,256.000000=191.000000
,258.000000=196.000000
,260.000000=201.000000
,264.000000=211.000000
,268.000000=221.000000
,272.000000=231.000000
,276.000000=241.000015
,280.000000=251.000000
,284.000000=176.000000
;
#STOPS:
;
#BGCHANGES:;
#KEYSOUNDS:;
#ATTACKS:;

//---------------dance-single - ----------------
#NOTES:
     dance-single:
     :
     Hard:
     13:
     0.545931,0.752770,0.184540,0.153783,0.299878,497.000000,473.000000,24.000000,20.000000,0.000000,0.000000,0.545931,0.752770,0.184540,0.153783,0.299878,497.000000,473.000000,24.000000,20.000000,0.000000,0.000000:
0000
0000
0000
0000
,
0000
0000
0000
0000
,
0000
0000
0000
0000
,
0000
0000
0000
0000
,
0000
0000
0000
0000
,
0000
0000
0000
0000
,
0000
0000
0000
0000
,
0000
0000
0000
0000
,
1001
0000
0000
0110
0000
0000
1001
0000
,
0220
0300
1000
1030
,
0001
0000
0010
0001
0000
1000
0100
0000
,
1000
0000
0010
0100
0000
0001
1000
0000
,
0001
0000
0010
0001
0000
1000
0010
0100
,
0001
0000
0010
0100
0000
1000
0010
1000
,
0001
0000
1000
0100
0000
0010
0001
0000
,
0100
0000
0010
1000
0000
0001
1000
0000
,
0010
0000
1000
0001
0000
1000
0100
0000
,
0010
0000
0000
0010
0000
0000
0010
0000
0001
0000
0000
0000
1000
0000
0000
0000
,
1001
0000
1000
0100
0000
1000
0010
0100
,
0001
0000
0010
0100
0000
0010
0001
1000
,
0010
0000
1000
0100
0000
1000
0010
0001
,
0100
0000
0010
1000
0000
0100
0010
0001
,
0100
0010
1000
0001
0000
1000
0100
0010
,
0001
0100
0001
0010
0000
1000
0001
1000
,
0100
0010
0100
1000
0000
0010
1000
0001
,
0100
0010
0100
0010
0100
0010
1001
0000
,
1000
0000
0000
0010
0000
0000
1000
0000
0000
0100
0000
0000
0010
0000
0001
0000
,
0100
0000
0000
0010
0000
0000
0100
0000
0000
0001
0000
0000
1000
0000
0010
0000
,
0100
0000
0000
0001
0000
0000
0010
0000
0000
0100
0000
0000
1000
0000
0001
0000
,
0100
0000
0000
0010
0000
0000
1000
0000
0000
0001
0000
0000
1000
0010
0000
0100
,
0001
0000
0000
0010
0000
0000
0100
0000
0000
1000
0000
0000
0010
0000
0100
0000
,
0010
0000
0000
1000
0000
0000
0001
0000
0000
0010
0000
0000
0001
0000
0100
0000
,
0001
0000
0000
1000
0000
0000
0100
0000
0000
1000
0000
0000
0010
0000
0100
0000
,
0001
0000
0000
0010
0000
0000
0100
0000
1000
0000
0000
0001
0000
0000
0100
0000
,
0010
0000
0000
1000
0000
0000
0100
0000
0000
1000
0000
0000
0001
0000
0100
0000
,
0010
0000
0000
1000
0000
0000
0001
0000
0000
0010
0000
0000
0001
0000
0100
0000
,
0001
0000
0000
1000
0000
0000
0001
0000
0000
0010
0000
0000
0100
0000
1000
0000
,
0010
0000
0000
0100
0000
0000
0010
0000
0000
1000
0000
0000
0001
0100
0000
0001
,
1000
0000
0000
0010
0000
0000
1000
0000
0000
0100
0000
0000
0010
0000
0001
0000
,
0100
0000
0000
0001
0000
0000
0010
0000
0000
0100
0000
0000
1000
0000
0001
0000
,
0200
0000
0310
1000
0001
0000
0020
0000
,
0031
0100
0010
1000
0100
0010
0001
0000
,
1001
0000
0000
0000
,
0000
0000
0000
0000
,
0000
0000
0000
0000
,
0000
0000
0000
0000
,
0010
0010
0010
0010
,
1001
0000
0000
0010
0000
0000
1000
0100
0000
1000
0100
0000
0010
0000
0001
0000
,
0100
0000
0000
0010
0000
0000
1000
0000
0001
0000
0000
1000
0000
0000
0100
0000
,
0010
0000
0000
0001
1000
0000
0000
0010
0000
0100
0000
0010
0100
0000
0001
0000
,
1000
0100
0010
0001
0101
0101
0101
0101
,
1001
0000
0010
0101
0000
1100
0001
0000
,
0010
0000
0001
0000
0100
0000
0010
0000
1000
0000
0100
1000
0000
1000
0001
0000
,
0110
0000
1000
1010
0000
0101
0010
1000
,
0100
0000
0010
0000
0001
0000
1000
0000
0001
0100
0001
0100
0000
0010
1000
0010
,
1000
0000
0100
0010
0000
0010
0001
0100
,
0010
0000
0000
0000
1000
0000
0100
0000
0010
0000
0001
1000
0000
0000
0001
0000
,
0100
0000
0000
0000
0010
0000
0000
1000
0000
0001
0000
1000
0010
0000
0100
0000
,
0001
0000
0000
0010
0000
0000
0001
0000
1000
0000
0000
0010
0000
0000
1000
0000
,
0200
0000
0310
0001
0200
0000
0310
1000
,
0002
0000
0000
0010
0003
0000
1000
0000
0002
0000
0000
0100
0003
0000
1000
0000
,
0020
0000
1030
0001
2000
0000
3100
0010
,
0001
0100
0001
0010
0001
0100
0001
1000
,
0010
0000
1000
0100
0001
0000
0010
0100
,
1000
0000
1100
0000
0101
0010
1000
0001
,
0100
0000
1010
0000
0011
0000
1000
0001
,
0200
0000
0310
1000
0010
0100
0001
1000
,
0100
0010
0100
0010
0100
0010
0100
0010
,
0001
1000
0001
1000
0001
1000
0001
1000
,
0020
2030
3200
0320
,
0032
0000
2003
0000
3010
0100
0010
0000
,
0110
0000
0000
0000
,
0100
0010
0100
0010
0100
0010
1001
0000
,
0001
0000
0000
0010
0000
0000
0001
0000
0000
0100
0000
0000
1000
0000
0010
0000
,
0100
0000
0000
0001
0000
0000
0010
0000
0000
0001
0000
0000
1000
0000
0100
0000
,
0010
0001
0200
0000
0310
1000
0001
1000
,
0100
0010
0001
0100
2000
0000
3001
1000
,
0010
0000
0000
1000
0000
0000
0100
0000
0000
1000
0000
0000
0001
0000
0100
0000
,
0010
0000
0000
1000
0000
0000
0001
0000
0000
0010
0000
0000
0100
0000
1000
0000
,
0010
0100
0001
0100
0001
1000
0100
1000
,
0100
0010
0001
1000
0001
1000
0001
0100
,
0010
0000
0000
1000
0000
0000
0001
0000
0000
0010
0000
0000
0001
0000
0100
0000
,
1000
0000
0000
0010
0000
0000
0100
0000
0000
0010
0000
0000
1000
0000
0001
0000
,
0010
0000
0000
0100
0000
0000
1000
0000
0000
0010
0000
0000
1000
0000
0001
0000
,
0010
0000
0000
0100
0000
0000
0010
0000
0000
0001
0000
0000
1000
0100
0000
1000
,
0001
0000
0000
0010
0000
0000
0001
0000
0000
0100
0000
0000
1000
0000
0001
0000
,
1000
0000
0000
0010
0000
0000
0100
0000
0000
0001
0000
0000
0010
0000
0100
0000
,
2000
0001
0001
0001
,
0001
0001
0001
0001
,
3001
0000
0000
0000
;

//---------------dance-single - ----------------
#NOTES:
     dance-single:
     :
     Medium:
     11:
     0.463547,0.615903,0.261432,0.184540,0.046135,422.000000,388.000000,34.000000,24.000000,0.000000,0.000000,0.463547,0.615903,0.261432,0.184540,0.046135,422.000000,388.000000,34.000000,24.000000,0.000000,0.000000:
0000
0000
0000
0000
,
0000
0000
0000
0000
,
0000
0000
0000
0000
,
0000
0000
0000
0000
,
0000
0000
0000
0000
,
0000
0000
0000
0000
,
0000
0000
0000
0000
,
0000
0000
0000
0000
,
1001
0000
0000
0110
0000
0000
2000
0000
,
0002
3000
0100
0103
,
1002
0000
0000
0100
0000
0000
1003
0000
,
0110
0000
0000
1000
0000
0000
0001
0000
,
0011
0000
0000
0100
0000
0000
1000
0000
,
1010
0000
0000
0001
0000
0000
1000
0000
,
0010
0000
0000
1000
0001
0000
1000
0000
,
0100
0000
0010
0001
0010
0000
0100
0000
,
1000
0000
0001
0100
0001
0000
1000
0000
,
0010
0000
0100
0001
0200
0000
0310
0000
,
1000
0000
0010
0000
1000
0000
0010
0100
,
0001
0000
0010
0000
0001
0000
0100
0010
,
1000
0000
0001
0000
1000
0000
0001
0100
,
0010
0000
1000
0100
1000
0000
0010
0100
,
0001
0000
1000
0100
1000
0000
0010
0100
,
0010
0000
1000
0001
1000
0000
0100
0010
,
0001
0000
1000
0010
0000
1000
0001
0000
,
0100
0010
0100
0010
0100
0010
0100
0000
,
1001
0000
1000
0001
0000
0010
0100
0000
,
1000
0000
0010
1000
0000
0001
0100
0000
,
0001
0000
1000
0010
0000
1000
0100
0010
,
0001
0000
0100
0010
0000
1000
0001
0000
,
0100
0000
0001
0010
0000
0001
1000
0010
,
1000
0000
0100
0010
0000
0010
0001
0000
,
0100
0000
0001
0010
0000
0100
1000
0000
,
0001
0000
0000
0001
0000
0000
0001
0000
1000
0000
0000
1000
0000
0000
1000
0000
,
0100
0000
0110
0000
0001
0100
1000
0000
,
0010
0000
1000
0001
0000
1000
0100
0010
,
0001
0000
0100
0010
0000
0010
1000
0100
,
1000
0000
0001
0100
0000
0001
1000
0000
,
0001
0000
0010
0000
0001
1000
0100
1000
,
0010
0000
0100
0001
0000
0100
0010
1000
,
0002
0000
0003
0010
0000
0000
0200
0000
,
0000
0300
1000
0001
0100
0000
0010
0000
,
1001
0000
0000
0000
,
0000
0000
0000
0000
,
0000
0000
0000
0000
,
0000
0000
0000
0000
,
0010
0010
0010
0010
,
1001
0000
0000
0100
0000
0010
1000
0000
,
0001
0000
0000
0010
0000
0000
0001
0000
0100
0000
0000
0010
0000
0000
1000
0000
,
0100
0000
0000
0000
0100
0000
0000
1000
0000
0000
0001
0000
1000
0000
0100
0000
,
0010
0001
0100
0010
1000
1000
0001
0001
,
1001
0000
0100
0101
0000
1010
0000
0000
,
1001
0000
0000
0000
1000
0000
1100
0000
0000
0000
0011
0000
0000
0100
0000
0000
,
0110
0000
0010
1010
0000
0101
0000
0000
,
0110
0000
0000
0000
0001
0000
1001
0000
0000
0000
0110
0000
0000
1000
0001
1000
,
0001
0000
0010
0001
0000
0100
1000
0000
,
1001
0000
0000
0000
0100
0000
0010
0000
1000
0000
0000
1000
0000
0000
0001
0000
,
0101
0000
0010
1000
0000
0100
0001
0000
,
0010
0000
0000
0010
0000
0000
0010
0000
0100
0000
0000
0100
0000
0000
0100
0000
,
2000
0000
3000
0010
0200
0000
0300
0001
,
0020
0000
0030
0001
0200
0000
0300
0010
,
2000
0000
3100
1000
0002
0000
0013
0000
,
0002
0000
1003
0010
2000
0000
3100
0000
,
1100
0101
1100
0101
,
0011
0000
1100
0000
0001
1000
0001
1000
,
0001
0000
0010
0000
0001
0000
0100
0010
,
1000
0000
0100
0000
0010
0000
0001
1000
,
0001
0001
0001
0001
,
1000
1000
1000
1000
,
0200
0320
0032
2003
,
3020
2030
3200
0320
,
0032
0000
0000
0003
,
0100
0010
0100
0010
0100
0010
0100
0000
,
0001
0000
1000
0000
0010
1000
0100
0000
,
0010
0000
0001
0100
0000
0010
1000
0000
,
0001
0100
1000
0000
0010
0000
0100
0001
,
0010
0100
0010
0001
1000
0000
0001
0100
,
0001
0000
1000
0010
0000
1000
0001
1000
,
0100
0000
0010
0001
0000
0100
1000
0000
,
0001
0000
0000
0010
0000
0000
0001
0000
1000
0000
0000
0000
0010
0000
0100
0000
,
0010
1000
0010
1000
0010
1000
0001
0000
,
0110
0000
0010
1000
0000
0100
0010
0000
,
0011
0000
1000
0001
0000
1000
0010
0000
,
1010
0000
0100
0001
0000
1000
0010
0100
,
0001
0000
0010
0100
0000
0100
1000
0000
,
1001
0000
0010
1000
0000
0001
1000
0100
,
0010
0000
0001
0100
0000
0010
1000
0001
,
0200
0010
0010
0010
,
0001
1000
0001
1000
,
0301
0000
0000
0000
;

//---------------dance-single - ----------------
#NOTES:
     dance-single:
     :
     Easy:
     7:
     0.316355,0.444819,0.184540,0.076892,0.000000,288.000000,264.000000,24.000000,10.000000,0.000000,0.000000,0.316355,0.444819,0.184540,0.076892,0.000000,288.000000,264.000000,24.000000,10.000000,0.000000,0.000000:
0000
0000
0000
0000
,
0000
0000
0000
0000
,
0000
0000
0000
0000
,
0000
0000
0000
0000
,
0000
0000
0000
0000
,
0000
0000
0000
0000
,
0000
0000
0000
0000
,
0000
0000
0000
0000
,
1001
0000
0000
0110
0000
0000
1000
0000
,
0001
0000
0110
0000
,
1001
0000
0000
0000
,
0100
0000
0000
0000
,
0010
0000
0000
0000
,
1000
0000
0000
0000
,
0001
0000
0001
0000
,
1000
0000
1000
0000
,
0010
0000
0010
0000
,
0100
0000
0100
0000
,
0001
0010
0001
0010
,
0100
1000
0100
1000
,
0010
0100
0010
0100
,
0001
1000
0001
1000
,
0100
0100
0100
0100
,
0010
0010
0010
0010
,
0001
0001
1000
1000
,
1100
0101
1100
0101
,
0010
1000
0100
0010
,
0001
0100
0001
0010
,
0001
1000
0010
1000
,
0100
0010
0100
1000
,
0010
1000
0001
0010
,
0001
0100
1000
0010
,
1000
0100
0010
0001
,
0110
0000
1001
0000
,
0100
0001
0100
0010
,
1000
0100
0010
0001
,
0100
0010
0100
0001
,
0010
0100
1000
0010
,
1000
0001
1000
0100
,
0010
0001
0100
0010
,
2000
0000
0000
3001
0000
0000
0020
0000
,
0000
0031
0100
1000
,
1001
0000
0000
0000
,
0000
0000
0000
0000
,
0000
0000
0000
0000
,
0000
0000
0000
0000
,
0010
0010
0010
0010
,
1001
0000
0100
0000
,
0001
0000
1000
0100
,
1000
0000
0010
0000
,
0100
0000
0000
0000
0001
1000
0001
1000
,
0001
0000
0000
0100
0000
0010
0000
0000
,
1000
0000
0000
0001
0000
0010
0000
0100
,
1000
0000
0000
0001
0000
1000
0000
0000
,
0010
0000
0000
0100
0000
0010
0000
0100
,
0001
0000
0000
0010
0000
0100
0000
0000
,
1000
0000
0000
0001
0000
1000
0000
0010
,
0100
0000
0000
0001
0000
0010
0000
0000
,
0011
0011
1100
1100
,
0002
0103
0020
1030
,
0200
0310
0002
1003
,
0010
0000
1001
0110
,
1000
0000
1001
0110
,
0001
0010
0100
1000
,
0010
0100
0010
1000
,
0001
0010
0001
0100
,
1000
0010
1000
0001
,
0010
0010
0010
0010
,
0010
0010
0010
0010
,
0200
0300
2000
3000
,
0002
0003
1000
0010
,
0100
0000
0000
0000
,
0101
1100
0101
1100
,
0001
0010
0001
0100
,
0010
1000
0100
0010
,
0001
0001
1000
1000
,
0001
0001
1000
1000
,
0010
1000
0100
0010
,
0100
1000
0010
0001
,
0100
0100
0010
0010
,
0100
0100
0010
0010
,
0100
0001
0010
0001
,
0100
0010
1000
0100
,
0001
1000
0001
0100
,
0010
0100
0001
0010
,
0100
0010
0001
0100
,
0010
1000
0001
0010
,
2000
0000
0000
0000
,
0001
0001
0001
0001
,
3001
0000
0000
0000
;

//---------------dance-single - ----------------
#NOTES:
     dance-single:
     :
     Beginner:
     4:
     0.164768,0.273735,0.107648,0.007689,0.000000,150.000000,136.000000,14.000000,1.000000,0.000000,0.000000,0.164768,0.273735,0.107648,0.007689,0.000000,150.000000,136.000000,14.000000,1.000000,0.000000,0.000000:
// measure 0
0000
0000
0000
0000
,  // measure 1
0000
0000
0000
0000
,  // measure 2
0000
0000
0000
0000
,  // measure 3
0000
0000
0000
0000
,  // measure 4
0000
0000
0000
0000
,  // measure 5
0000
0000
0000
0000
,  // measure 6
0000
0000
0000
0000
,  // measure 7
0000
0000
0000
0000
,  // measure 8
1001
0000
0110
0000
,  // measure 9
1001
0000
0000
0000
,  // measure 10
0110
0000
0000
0000
,  // measure 11
0001
0000
0000
0000
,  // measure 12
1000
0000
0000
0000
,  // measure 13
0001
0000
0000
0000
,  // measure 14
0100
0000
0100
0000
,  // measure 15
0010
0000
0010
0000
,  // measure 16
1000
0000
1000
0000
,  // measure 17
0001
0000
0001
0000
,  // measure 18
0010
0000
0000
0000
,  // measure 19
0001
0000
0000
0000
,  // measure 20
1000
0000
0000
0000
,  // measure 21
0100
0000
0000
0000
,  // measure 22
1000
0000
1000
0000
,  // measure 23
0010
0000
0010
0000
,  // measure 24
0100
0000
0100
0000
,  // measure 25
0001
0001
0001
0000
,  // measure 26
0010
0000
0000
0000
,  // measure 27
0001
0000
1000
0000
,  // measure 28
0001
0000
0000
0000
,  // measure 29
0100
0000
0010
0000
,  // measure 30
1000
0000
0000
0001
,  // measure 31
0001
0000
1000
0000
,  // measure 32
0100
0000
0010
0000
,  // measure 33
1001
0000
0110
0000
,  // measure 34
0001
0000
0000
0100
,  // measure 35
0100
0000
0001
0000
,  // measure 36
1000
0000
0100
0000
,  // measure 37
1000
0000
0010
0010
,  // measure 38
0010
0000
0100
0000
,  // measure 39
0001
0000
1000
0000
,  // measure 40
0001
0000
0000
0000
,  // measure 41
1000
0000
0010
0000
,  // measure 42
1001
0000
0000
0000
,  // measure 43
0000
0000
0000
0000
,  // measure 44
0000
0000
0000
0000
,  // measure 45
0000
0000
0000
0000
,  // measure 46
0010
0000
0010
0000
,  // measure 47
1001
0000
0000
0000
,  // measure 48
0100
0000
0010
0000
,  // measure 49
0100
0000
0000
0000
,  // measure 50
0001
0000
1000
1000
,  // measure 51
1000
0000
0010
0000
,  // measure 52
0100
0000
0001
0000
,  // measure 53
0010
0000
0001
0000
,  // measure 54
0100
0000
0010
0000
,  // measure 55
1000
0000
0000
0000
,  // measure 56
0001
0000
0000
0000
,  // measure 57
1000
0000
0000
0000
,  // measure 58
1001
0000
0110
0000
,  // measure 59
0100
0000
0100
0000
,  // measure 60
0001
0000
0001
0000
,  // measure 61
1000
0000
1000
0000
,  // measure 62
0010
0000
0010
0000
,  // measure 63
1000
0000
0001
0000
,  // measure 64
1000
0000
0001
0000
,  // measure 65
0010
0010
0010
0000
,  // measure 66
0100
0100
0100
0000
,  // measure 67
1000
0000
0000
0000
,  // measure 68
0001
0000
0000
0000
,  // measure 69
0100
0000
0000
0000
,  // measure 70
0010
0000
0000
0000
,  // measure 71
0110
0000
0000
0000
,  // measure 72
0001
0001
0001
0000
,  // measure 73
1000
0000
0010
0000
,  // measure 74
1000
0000
0001
0000
,  // measure 75
1001
0000
0000
0000
,  // measure 76
0110
0000
0000
0000
,  // measure 77
1000
0000
0010
0000
,  // measure 78
0100
0000
0001
0000
,  // measure 79
0110
0000
0000
0000
,  // measure 80
1000
1000
1000
1000
,  // measure 81
1000
0000
0001
0000
,  // measure 82
1000
0000
0100
0000
,  // measure 83
0010
0000
0001
0000
,  // measure 84
0100
0000
0010
0010
,  // measure 85
0010
0000
0100
0000
,  // measure 86
0001
0000
1000
0000
,  // measure 87
0002
0000
0000
0000
,  // measure 88
0000
0000
0000
0000
,  // measure 89
0003
0000
0000
0000
;
