#TITLE:I'm Your Baby Tonight;
#ARTIST:Whitney Houston;
#BANNER:I'm Your Baby Tonight-bn.png;
#BACKGROUND:I'm Your Baby Tonight-bg.png;
#JACKET:I'm Your Baby Tonight-jacket.png;
#MUSIC:I'm Your Baby Tonight.ogg;
#OFFSET:0.9;
#SAMPLESTART:52.835;
#SAMPLELENGTH:20;
#DISPLAYBPM:110;
#BPMS:0=110.17;
#BGCHANGES:;

//---------------dance-single - ----------------
#NOTES:
     dance-single:
     :
     Beginner:
     3:
     :
0000
0000
0000
0000
,
0000
0000
0000
0000
,
0000
0000
0000
0000
,
0001
0000
0000
0000
,
1000
0000
0000
0000
,
0010
0010
0000
0000
,
0100
0100
0000
0000
,
0001
0000
1000
0000
,
0100
0100
0100
0000
,
1000
0000
0001
0000
,
0010
0000
0001
0000
,
0100
0000
0010
0000
,
1000
1000
1000
0000
,
0001
0000
0010
0000
,
0001
0000
0100
0000
,
0010
0010
0010
0000
,
1000
1000
1000
0000
,
1001
0000
0100
0000
,
0001
0000
1000
0000
,
0001
0000
0010
0000
,
0200
0000
0300
0000
,
1001
0000
0010
0000
,
1000
0000
0100
0000
,
1000
0000
0001
0000
,
0010
0010
0010
0000
,
0001
0001
0000
0000
,
1000
1000
0000
0000
,
0010
0010
0010
0010
,
0000
0000
0000
0000
,
1000
1000
0000
0000
,
0100
0100
0000
0000
,
1000
1000
1000
1000
,
0000
0000
0000
0000
,
0010
0010
0000
0000
,
0100
0100
0000
0000
,
0001
0001
0001
0001
,
0000
0000
0000
0000
,
1000
1000
0000
0000
,
0001
0001
0000
0000
,
0100
0100
0100
0100
,
0000
0000
0000
0000
,
0001
0000
1000
0000
,
0010
0010
0000
0000
,
1000
0000
0100
0000
,
1000
0000
0001
0000
,
0010
0000
0001
0000
,
0100
0100
0000
0000
,
0001
0000
0010
0000
,
0001
0001
0001
0001
,
0002
0000
0000
0000
,
0000
0000
0000
0000
,
0003
0000
0000
0000
;

//---------------dance-single - ----------------
#NOTES:
     dance-single:
     :
     Easy:
     6:
     :
0000
0000
0000
0000
,
0000
0000
0000
0000
,
0000
0000
0000
0000
,
0001
0010
0001
1000
,
0100
0100
1000
0001
,
0200
0020
0330
0110
,
2000
0002
3003
1001
,
0010
0001
0100
1000
,
0010
0010
1000
0001
,
0100
0001
0010
0000
,
0001
0100
1000
0000
,
0010
1000
0100
0000
,
1000
1000
1000
0001
,
0100
0010
1000
0100
,
1000
0010
0001
0000
,
0100
0100
0010
0010
,
1000
0100
1000
0001
,
1001
0010
1000
0000
,
0001
0100
0100
0000
,
0010
0010
1000
0100
,
2000
0002
3000
0103
,
0110
0010
1000
0000
,
0001
0100
0100
0000
,
0001
0001
1000
0000
,
0010
0000
0010
0000
0010
0000
0010
0000
0000
1001
0000
0000
,
2000
3100
0000
0010
,
0002
1003
0200
0300
,
1001
1001
0110
0110
,
1000
0001
0100
0110
,
0020
1030
0001
0001
,
2000
3100
0001
0001
,
1001
1001
0110
0110
,
1000
0010
0100
0001
,
0020
0031
0000
0100
,
2000
3010
0002
0003
,
1001
1001
0110
0110
,
1000
0100
0001
0010
,
0200
1300
0010
0100
,
0002
0013
1000
0100
,
1001
1001
0110
0110
,
1000
0010
0001
0100
,
0001
0001
1000
1000
,
0001
0000
0000
0100
0000
0000
0000
0110
0000
0110
0000
0000
,
1000
1000
0100
0100
,
1000
0001
1000
0100
,
0010
0010
0001
0100
,
1000
0000
0000
0001
0000
0000
0000
1001
0000
1001
0000
0000
,
0010
0010
1000
1000
,
1001
1001
0110
0110
,
2000
0002
0000
0000
,
0000
0000
0000
0000
,
3003
0000
0000
0000
;

//---------------dance-single - ----------------
#NOTES:
     dance-single:
     :
     Medium:
     10:
     :
0000
0000
0000
0000
,
0000
0000
0000
0000
,
0000
0000
0000
0000
,
0002
0000
0000
0013
0000
0100
0000
1000
0000
1100
0000
0000
,
0001
1000
0001
1000
0000
0010
0000
0010
0000
1000
0100
1000
,
0200
0000
0000
0310
0000
0001
0000
1000
0000
1001
0000
0001
,
0020
0000
0000
0031
0000
1000
0000
0100
0000
0110
0000
0001
,
2000
0000
0000
3010
0000
0100
0000
0001
0000
0101
0000
0000
,
0010
1000
0010
1000
0000
0000
0001
0100
0001
0100
0000
0000
,
0010
0000
1000
0010
0000
0100
0001
0000
1000
0100
0000
0000
,
0010
0000
0001
0100
0000
0001
1000
0000
0100
1000
0000
0000
,
0001
0000
0001
1000
0000
1000
0010
0000
0100
0001
0000
0000
,
0010
0000
0001
1000
0000
0000
1000
0000
0001
0100
0000
0000
,
0110
0000
0000
1000
0010
1000
0010
0000
0100
0000
0001
0000
,
0010
0000
0010
0001
0000
1000
0001
0000
0100
0010
0000
0000
,
1000
0100
1000
0100
0000
0000
0010
0001
0010
0001
0000
0000
,
0100
0010
0100
0010
0000
0000
1000
0000
0001
0000
1000
0000
,
1001
0000
0000
0010
0000
0010
1000
0000
1000
0001
0000
0000
,
0001
0100
0001
0100
0000
0010
1000
0000
1000
0100
0000
0000
,
1000
0000
0010
0000
1000
0000
0100
0000
0010
0000
0001
0000
,
0100
0010
0100
0010
0000
1010
0000
1010
0000
1010
0000
0000
,
0001
0000
1000
0000
0001
0100
0001
0000
0010
0100
0000
0000
,
1000
0100
1000
0100
0000
1000
0001
0000
0001
0100
0000
0000
,
0010
0000
1000
0000
0001
0000
1000
0000
0100
0010
0000
0000
,
0011
0000
1100
0000
0011
0000
1100
0000
0010
1000
0010
1000
,
0020
0000
0000
0130
0000
0110
0000
0000
0001
1000
0001
1000
,
0002
0000
0000
0103
0000
0110
0000
0010
0000
1000
0000
0000
,
1001
0000
0000
1001
0000
0000
0001
0000
0001
1000
0000
0100
,
1000
0000
0000
0010
0000
0110
0000
0000
0001
0100
0001
0100
,
0002
0000
0000
0013
0000
0011
0000
0000
0000
1000
0010
1000
,
0020
0000
0000
0130
0000
0101
0000
0001
0000
1000
0000
0000
,
1001
0000
0000
1001
0000
0000
1000
0000
0010
0100
0000
0001
,
0010
0001
1000
0100
0000
0110
0000
0110
0000
0001
0010
0100
,
2000
0000
0000
3010
0000
1010
0000
0000
0001
1000
0100
1000
,
0002
0000
0000
0013
0000
1001
0000
0100
0000
0010
0000
0000
,
0110
0000
0000
0110
0000
0000
1000
0000
1000
0001
0000
0100
,
0010
0000
1000
0000
0100
0000
1000
0000
0001
1000
0010
0100
,
0020
0000
0000
1030
0000
1100
0000
0000
0000
0001
1000
0001
,
0200
0000
0000
0310
0000
1010
0000
1000
0000
0001
0000
0000
,
0110
0000
0000
0110
0000
0000
0100
0000
0100
0001
0000
1000
,
0100
0000
0000
1000
0000
1001
0000
1001
0000
0001
1000
0001
,
1000
0100
1000
0100
0000
0000
0001
0100
0001
0100
0000
0000
,
0001
0010
0001
0010
0100
2000
0000
0000
0000
3000
0000
0000
,
0010
1000
0010
1000
0000
0000
0001
0100
0001
0100
0000
0000
,
0001
0000
0001
1000
0000
1000
0010
0000
0010
0100
0000
0100
,
0001
0010
0001
0010
0000
0000
1000
0010
1000
0010
0000
0000
,
0100
0001
0100
0001
1000
0200
0000
0000
0000
0300
0000
0000
,
0010
0100
0010
0100
0000
0000
1000
0001
1000
0001
0000
0000
,
0101
0000
0000
1100
0000
0000
0001
0000
1000
0010
0000
0200
,
0000
0302
0000
0000
,
0000
0000
0000
0000
,
0003
0000
0000
0000
;

//---------------dance-single - ----------------
#NOTES:
     dance-single:
     :
     Hard:
     13:
     :
0000
0000
0000
0000
,
0000
0000
0000
0000
,
0000
0000
0000
0000
,
0002
0000
0000
0103
0000
0010
0000
1000
0100
1000
0000
0001
,
0010
0100
1000
0001
0000
0100
0000
0010
1000
0010
0100
0001
,
2000
0000
0000
3100
0000
0010
0000
0001
0000
1000
0010
1000
,
0002
0000
0000
0103
0000
0010
0000
0100
0000
0001
1000
0010
,
0200
0000
0000
0301
0000
0010
0000
0001
0000
1000
0010
0100
,
0001
0010
0001
1000
0100
1000
0001
0100
0001
1000
0010
1000
,
0001
1000
0100
1000
0010
0100
0001
0000
1000
0100
0000
0010
,
0001
0100
0010
0100
0010
1000
0001
0000
0010
0001
1000
0001
,
1000
0010
0100
0001
1000
0001
0010
0000
0010
0001
0000
1000
,
0001
0000
0100
0010
0000
1000
0010
0100
0000
0001
1000
0001
,
0100
0000
0000
0001
1000
0001
0010
0000
0001
0000
0100
0010
,
1000
0100
1000
0100
0010
0001
0100
0010
1000
0001
0000
0010
,
0001
0100
0001
1000
0100
1000
0001
0010
0001
1000
0010
1000
,
0100
0010
0100
1000
0001
1000
0010
0000
0010
0000
0010
0000
,
1001
0000
0000
0110
0000
1000
0010
0000
0100
0001
0010
0001
,
1000
0100
0010
0100
1000
0001
0100
0000
0010
1000
0000
0001
,
0200
0000
0320
0000
2030
0000
3200
0000
0320
0000
0032
0000
,
1003
0010
1000
0010
0100
0010
0100
0001
0100
0001
0000
0000
,
0010
0000
0001
1000
0100
1000
0001
0000
0100
0010
0000
0000
,
1000
0010
1000
0100
0010
0001
0100
0000
0010
1000
0000
0001
,
0020
0000
0032
0000
0203
0000
0310
1000
0001
0100
0000
0000
,
1010
0000
0101
0000
0011
0000
1100
0000
0001
0010
0100
1000
,
0020
0000
0000
0130
0000
0110
0000
0000
0010
1000
0100
0010
,
0002
0000
0000
1003
0000
1100
0000
0010
1000
0100
0010
0001
,
0100
0000
0100
0010
0000
0010
1000
0000
0100
1000
0000
0001
,
0010
0001
0010
0100
0000
1000
0000
0010
1000
0100
0010
0001
,
2000
0000
0000
3010
0000
1010
0000
0101
0000
0001
1000
0010
,
0200
0000
0000
0301
0000
0011
0000
1100
0000
0001
1000
0010
,
0100
0000
0100
0010
0000
0010
1000
0000
0100
1000
0000
0001
,
0010
0100
0010
0001
1000
0010
1000
0100
0010
0001
1000
0001
,
0020
0000
0000
0031
0000
1001
0000
0010
1000
0100
0010
0001
,
0200
0000
0000
0301
0000
0101
0000
0010
1000
0001
1000
0100
,
0010
0000
0010
0001
0000
0001
0100
0000
0100
0010
0000
1000
,
0100
1000
0001
0100
0000
0110
0000
1000
0010
1000
0001
0100
,
0020
0000
0000
1030
0000
1100
0000
0101
0000
0001
1000
0100
,
0020
0000
0000
0130
0000
0011
0000
1010
0000
0100
0001
1000
,
0010
0000
0010
0100
0000
0100
0001
0000
1000
0001
0000
0100
,
0010
1000
0001
1000
0000
1001
0000
0110
0000
1000
0001
0100
,
0001
0010
0100
1000
0010
1000
0100
1000
0001
0100
0010
1000
,
0001
0010
0001
0010
0100
1000
0000
1100
0000
0101
0000
0000
,
0010
1000
0001
1000
0100
0010
0001
1000
0001
0100
0010
1000
,
0001
0100
0001
1000
0100
1000
0010
1000
0100
0010
0001
0100
,
0001
0010
0001
1000
0100
0010
0100
1000
0001
1000
0010
0100
,
0001
0100
0010
1000
0100
0001
0000
0101
0000
1010
0000
0010
,
1000
0100
1000
0001
0100
0010
1000
0100
1000
0100
0010
0001
,
1000
0000
0000
1001
0000
0000
1000
0000
0010
0100
0000
0001
,
1000
0001
0100
0010
1000
0002
0000
0000
0000
0000
0000
0000
,
0000
0000
0000
0000
,
0003
0000
0000
0000
;
