#TITLE:I'M IN THE MOOD FOR DANCING;
#ARTIST:SHARON;
#BANNER:I'M IN THE MOOD FOR DANCING-bn.png;
#BACKGROUND:I'M IN THE MOOD FOR DANCING-bg.png;
#JACKET:I'M IN THE MOOD FOR DANCING-jacket.png;
#DISCIMAGE:;
#MUSIC:I'M IN THE MOOD FOR DANCING.ogg;
#SAMPLESTART:63.97;
#SAMPLELENGTH:20;
#DISPLAYBPM:150;
#BPMS:0=149.451,4=149.993;
#BGCHANGES:0=I'M IN THE MOOD FOR DANCING.mp4=1=0=0=0,
;

//---------------dance-single - ----------------
#NOTES:
     dance-single:
     :
     Beginner:
     4:
     :
0000
0000
0000
0000
,
0000
0000
0000
0000
,
0000
0000
0000
0000
,
0000
0000
0000
0000
,
0000
0000
0000
0000
,
0010
0000
1000
0000
,
0010
0000
1000
0000
,
0010
0000
1000
0000
,
0001
0001
0001
0000
,
0001
0001
0001
0000
,
0010
0000
0100
0000
,
1000
1000
1000
0000
,
0100
0000
0100
0000
,
0001
0001
0001
0000
,
0010
0000
0100
0000
,
1000
1000
1000
0000
,
0100
0000
0100
0000
,
0001
0000
0100
0000
,
1000
0000
1000
0000
,
1000
0000
0100
0000
,
0001
0001
0001
0000
,
0001
0000
0100
0000
,
1000
0000
1000
0000
,
1000
0000
0100
0000
,
0001
0001
0001
0000
,
1001
0000
0000
0000
,
0001
0000
1000
0000
,
0010
0000
0010
0000
,
0100
0100
0100
0000
,
1001
0000
0000
0000
,
0001
0000
1000
0000
,
0010
0000
0010
0000
,
0100
0100
0100
0000
,
0010
0000
0000
0000
,
0100
0000
0000
0000
,
0010
0000
0000
0000
,
0100
0000
0100
0000
,
1001
0000
0000
0000
,
1001
0000
0000
0000
,
1001
0000
0000
0000
,
0100
0100
0100
0000
,
0001
0000
0000
0000
,
1000
0000
0000
0000
,
0010
0000
0010
0000
,
0100
0100
0100
0000
,
0001
0000
0000
0000
,
1000
0000
0000
0000
,
0010
0000
0010
0000
,
0100
0100
0100
0000
,
0001
0000
0000
0000
,
1000
0000
0000
0000
,
0010
0000
0010
0000
,
0100
0100
0100
0000
,
0001
0000
0000
0000
,
1000
0000
0000
0000
,
0010
0000
0010
0000
,
0010
0000
0000
0000
;

//---------------dance-single - ----------------
#NOTES:
     dance-single:
     :
     Easy:
     5:
     :
0000
0000
0000
0000
,
0000
0000
0000
0000
,
0000
0000
0000
0000
,
0000
0000
0000
0000
,
0000
0000
0000
0000
,
0010
0000
1000
0000
,
0010
0000
1000
0000
,
0001
0000
0010
0000
,
0001
0000
0010
0000
,
0001
0001
1001
0000
,
0100
0010
1000
0000
,
0001
0000
1000
0000
,
0010
0000
0100
0000
,
0001
0001
1001
0000
,
0100
0010
1000
0000
,
0010
0000
1000
0000
,
0100
0000
0010
0001
,
1000
0000
0001
0000
,
0100
0000
0001
0000
,
1000
0000
0100
0000
,
0010
0010
0010
0010
,
0001
0000
1000
0000
,
0010
0000
1000
0000
,
0001
0000
0010
0000
,
0100
0100
0100
0100
,
2000
0000
0000
3000
,
0001
0100
0001
0100
,
0010
0000
1000
0000
,
0001
0010
0100
1000
,
0002
0000
0000
0003
,
0100
0010
0100
0010
,
1000
0000
0001
0000
,
1000
0100
0010
0001
,
1000
0000
0010
0000
,
0200
0000
0000
0300
,
0002
0000
0000
0003
,
1000
0100
1000
0001
,
1000
0000
0010
0000
,
0100
0000
0001
0000
,
1000
1000
0001
0000
,
0100
0100
0100
0000
,
0001
0001
0001
0000
,
1000
1000
1000
0000
,
0100
0100
0010
0100
,
1000
1000
1000
0000
,
0001
0001
0001
0000
,
0100
0100
0100
0000
,
0010
0010
0100
0010
,
1000
0010
1000
0000
,
0001
1000
0001
0000
,
0010
0001
0010
0000
,
0100
0010
0001
1000
,
0010
0100
0001
0000
,
0010
0001
0100
0000
,
0010
1000
0001
0000
,
0100
0010
1000
0001
,
1000
0000
0000
0000
,
0000
0000
0000
0000
;

//---------------dance-single - ----------------
#NOTES:
     dance-single:
     :
     Medium:
     8:
     :
0000
0000
0000
0000
,
0000
0000
0000
0000
,
0000
0000
0000
0000
,
0000
0000
0000
0000
,
0000
0000
0000
0000
,
0002
0010
1000
0013
,
0200
1000
0010
1300
,
0010
0100
0001
0010
,
0100
0100
0100
1000
,
0002
0000
0000
0000
0103
0010
1000
0000
,
0100
1000
1001
0000
,
0001
0100
0010
0000
1000
0000
0001
0000
,
1000
0100
0001
0000
0100
1000
0010
0000
,
2000
0000
0000
0000
3100
0010
0001
0000
,
0100
0001
1001
0000
,
1000
0100
0010
0000
0001
0000
1000
0000
,
0001
0100
1000
0000
0100
0001
0010
0000
,
0100
1000
0100
0000
0010
0000
0100
0000
,
2000
0000
0002
0000
0000
0000
3003
1000
,
0002
0000
2000
0000
0000
0000
3003
0001
,
1000
0100
0010
0001
0000
1000
0001
0000
,
0010
0100
0010
0000
0001
0000
0100
0000
,
0002
0000
2000
0000
0000
0000
3003
0001
,
2000
0000
0002
0000
0000
0000
3003
1000
,
0001
0010
0100
1000
0000
0001
1000
0000
,
0001
1001
1000
1001
,
0010
0100
0010
0000
1000
0001
1000
0000
,
0100
0000
0100
0000
0001
0100
0010
0000
,
0001
0100
0010
1000
,
0001
1001
1000
1001
,
0010
0100
0010
0000
0001
1000
0001
0000
,
0100
0000
0100
0000
1000
0100
0010
0000
,
1000
0100
0010
1001
,
0100
0100
0100
0100
,
0010
1000
0100
0000
0010
0000
0010
0000
,
0001
0100
0010
0000
1000
0000
1000
0000
,
0100
0010
0100
1000
,
0001
0000
0001
0000
0001
0100
1000
0000
,
0100
0000
0100
0000
0100
0010
1000
0000
,
0100
0000
0100
0000
0100
0010
0001
0000
,
2000
0000
0000
0000
0000
3010
0000
0100
,
0002
0000
0000
0000
0000
0013
0000
0100
,
2000
0000
0000
3000
,
0010
0100
1000
0000
0100
0001
0010
0000
,
0200
0000
0000
0000
0000
1300
0000
0001
,
0200
0000
0000
0000
0000
0310
0000
1000
,
0002
0000
0000
0003
,
0010
0001
0010
0000
0100
1000
0100
0000
,
0010
0011
0100
1000
,
0001
1001
0100
0010
,
1000
1010
0100
0001
,
1000
0100
1000
0000
0001
0100
0001
0000
,
0010
0011
0100
1000
,
0010
1010
0100
0001
,
1000
1001
0010
0100
,
0010
1000
0001
1000
,
2002
0000
3003
0000
,
0000
0000
0000
0000
;

//---------------dance-single - ----------------
#NOTES:
     dance-single:
     :
     Hard:
     11:
     :
0000
0000
0000
0000
,
0000
0000
0000
0000
,
0000
0000
0000
0000
,
0000
0000
0000
0000
,
0000
0000
0000
0000
,
0010
1000
0100
0000
0010
0001
0100
0000
,
0010
1000
0100
0000
0010
0001
0100
0000
,
0010
0010
1000
0000
0100
0100
0010
0000
,
0001
1000
0010
0100
0001
0010
0100
0000
,
1000
0010
1000
0001
1000
0010
1000
0001
,
0010
0000
0010
0000
0001
1000
0000
0010
0100
0000
0000
0000
0000
0000
0000
0000
,
0000
0000
0001
0000
0100
0010
0000
0100
0001
0000
0100
0000
0000
0000
0000
0000
,
0010
1000
0100
0000
0010
0001
0100
0000
,
0001
0100
0001
1000
0001
0100
0001
1000
,
0100
0000
0100
0000
1000
0001
0000
0100
0010
0000
0000
0000
0000
0000
0000
0000
,
0000
0000
1000
0000
0010
0100
0000
0010
1000
0000
0010
0000
0000
0000
0000
0000
,
0100
0001
0010
0000
0100
1000
0010
0000
,
0100
1000
0100
1000
0100
0010
0100
0001
,
0010
0001
0010
0001
0010
0100
1000
0001
,
0100
0010
0100
0010
0100
0001
1000
0100
,
0010
0001
1000
1001
,
0100
0001
0100
0001
0100
0010
0100
1000
,
0100
0010
0100
0001
1000
0100
0010
0100
,
1000
0100
0010
0100
0001
0100
0010
0001
,
1000
0001
0100
0110
,
0101
2020
0000
3030
,
0000
0000
0010
0000
0100
0000
0001
0100
0000
0000
0010
0000
0000
0000
0000
0000
,
0000
1000
0100
1000
0001
1000
0000
0010
,
0000
0100
0001
0000
0000
1000
0000
0100
,
1100
0022
0000
0033
,
0000
0000
0010
0000
0100
0000
1000
0100
0000
0000
0010
0000
0000
0000
0000
0000
,
0000
0001
0100
0001
1000
0001
0000
0000
,
0011
1001
0101
0000
,
0010
1000
0010
0100
,
0001
0001
1000
1000
,
0010
0000
0010
0000
1000
0000
1000
0001
,
0100
0010
1000
0100
0000
0010
0100
0000
,
0000
0000
1000
0000
0010
0000
1000
0100
0000
0000
1000
0000
0000
0000
0000
0000
,
0000
0000
0010
0000
0100
0000
0010
1000
0000
0000
0010
0000
0000
0000
0000
0000
,
0000
0000
0100
0000
0010
0000
0100
0001
0000
0000
0100
0000
0000
0000
0010
0000
,
2000
0000
0000
0000
0000
0001
3000
0001
,
0200
0000
0000
0000
0000
0010
0300
0010
,
2000
0000
0000
3000
,
0001
0000
0010
0000
0001
0000
1000
0010
0000
1000
0001
0000
0100
0000
0100
0000
,
0020
0000
0000
0000
0000
1000
0030
0100
,
0002
0000
0000
0000
0000
0010
0003
1000
,
0200
0000
0000
0300
,
0010
0000
0100
0000
0010
0000
0001
1000
0000
0001
0100
0000
0010
0000
0010
0000
,
1000
0000
0010
0000
1000
0010
0000
0100
0001
0000
1000
0000
0000
0000
0100
0000
,
0010
0000
0001
0000
0010
0100
0000
1000
0010
0000
0100
0000
0000
0000
0010
0000
,
0100
0000
1000
0000
0100
0010
0000
1000
0100
0000
0000
0000
0000
0000
0000
0000
,
0010
0000
0001
0000
0010
0000
0100
1000
0000
0100
0010
0000
0001
0000
0100
0000
,
0001
0000
0010
0000
0001
0010
0000
0100
1000
0000
0001
0000
0000
0000
0100
0000
,
0010
0000
1000
0000
0010
0100
0000
0001
0010
0000
0100
0000
0000
0000
0010
0000
,
0100
0000
0001
0000
0100
0010
0000
0001
0100
0000
0000
0000
0000
0000
0000
0000
,
0010
0000
1000
0000
0010
0000
0100
0001
0000
0100
0010
0000
1000
0000
0001
0000
,
2002
0000
3003
0000
,
0000
0000
0000
0000
;

//---------------dance-single - ----------------
#NOTES:
     dance-single:
     :
     Challenge:
     14:
     :
0000
0000
0000
0000
,
0000
0000
0000
0000
,
0000
0000
0000
0000
,
0000
0000
0000
0000
,
0000
0000
0000
0000
,
1001
0000
0010
0000
1000
0000
0100
0000
1000
0000
0010
0000
1000
0000
0100
0010
,
0001
0000
0100
0000
0001
0000
0010
0000
0001
0000
0100
0000
0001
0000
0010
0100
,
1000
0000
0010
0100
0000
0010
0100
0000
0001
0000
0010
0100
0000
0010
0100
0000
,
1000
0000
1000
0000
1000
0001
0000
0001
0100
0000
0100
0000
0100
0010
1000
0001
,
0100
0000
0010
0000
1000
0000
0100
0001
0000
0001
0010
0000
0001
0000
1000
0000
,
0010
0000
1000
0000
0100
0001
0000
0001
0020
0000
0000
0000
0130
1000
0100
0000
,
1000
0000
0001
0000
0010
1000
0000
1000
0100
0000
0010
0000
0001
1000
0001
0000
,
0100
1010
1001
0010
0001
0101
1001
0000
,
0010
0000
1000
0000
0100
0000
1000
0001
0000
0001
0010
0000
0001
0000
0100
0000
,
1000
0000
0010
0000
1000
0001
0000
0001
0200
0000
0000
0000
0310
1000
0010
0000
,
0100
0000
0001
0000
0010
1000
0000
1000
0100
0000
0010
0000
0001
1000
0001
1000
,
0010
1010
1001
0001
0100
0101
1001
0000
,
0110
0000
1000
0000
0010
0000
1000
0100
0000
0100
0010
0000
0001
0000
0100
0000
,
0101
0000
0000
0000
1100
0000
0000
0000
0001
0010
0001
0010
0001
1000
0100
0000
,
1100
0000
0101
0000
0010
1001
0010
0100
,
0001
0000
0001
0000
0001
0000
0100
0000
1000
0000
0010
0000
0010
1000
0001
0000
,
0100
0000
0001
0000
0010
0000
0100
1000
0000
1000
0001
0000
0100
0000
0010
0000
,
1010
0000
0000
0000
0011
0000
0000
0000
1000
0010
1000
0010
0100
0001
1000
0000
,
1100
0000
0000
0000
0011
0000
0100
0001
1000
0000
0110
0000
0000
0000
0001
0000
,
0001
0000
0100
0000
0010
0000
1000
0000
0100
0000
0001
0000
0001
0010
0100
0000
,
1100
0000
0101
0010
1100
0000
0101
0000
,
0010
0000
1000
0000
1000
0000
0100
1000
0000
1000
0002
0000
0000
0000
0103
0000
,
0010
1000
1000
0100
0001
0001
0010
2000
,
0000
3100
0010
0000
0001
0000
0100
0000
0010
0000
1000
0000
0100
0000
0001
0000
,
0011
0000
1010
0100
0011
0000
1010
0000
,
0001
0000
0010
0000
0010
0000
0001
1000
0000
1000
0200
0000
0000
0000
0310
0000
,
0001
0001
0010
0010
1000
1000
0100
0100
,
0010
0000
0010
0000
0100
0000
0100
0000
1000
0000
1000
0000
0001
0010
0100
1000
,
0001
0000
0100
0000
0010
0000
1000
0100
0010
0000
0001
0000
0100
0000
1000
0000
,
0020
0000
1000
0000
1030
0000
0010
0100
0001
0000
0010
0000
0001
1000
0100
0000
,
2000
0000
0001
0000
3001
0000
0010
0001
0100
0000
1000
0000
1000
0000
0010
0000
,
1000
0000
1000
0000
0001
0000
0200
0000
0000
0000
0010
0000
0310
1000
0100
0000
,
0010
0000
0001
0000
0100
0000
0001
1000
0000
0010
0100
0000
0010
1000
0001
0000
,
0010
0000
0100
0000
0010
0000
0001
1000
0000
0010
0100
0000
0001
1000
0100
0000
,
0010
0000
0001
0000
0100
0000
0010
1000
0000
0000
0100
1000
0010
0100
0001
1000
,
0001
0000
0010
0000
0001
0100
0000
0100
0010
0000
1000
0000
0100
0000
0001
0000
,
1000
0000
0010
0000
0001
0100
0000
0100
0010
0000
1000
0100
0000
1000
0001
0000
,
0100
0000
0010
0000
0100
0000
0001
0010
1000
0000
0100
0000
1000
0000
0001
0000
,
0100
0000
0100
0000
0100
0000
0001
0010
0000
1000
0100
0000
1000
0000
0001
0000
,
0010
0000
0001
0000
1000
0010
0000
0010
0100
0000
0001
0000
0010
0000
1000
0000
,
0100
0000
1000
0000
0010
0100
0000
0100
0001
0000
1000
0010
0000
0100
0001
0000
,
0010
0000
0100
0000
1000
0010
0000
0010
0001
0000
0100
0000
0010
0000
1000
0000
,
0001
0000
0001
0000
0001
0000
0010
0100
0000
1000
0001
0000
1000
0000
0100
0000
,
0110
0000
0001
0000
0100
0010
0000
0010
1000
0000
0100
0000
1000
0000
0001
0000
,
0011
0000
0100
0000
1000
0010
0000
0100
0010
0000
1000
0001
0000
0001
0100
0000
,
1010
0000
1000
0000
0100
0010
0001
0000
1000
0001
0100
0000
0010
0000
1000
0000
,
0001
0000
0001
0000
0001
0000
1000
0010
0000
0100
0001
0000
1000
0100
0010
0000
,
1100
0000
0001
0000
1000
0010
0000
0010
0100
0000
0001
0000
0010
0000
1000
0000
,
0101
0000
0010
0000
0100
0001
0000
0001
1000
0000
0100
1000
0000
0010
0100
0000
,
1001
0000
0010
0000
1000
0100
0000
1000
0010
0100
0001
0000
1000
0000
0100
0000
,
0010
0000
0010
0000
0010
0000
0001
1000
0000
0010
0100
0000
0100
0000
0110
0000
,
2002
0000
0000
3003
;

//---------------dance-double - ----------------
#NOTES:
     dance-double:
     :
     Easy:
     5:
     :
00000000
00000000
00000000
00000000
,
00000000
00000000
00000000
00000000
,
00000000
00000000
00000000
00000000
,
00000000
00000000
00000000
00000000
,
00000000
00000000
00000000
00000000
,
10010000
00000000
00000000
00000000
,
01000000
00000000
00000000
00000000
,
00001000
00000000
00000000
00000000
,
00010000
00000000
00000000
00011000
,
00010000
00000000
00000010
00000000
,
00001000
00000000
00001001
00000000
,
00000010
00000010
00001000
00000000
,
00000100
00000100
00010000
00000000
,
00001000
00000000
01000000
00000000
,
00010000
00000000
10010000
00000000
,
00001000
00001000
00010000
00000000
,
00000010
00000000
00001000
00000000
,
00000100
00000000
00010000
00000000
,
00002000
00000000
00000000
00003000
,
00010000
00000000
00010000
00000000
,
00001000
00010000
00001000
00010000
,
00001000
00000000
00100000
00000000
,
00020000
00000000
00000000
00030000
,
10000000
00000000
10000000
00000000
,
00010000
01000000
00100000
01000000
,
00020000
00000000
00000000
00030000
,
00100000
00010000
10000000
00010000
,
01000000
00100000
01000000
00010000
,
00100000
00000000
00000000
00000000
,
00002000
00000000
00000000
00003000
,
00010000
00000010
00001000
00000100
,
00001000
00000001
00001000
00000100
,
00010000
00010000
00010000
00000000
,
00011000
00000000
01000000
00000000
,
00100000
00000000
10000000
00000000
,
00010000
00000000
00100000
00000000
,
00001000
00010000
00001000
00010000
,
00000010
00000000
00000010
00000010
,
00001000
00000000
00001000
00001000
,
00000001
00000000
00000001
00000001
,
00001001
00000000
00000000
00000000
,
00011000
00000000
00000000
00000000
,
10010000
00000000
00000000
00000000
,
00100000
01000000
00100000
01000000
,
10010000
00000000
00000000
00000000
,
00011000
00000000
00000000
00000000
,
00001001
00000000
00000000
00000000
,
00001000
00000100
00001000
00000100
,
00000010
00000010
00000010
00000000
,
00000001
00000001
00000001
00000000
,
00001000
00001000
00001000
00000000
,
00000010
00001000
00000001
00000100
,
00000010
00000010
00000010
00000000
,
00010000
00010000
00010000
00000000
,
00001000
00001000
00001000
00000000
,
00010000
00001000
00010000
00001000
,
00011000
00000000
00000000
00000000
,
00000000
00000000
00000000
00000000
;

//---------------dance-double - ----------------
#NOTES:
     dance-double:
     :
     Medium:
     7:
     :
00000000
00000000
00000000
00000000
,
00000000
00000000
00000000
00000000
,
00000000
00000000
00000000
00000000
,
00000000
00000000
00000000
00000000
,
00000000
00000000
00000000
00000000
,
00011000
00011000
00000100
00010000
,
00011000
00011000
01000000
00001000
,
00100000
00001000
00010000
00001000
,
00000100
00001000
00010000
00001000
,
00100000
00010000
00100000
00000000
01000000
00000000
10000000
00000000
,
11000000
11000000
10010000
00000000
,
00001000
00010000
00001000
00000000
00000100
00001000
00000100
00000000
,
00000001
00000100
00000001
00000000
00000010
00000001
00000010
00000000
,
00000100
00001000
00000100
00000000
00100000
00000000
00010000
00000000
,
00110000
00110000
10010000
00000000
,
00100000
10000000
00100000
00000000
01000000
00010000
01000000
00000000
,
00001000
00010000
00001000
00000000
00000100
00001000
00000100
00000000
,
00000010
00000010
00000010
00000010
,
00010000
00010000
00010000
00010000
,
00001000
00001000
00001000
00001000
,
00100000
00010000
01000000
00100000
00000000
10000000
01000000
00000000
,
00100000
00100000
00100000
00100000
,
00001000
00001000
00001000
00001000
,
00010000
00010000
00010000
00010000
,
00000010
00001000
00000001
00000100
00000000
00000010
00001000
00000000
,
00000010
00011000
01000000
01010000
,
00200000
00000000
00300000
00000000
00001000
00010000
00001000
00000000
,
00000200
00000000
00000300
00000000
00000001
00001000
00000001
00000000
,
00000020
00000000
00000030
00000000
00000100
00010000
00000100
00000000
,
00010000
00011000
10000000
10010000
,
00200000
00000000
00300000
00000000
01000000
10000000
01000000
00000000
,
00002000
00000000
00003000
00000000
00010000
00001000
00010000
00000000
,
00001010
00001001
00001010
00000000
,
00000100
00000100
00000100
00000100
,
00000010
00010000
00001000
00000000
00100000
01000000
10000000
00000000
,
00100000
01000000
10000000
00000000
01000000
00001000
00010000
00000000
,
00011000
00011000
00001010
00000101
,
00000010
00000010
00000010
00000010
,
00010000
00010000
00010000
00010000
,
01000000
01000000
01000000
01000000
,
01100000
01100000
10010000
01000000
,
00011000
00011000
00001010
00000100
,
00001001
00001001
00001100
00010000
,
00001000
00000000
01000000
00000000
,
01010000
01010000
01000000
00001000
,
00011000
00011000
00000100
00001000
,
00001001
00001001
00000100
00000010
,
00010000
00010000
00001000
01000000
,
01010000
01100000
11000000
01000000
,
01100000
01010000
01001000
00010000
,
00001010
00001001
00001100
00000010
,
00000110
00001100
00010100
00001000
,
00110000
10010000
00110000
01000000
,
11000000
10010000
11000000
00100000
,
00011000
00101000
00011000
00000100
,
00001000
00000010
00010000
00001000
,
00022000
00000000
00033000
00000000
,
00000000
00000000
00000000
00000000
;

//---------------dance-double - ----------------
#NOTES:
     dance-double:
     :
     Hard:
     11:
     :
00000000
00000000
00000000
00000000
,
00000000
00000000
00000000
00000000
,
00000000
00000000
00000000
00000000
,
00000000
00000000
00000000
00000000
,
00000000
00000000
00000000
00000000
,
20020000
00000000
30030000
00000000
00100000
00001000
00010000
00000000
,
00022000
00000000
00033000
00000000
00000100
00001000
00000001
00000000
,
00002002
00000000
00003003
00000000
00000010
00010000
00001000
00000000
,
00022000
00033000
00011000
00011000
,
00200000
00000000
00010000
01300000
,
10000000
00100000
01000000
00000000
00010000
00000000
00010000
00000000
,
00100000
00000000
00001000
00000000
00010000
00000010
00000000
00000100
00001000
00000000
00000100
00000000
00000000
00000000
00000000
00000000
,
00000010
00001000
00000100
00000000
00000010
00000001
00001000
00000000
,
00000020
00000000
00001000
00000130
,
00000010
00010000
00001000
00000000
01000000
00000000
01000000
00000000
,
00100000
00000000
10000000
00000000
00010000
00100000
00000000
01000000
10000000
00000000
01000000
00000000
00000000
00000000
00000000
00000000
,
00100000
00010000
01000000
00000000
00100000
10000000
00010000
00000000
,
00100000
00001000
00100000
00010000
00100000
00001000
00100000
00010000
,
01000000
00000000
00000000
00000000
00001000
00000000
00000000
00000000
00010000
00001000
00000000
00010000
00000100
00000000
00000000
00000000
,
00000010
00000000
00000000
00000000
00000001
00000000
00000000
00000000
00001000
00000010
00000000
00010000
00001000
00000000
00000000
00000000
,
01000000
00100000
10000000
01000000
00000000
00100000
00010000
00000000
,
01000000
00001000
01000000
00010000
01000000
00001000
01000000
00010000
,
00100000
00000000
00000000
00000000
00001000
00000000
00000000
00000000
00010000
00001000
00000000
00010000
00000010
00000000
00000000
00000000
,
00000100
00000000
00000000
00000000
00000001
00000000
00000000
00000000
00001000
00000100
00000000
00010000
00001000
00000000
00000000
00000000
,
00100000
01000000
10000000
00100000
00000000
01000000
00010000
00000000
,
10000000
00100000
10000000
00010000
10000000
00100000
10000000
00010000
,
01000000
01000000
00001000
00010000
00001000
00000100
00000001
00000010
,
00000100
00010000
00001000
00100000
01000000
10000000
00100000
01000000
,
00001000
00001000
00010000
00000000
00000000
00000000
00000010
00000010
,
00001000
00000100
00001000
00000001
00001000
00000100
00001000
00000001
,
00000100
00000100
00000010
00010000
00001000
01000000
00100000
10000000
,
01000000
00100000
00001000
00010000
00000010
00001000
00000100
00010000
,
00001000
00001000
01000000
00000000
00010000
00000000
00000000
00000000
,
10010000
00000000
10100000
00000000
01000000
00001000
00010000
00000000
,
00011000
00000000
00000000
00000000
00001010
00000000
00000010
00001000
00000001
00000000
00000001
00000000
00000001
00000000
00001000
00000000
,
00000010
00000000
00011000
00000000
01000000
00000000
01000000
00100000
,
10000000
01000000
00100000
00010000
00000000
10000000
10000000
00000000
,
00020000
00000000
00000000
00000000
01000000
01000000
01030000
00000000
,
00000020
00000000
00000000
00000000
00001000
00001000
00001030
00000000
,
00000002
00000000
00000000
00000000
00000010
00000010
00000013
00000000
,
00001001
00000000
00000000
00000000
,
00000010
00000000
00001000
00000000
00000100
00010000
00000000
00001000
01000000
00000000
00100000
00000000
00000000
00000000
10000000
00000000
,
00100000
00000000
01000000
00000000
00010000
01000000
00000000
00100000
10000000
00000000
00000000
00000000
00000000
00000000
00000000
00000000
,
01000000
00100000
00010000
00000000
10000000
00100000
01000000
00000000
,
00100000
00000000
10000000
00000000
00010000
01000000
00000000
00001000
00010000
00000000
00000010
00000000
00000000
00000000
00001000
00000000
,
00000100
00000000
00000010
00000000
00000100
00001000
00000000
00000001
00000100
00000000
00000010
00000000
00000000
00000000
00010000
00000000
,
00001000
00000000
00010000
00000000
00001000
01000000
00000000
00010000
01000000
00000000
00000000
00000000
00000000
00000000
00000000
00000000
,
00100000
10000000
01000000
00000000
00100000
00010000
01000000
00000000
,
00001000
00000000
00010000
00000000
00000010
00001000
00000000
00000001
00001000
00000000
00000100
00000000
00000000
00000000
00000010
00000000
,
00000100
00000000
00001000
00000000
00000010
00010000
00000000
00001000
00100000
00000000
01000000
00000000
00000000
00000000
10000000
00000000
,
01000000
00000000
00100000
00000000
00010000
00100000
00000000
01000000
10000000
00000000
00000000
00000000
00000000
00000000
00000000
00000000
,
00100000
01000000
00010000
00000000
10000000
01000000
00100000
00000000
,
01000000
00000000
10000000
00000000
00010000
00100000
00000000
00001000
00010000
00000000
00000100
00000000
00000000
00000000
00001000
00000000
,
00000010
00000000
00000100
00000000
00000010
00001000
00000000
00000001
00000010
00000000
00000100
00000000
00000000
00000000
00010000
00000000
,
00001000
00000000
00010000
00000000
00001000
00100000
00000000
00010000
00100000
00000000
00000000
00000000
00000000
00000000
00000000
00000000
,
01000000
10000000
00100000
00000000
01000000
00010000
10000000
10000000
,
20020000
00000000
30030000
00000000
,
00000000
00000000
00000000
00000000
;
