#TITLE:I Drove All Night;
#ARTIST:Celine Dion;
#BANNER:I Drove All Night-bn.png;
#BACKGROUND:I Drove All Night-bg.png;
#JACKET:I Drove All Night-jacket.png;
#MUSIC:I Drove All Night.ogg;
#SAMPLESTART:93.111;
#SAMPLELENGTH:20;
#DISPLAYBPM:135;
#BPMS:0=135;
#STOPS:39.75=0.889;
#BGCHANGES:;

//---------------dance-single - ----------------
#NOTES:
     dance-single:
     :
     Beginner:
     2:
     :
0000
0000
0000
0000
,
0000
0000
0000
0000
,
0000
0000
0000
0000
,
0000
0000
0000
0000
,
1001
0000
0000
0000
,
0001
0000
0000
0000
,
0010
0000
0000
0000
,
0001
0000
0000
0000
,
0100
0000
0000
0000
,
1000
0000
0001
0000
,
1001
0000
0010
0000
,
0100
0000
0001
0000
,
1000
1000
1000
1000
,
0000
0000
0000
0000
,
0010
0000
1000
0000
,
0100
0000
1000
0000
,
0001
0000
0001
0000
,
0110
0000
0000
0000
,
0010
0010
0010
0000
,
0100
0100
0100
0000
,
0001
0000
1000
0000
,
0110
0000
0000
0000
,
0001
0000
0001
0000
,
0100
0000
0100
0000
,
1000
0000
1000
0000
,
0010
0000
0010
0000
,
0110
0000
0000
0000
,
0000
0000
0000
0000
,
1001
0000
0000
0000
,
0000
0000
0001
0000
,
1001
0000
0000
0000
,
0100
0000
0010
0000
,
1000
0000
0001
0000
,
0001
0000
0100
0000
,
0001
0000
0000
0000
,
0000
0000
0010
0000
,
0110
0000
0000
0000
,
0010
0000
1000
0000
,
0100
0000
1000
0000
,
0001
0000
0100
0000
,
0010
0000
0000
0000
,
0000
0000
1000
0000
,
1000
0000
0000
0000
,
0000
0000
0001
0001
,
0001
0000
0000
0000
,
0000
0000
0100
0000
,
1001
0000
0000
0000
,
0010
0000
0000
0000
,
1000
0000
0000
0000
,
0001
0000
0000
0000
,
0100
0000
0000
0000
,
0010
0000
0100
0000
,
0001
0000
0001
0000
,
1000
0000
1000
0000
,
0100
0000
0100
0000
,
0010
0000
0010
0000
,
0110
0000
0000
0000
,
1001
0000
0000
0000
,
0110
0000
0000
0000
,
0000
0000
0001
0000
,
1001
0000
0000
0000
,
0100
0000
0001
0000
,
1000
0000
1000
0000
,
0100
0000
1000
0000
,
0001
0000
0000
0000
,
0000
0000
0010
0000
,
0110
0000
0000
0000
,
0001
0000
0100
0000
,
0010
0000
0100
0000
,
0100
0000
1000
0000
,
0001
0000
0000
0000
,
0010
0000
0001
0000
,
1001
0000
0000
0000
;

//---------------dance-single - ----------------
#NOTES:
     dance-single:
     :
     Easy:
     6:
     :
0000
0000
0000
0000
,
0000
0000
0000
0000
,
0000
0000
0000
0000
,
0000
0000
0000
0000
,
1001
0010
1000
0100
,
1000
0010
0001
0100
,
0001
0010
0001
1000
,
0010
1000
0100
0010
,
0001
0100
0001
0010
,
1000
0100
1000
0001
,
1001
0000
0010
1000
,
0001
0000
0010
0001
,
0100
0100
0010
1000
,
0001
0001
1000
1000
,
0010
1000
0010
0100
,
0001
0010
0001
1000
,
0010
0010
1000
0001
,
0220
0000
0330
0001
,
1000
0010
0200
0300
,
0001
0001
2000
3000
,
2020
3030
0202
0303
,
2200
0000
0000
3300
,
1000
1000
0001
0001
,
0010
0001
0200
0300
,
0001
0001
1000
1000
,
0100
0100
0010
0010
,
0022
0000
0000
0030
,
1000
0100
1000
0103
,
2100
0001
0001
0001
,
0001
3001
2000
3010
,
2001
0010
0010
0010
,
0002
3003
0200
0300
,
0020
0030
1000
0100
,
2200
3300
0001
0100
,
0002
0000
2000
3003
,
0010
0010
2000
3001
,
1002
0010
0010
0010
,
2000
3003
0010
0100
,
0001
0000
0100
0001
,
0101
1000
1000
0001
,
0011
0000
0100
0000
,
1000
0010
0100
0100
,
0002
0000
2000
3003
,
0010
1000
0001
0100
,
0001
1000
1000
0001
,
0100
0100
1001
0110
,
2002
0000
0000
0000
,
0000
0000
0000
3003
,
0020
1000
0100
1030
,
0002
0010
0100
0013
,
2000
0100
0001
3100
,
2010
0001
0100
3001
,
0010
0010
0001
0001
,
1000
0001
0200
0300
,
0001
0001
1000
1000
,
0100
1000
0020
0030
,
2020
0000
0000
3030
,
0022
0000
0000
0033
,
1200
1000
1000
1300
,
0001
1000
0020
0130
,
2001
0010
0010
0010
,
0002
3003
0020
0030
,
0200
0300
1000
0010
,
2020
3030
0001
0100
,
0002
0000
2000
3003
,
0010
1000
0002
0103
,
1002
0010
0010
0010
,
2000
3003
0010
1000
,
0001
0000
0001
0010
,
0011
0000
1000
0100
,
0001
0001
1000
1000
,
0010
0010
1001
0110
,
2002
0000
0000
0000
,
0000
0000
0000
0000
,
0000
0000
0000
0000
,
0000
0000
0000
0000
,
0000
0000
0000
0000
,
0000
0000
0000
3003
;

//---------------dance-single - ----------------
#NOTES:
     dance-single:
     :
     Medium:
     8:
     :
0000
0000
0000
0000
,
0000
0000
0000
0000
,
0000
0000
0000
0000
,
0000
0000
0000
0000
,
1001
0000
0000
0000
0000
0010
1000
0200
,
0000
0000
0000
0000
0000
1300
0001
0020
,
0000
0000
0000
0000
0000
0130
0010
0002
,
0000
0000
0000
0000
0000
0103
0001
2000
,
0000
0000
0000
0000
0000
3000
0000
1100
,
0000
0101
0000
1000
0000
0001
0000
0100
,
1001
0000
0000
0010
1000
0100
1000
0001
,
0000
0000
0000
0010
0001
0100
1000
0000
,
0010
1000
0001
0000
0101
0000
1100
0000
,
0000
0000
0000
0000
,
0010
1000
0010
0100
0000
0100
0000
0000
,
0110
0000
0001
1000
0000
0010
1000
0100
,
1000
0001
0000
0100
0010
0000
1000
0002
,
0200
0000
0000
0000
0303
0000
0010
1000
,
0100
1000
0010
0100
0002
0000
0003
0010
,
0002
0000
2003
0000
3020
0000
0030
1000
,
0002
0000
0003
0010
0200
0000
0300
0000
,
0220
0000
0000
0000
0000
0000
0330
0001
,
1000
0000
0000
1000
0000
0000
1000
0000
0010
0000
0000
0010
0000
0000
0010
0000
,
0100
0000
0000
0100
0000
0000
0100
0000
0002
0000
0000
0000
0003
0000
0010
0000
,
0001
0000
0000
0001
0000
0000
0001
0000
0100
0000
0000
0100
0000
0000
0100
0000
,
1000
0000
0000
1000
0000
0000
1000
0000
0010
0000
0000
0010
0000
0000
0010
0000
,
0200
0001
0001
0001
,
1000
1000
1000
1300
,
0202
0000
0000
0303
,
1000
0001
0100
0010
2000
0000
3001
0000
,
2002
0000
0000
0000
0000
0000
0000
0000
0000
0000
0000
0000
3003
0000
1000
0100
,
2000
0000
3000
0010
0200
0000
0300
0001
,
0020
0000
0000
0000
0030
0000
0000
0000
0001
0000
0000
0001
0000
0000
0001
0000
,
2000
0000
3000
0010
2000
0000
3200
0000
,
0301
0101
1000
1100
,
0001
1000
0010
0100
0002
0000
1003
0000
,
2002
0000
0000
0000
0000
0000
0000
0000
0000
0000
0000
0000
3003
0000
0001
0100
,
0002
0000
0000
0000
0003
0000
0000
0000
0010
0000
0000
0001
0000
0000
0100
0000
,
2000
0000
0000
0000
3000
0000
0000
0000
0010
0000
0000
0010
0000
0000
0010
0000
,
0200
0000
0301
1000
0001
0000
0011
0000
,
1100
0000
0000
0001
0000
0100
0000
0010
,
0000
0000
1000
0000
0000
0100
0000
0000
1000
0000
0000
0100
0000
0000
1000
0000
,
0002
0103
2000
3100
,
0010
0000
0010
1000
0200
0000
2300
0000
,
3001
0010
0010
0010
,
0010
0000
0010
0001
0200
0000
0310
0000
,
1002
0010
0100
0010
,
1000
1000
0100
0100
,
1003
0020
0000
0100
0000
0130
0001
0000
,
0022
0000
0000
0033
0000
2000
0000
3020
,
0000
0230
0000
0000
0000
0000
0300
0000
,
2010
0000
0001
0000
0001
0000
3001
1000
,
0020
0000
0030
1000
0200
0000
0300
0010
,
0002
0000
0003
0100
0020
0000
0030
1000
,
0001
0000
0000
0001
0000
0000
0001
0000
0100
0000
0000
0100
0000
0000
0100
0000
,
1000
0000
0000
1000
0000
0000
1000
0000
0020
0000
0000
0000
0030
0000
1000
0000
,
0002
0010
1000
0103
,
0022
0000
0000
0033
,
2020
0000
0000
3030
,
1000
0001
0100
0010
2000
0000
3001
0000
,
2002
0000
0000
0000
0000
0000
0000
0000
0000
0000
0000
0000
3003
0000
0001
0010
,
0002
0000
0003
0010
0200
0000
0300
1000
,
0002
0000
0000
0000
0003
0000
0000
0000
0100
0000
0000
0100
0000
0000
0100
0000
,
0020
0000
0030
1000
0020
0000
0230
0000
,
0301
0101
1000
1100
,
0001
1000
0010
0100
0002
0000
1003
0000
,
2002
0000
0000
0000
3003
0010
1000
0002
,
0200
0000
0000
0000
0303
0000
0000
0000
0001
0000
0000
1000
0000
0000
0020
0000
,
0000
0000
0130
0000
0000
0000
0000
0000
1000
0000
0000
1000
0000
0000
1000
0000
,
0002
0000
0003
0100
0020
0000
2030
0000
,
3001
0010
0010
0010
,
0020
0000
0030
0001
2000
0000
3100
0000
,
2002
0000
0000
0000
,
0000
0000
0000
0000
,
0000
0000
0000
0000
,
0000
0000
0000
0000
,
0000
0000
0000
0000
,
0000
0000
0000
3003
;

//---------------dance-single - ----------------
#NOTES:
     dance-single:
     :
     Hard:
     10:
     :
0000
0000
0000
0000
,
0000
0000
0000
0000
,
0000
0000
0000
0000
,
0000
0000
0000
0000
,
1001
0000
0010
1000
0000
0001
0100
0020
,
0000
0000
0000
0000
0000
1030
0001
0200
,
0000
0000
0000
0000
0000
0310
0100
0002
,
0000
0000
0000
0000
0000
0103
0010
2000
,
0000
0000
0001
0000
0100
0000
3001
0100
,
0000
0010
1000
0001
0000
0010
0001
0100
,
1001
0000
0000
0010
1000
0100
1000
0001
,
0000
0000
0000
0010
0001
0100
1000
0000
,
0010
1000
0001
0000
0101
0000
1100
0000
,
0001
0101
1000
1100
,
0010
1000
0010
0100
0000
0100
0001
0000
,
0011
0000
0001
1000
0000
0010
1000
0100
,
1000
0001
0000
0100
0010
0000
1000
0100
,
0010
0000
0001
1000
0000
0001
0100
0010
,
1000
0000
0001
0100
0001
0000
1000
0000
0020
0000
0000
0000
0030
0000
0100
0000
,
0002
0000
2003
0000
3002
0000
0013
0100
,
2000
0000
3000
0001
0200
0000
0300
0000
,
0210
0000
0001
0000
1000
0000
0301
0100
,
0010
0000
0000
0010
0000
0000
0010
0000
1000
0000
0000
0100
0000
0000
1000
0000
,
0001
0000
0000
0010
0000
0000
0001
0000
0200
0000
0000
0000
0300
0000
0010
0000
,
0100
0000
0000
0001
0000
0000
1000
0000
0100
0000
0000
1000
0000
0000
0001
0000
,
0100
0000
0000
0100
0000
0000
0100
0000
0010
0000
0000
1000
0000
0000
0001
0000
,
0200
0000
0000
0000
0010
0000
0000
0000
1000
0000
0000
0000
0301
0000
0000
1000
,
0020
0000
0000
0000
0100
0000
0000
0000
0001
0000
0000
0000
1030
0000
0000
0010
,
2000
0100
0001
3100
,
0010
0000
0100
0001
0100
0000
0010
0000
2000
0000
0000
0000
3001
0000
0000
0000
,
1002
0000
0000
0000
0010
0000
0000
0000
1000
0000
0000
0000
0103
0000
1000
0001
,
2000
0000
3010
0100
0002
0000
1003
0001
,
0200
0000
0000
0000
0300
0000
0000
0000
0010
0000
0000
1000
0000
0000
0001
0000
,
0200
0000
0300
0001
0010
0100
1000
0000
,
0001
0000
0000
0000
0100
0000
0000
0000
1000
0000
0000
0000
0100
0000
0000
0010
,
0001
1000
0001
0100
0020
0000
1030
0000
,
0210
0000
0000
0000
1000
0000
0000
0000
0001
0000
0000
0000
0310
0000
1000
0100
,
2000
0000
0000
0000
3001
0000
0000
0000
0010
0000
0000
0001
0000
0000
0100
0000
,
2000
0000
0000
0000
3000
0000
0000
0000
0010
0000
0000
1000
0000
0000
0001
0000
,
0200
0000
0310
1000
0001
0000
0011
0000
,
1100
0000
0001
0100
0000
0010
1000
0100
,
0000
0000
2000
0000
0000
3002
0000
0000
0023
0000
0000
0230
0000
0000
1300
0000
,
0010
0000
0000
0000
0101
0000
0000
0001
1000
0000
0000
0000
1100
0000
0000
0001
,
0100
0000
0010
1000
0020
0000
0230
0000
,
0301
0101
1100
0101
,
1010
0000
0001
1000
0020
0000
0130
0000
,
1001
0000
0000
0000
0010
0000
0000
1000
0010
0000
0100
0000
0001
0000
0000
0010
,
0001
0000
0000
0000
0110
0000
0000
0001
1000
0000
0000
0000
0101
0000
0000
0010
,
1000
0100
1000
0001
0000
0100
0010
0000
,
1000
0000
0001
0000
0010
0000
0100
0000
0000
0000
2000
0000
0000
3002
0000
0000
,
0013
0000
0002
0000
0000
0000
0100
0000
0000
0000
1000
0000
1003
0000
0000
0010
,
0100
0000
0110
0000
1001
0000
0010
0100
,
0002
0000
0000
1000
2003
0000
0000
0010
,
3010
0000
0000
0100
0000
0000
0002
0000
2000
0000
0000
0000
3003
0000
0100
0000
,
1000
0000
0000
1000
0000
0000
1000
0000
0001
0000
0000
0001
0000
0000
0001
0000
,
0100
0000
0000
0100
0000
0000
0100
0000
0020
0000
0000
0000
0030
0000
1000
0000
,
0002
0010
1000
0103
,
0021
1000
0001
0130
,
1200
0001
1000
0001
,
0310
0100
0010
0001
2000
0000
3100
0000
,
1002
0000
0000
0000
0010
0000
0000
0000
1000
0000
0000
0000
0103
0000
1000
0001
,
2000
0000
3010
0100
0002
0000
1003
0001
,
0200
0000
0000
0000
0300
0000
0000
0000
0010
0000
0000
1000
0000
0000
0001
0000
,
0200
0000
0300
0001
0010
0100
1000
0000
,
0001
0000
0000
0000
1010
0000
0000
0010
0100
0000
0000
0000
0101
0000
0000
0001
,
1000
0100
1000
0001
0002
0000
0103
0000
,
0210
0000
0010
0000
0310
1000
0001
0100
,
0010
0000
1000
0000
0001
0000
0000
0000
0010
0000
0000
0001
0000
0000
0200
0000
,
0000
0000
0310
0000
1000
0000
0000
0000
0010
0000
0000
1000
0000
0000
0001
0000
,
0200
0000
0301
0010
2000
0000
3200
0000
,
0301
1100
0011
0101
,
0010
0000
0010
0000
0010
0000
2000
0000
0000
3001
0000
0000
,
2002
0000
0000
0000
,
0000
0000
0000
0000
,
0000
0000
0000
0000
,
0000
0000
0000
0000
,
0000
0000
0000
0000
,
0000
0000
0000
3003
;

//---------------dance-single - ----------------
#NOTES:
     dance-single:
     :
     Challenge:
     12:
     :
0000
0000
0000
0000
,
0000
0000
0000
0000
,
0000
0000
0000
0000
,
0000
0000
0000
0000
,
1001
0000
0001
0000
0100
0000
0010
0000
0000
0000
0010
0000
1000
0000
0100
0010
,
0100
0000
1000
0000
0001
0000
0100
0000
0000
0000
0100
0000
0001
0000
1000
0010
,
1000
0000
0001
0000
0010
0000
0100
0000
0000
0000
0100
0000
1000
0000
0001
0010
,
0001
0000
0100
0000
0010
0000
1000
0000
0000
0000
1000
0000
0010
0000
0100
0001
,
0100
0000
0010
0000
1000
0000
0001
0000
0000
0000
0001
0000
0010
0000
0001
1000
,
0001
0100
0010
1000
0000
1000
0100
0001
,
1001
0000
0000
0000
0101
0000
0010
0000
1000
0000
0100
0000
1000
0000
0001
0100
,
0001
0000
0010
0001
1000
0100
1000
0000
,
1100
0000
0001
0000
0100
0000
0010
0000
1000
0000
0100
0000
0001
0000
0000
0010
,
0001
0000
0100
0000
0010
0000
0000
1000
0100
0000
0010
0000
0001
0000
0000
0000
,
0100
0000
0001
0000
0100
0000
1000
0000
0000
0000
0010
0000
0100
0000
0001
1000
,
0001
0000
0010
0000
0100
0000
1000
0000
0000
0000
0001
0000
1000
0000
0100
0010
,
0100
0000
1000
0000
0000
0000
0001
0000
0100
0000
0010
0000
0100
0000
0001
1000
,
0001
0000
0000
0010
0001
0000
0100
0000
0000
0010
1000
0000
0001
0000
1000
0000
,
0010
0000
1000
0100
1000
0000
0001
0000
0001
0000
0100
0000
0010
0000
1000
0100
,
1000
0000
0010
0000
0001
0000
0010
1000
0020
0000
0100
0000
0130
0000
0001
0000
,
2000
0000
0000
0000
3010
0000
0100
0000
1010
0000
0000
0000
0001
0000
0100
0010
,
0200
0000
0001
0000
0301
0000
0000
0010
0001
0000
0000
1000
0100
0000
0000
1000
,
0010
0000
0000
0100
0000
0000
0001
0000
1000
0000
0000
0100
0000
0000
1000
0000
,
0010
0000
0000
1000
0000
0000
0001
0000
0100
0000
0000
0000
0010
0000
1000
0000
,
1100
0000
0000
1000
0000
0000
0001
0000
0010
0000
0000
0001
0000
0000
0100
0000
,
1000
0000
0000
0001
0000
0000
1000
0000
0010
0000
0000
0100
0000
0000
0001
0000
,
0010
0000
0001
0000
0100
0000
0010
0000
1000
0000
0100
0000
0001
0000
0000
0001
,
0010
0000
0100
0000
1000
0000
0000
0010
1000
0000
0001
0000
0100
0000
0000
0010
,
0100
0000
0001
0000
0010
0000
0100
0000
1000
0000
0010
0000
0100
0000
0001
1000
,
0001
0000
0010
0100
0010
0000
0001
0000
2000
0000
0100
0000
3100
0000
0000
0000
,
1001
0000
0010
0000
1000
0000
0200
0000
0000
0000
1300
0000
0001
0000
0100
0010
,
0100
0001
0010
0001
2000
0100
3100
0010
,
0001
0000
0100
0000
0100
0000
0000
0000
1010
0000
0000
0101
0000
0000
0011
0000
,
1100
0001
0100
0010
2000
0100
3200
0000
,
0301
0000
0100
0000
1000
0000
0001
0010
0001
0000
0100
0000
0010
0000
1000
0100
,
1000
0001
0100
0010
0200
0001
0301
0000
,
1001
0000
0010
0000
1000
0000
0100
0000
1000
0000
0010
0000
0100
0000
0001
1000
,
0002
0000
0010
0000
0013
0000
0000
0000
0001
0000
0000
1000
0000
0000
0010
0000
,
0100
0000
0001
0000
1000
0000
0000
0000
1100
0000
0000
0011
0000
0000
0101
0000
,
1010
0000
0001
0001
0001
1000
0100
0000
,
0110
0000
0001
0000
1000
0000
0010
0000
0000
0000
0010
0000
1000
0000
0001
0100
,
0001
0000
0020
0000
0000
0230
0000
0000
2300
0000
0000
3002
0000
0000
1003
0100
,
1000
0000
0010
0000
0100
0000
0001
0000
0000
0000
0010
0000
0001
0000
1000
0100
,
1000
0010
0100
0001
0010
0100
1000
0000
,
0001
0000
0100
0000
0010
0000
0000
0010
1000
0000
0000
1000
0100
0000
0000
0100
,
0010
0000
0000
0010
0001
0000
0100
0000
0002
0000
1000
0000
1003
0000
0000
0000
,
1001
0000
0010
0000
1000
0000
0100
0000
0001
0000
0100
0000
1000
0000
0001
0010
,
0001
0000
0100
0000
0010
0000
1000
0000
0100
0000
0010
0000
0001
0000
0000
0100
,
0010
0000
1000
0000
0010
0000
0100
0000
0000
0000
0001
0000
1000
0000
0001
0100
,
0001
0000
0010
0000
0100
0000
1000
0000
0010
0000
0200
0000
0000
0302
0000
0000
,
1003
0000
0020
0000
0000
0000
0130
0001
0100
0000
0010
0000
1000
0000
0001
0010
,
0001
0000
0100
0000
0010
0000
0000
1000
0001
0000
0000
0010
0100
0000
1000
0000
,
0001
0000
0000
0010
0000
0000
0100
0000
1000
0000
0000
0001
0000
0000
1000
0000
,
0010
0000
0000
0100
0000
0000
0002
0000
2000
0000
0000
0000
3003
0000
0010
0000
,
1000
0000
0000
1000
0010
0000
0000
0010
0100
0000
0000
0100
0001
0000
0000
0001
,
1000
0000
0000
0001
0000
0000
0100
0000
0010
0000
0000
0000
1000
0000
0001
0000
,
0011
0000
0000
0001
0100
0000
0000
0010
1000
0000
0000
0100
1000
0000
0001
0000
,
2000
0000
0010
0000
3010
0000
0000
0100
0002
0000
1000
0000
1003
0000
0000
0000
,
1010
0000
0000
0000
0001
0000
0000
1000
0010
0000
0000
0100
0001
0000
0000
0010
,
0001
0000
0100
0010
0100
0000
0001
0000
2000
0000
0100
0000
3100
0000
0000
0000
,
0110
0000
0001
0000
1000
0000
0010
0000
0100
0000
1000
0000
0100
0000
0001
0010
,
0100
1000
0001
0100
0020
1000
1030
0001
,
0100
0000
0010
0000
0010
0000
0000
0000
1010
0000
0000
1100
0000
0000
0011
0000
,
0101
1000
0100
1000
0020
0100
0230
0000
,
0301
0000
0010
0000
1000
0000
0000
0100
1000
0000
0001
0000
0100
0000
0000
0010
,
1000
0100
1000
0001
0200
0010
0310
0000
,
0110
0001
0010
0100
1000
0010
0100
0001
,
1000
0000
0010
0000
1000
0000
0001
0000
0100
0000
0000
0010
0000
0000
1000
0000
,
0001
0000
0100
0000
0010
0000
0000
0000
0101
0000
0000
1010
0000
0000
1100
0000
,
0011
1000
0001
1000
0200
0010
0320
0000
,
0031
0000
0000
0010
0001
0000
0000
0100
0010
0000
0000
1000
0001
0000
0000
0100
,
0010
0000
0010
0000
0010
0000
1000
0000
0001
0000
0100
0000
,
2002
0000
0000
0000
,
0000
0000
0000
0000
,
0000
0000
0000
0000
,
0000
0000
0000
0000
,
0000
0000
0000
0000
,
0000
0000
0000
3003
;
