#TITLE:I DON'T WANT TO MISS A THING (Planet Lution Mix);
#ARTIST:DEJA VU featuring TASMIN;
#BANNER:I DON'T WANT TO MISS A THING (Planet Lution Mix)-bn.png;
#BACKGROUND:I DON'T WANT TO MISS A THING (Planet Lution Mix)-bg.png;
#JACKET:I DON'T WANT TO MISS A THING (Planet Lution Mix)-jacket.png;
#MUSIC:I DON'T WANT TO MISS A THING (Planet Lution Mix).ogg;
#SAMPLESTART:29.616;
#SAMPLELENGTH:20;
#DISPLAYBPM:170;
#BPMS:0=170.008;
#BGCHANGES:;

//---------------dance-single - ----------------
#NOTES:
     dance-single:
     :
     Beginner:
     3:
     :
0000
0000
0000
0000
,
0000
0000
0000
0000
,
0000
0000
0000
0000
,
0000
0000
0000
0000
,
0000
0000
0000
0000
,
2000
0000
0000
0000
,
3000
0000
0000
0000
,
0002
0000
0000
0000
,
0003
0000
0000
0000
,
0010
0000
0001
0000
,
0100
0000
0010
0000
,
1000
0000
0001
0000
,
0000
0000
0000
0000
,
0010
0000
0001
0000
,
0100
0000
0000
0000
,
0001
0000
1000
0000
,
0000
0000
0010
0010
,
0010
0000
1000
0000
,
0100
0000
1000
0000
,
1001
0000
1001
0000
,
0010
0010
0010
0010
,
0010
0000
1000
0000
,
0200
0000
0300
0000
,
0010
0000
0100
0000
,
0010
0000
0001
0000
,
1000
0000
0001
0000
,
0100
0100
0100
0100
,
0100
0000
0010
0000
,
2000
0000
3000
0000
,
0010
0000
1000
0000
,
0001
0000
0100
0000
,
0001
0000
1000
0000
,
0100
0100
0100
0100
,
0100
0000
0010
0000
,
0001
0001
0002
0000
,
0003
0000
0100
0000
,
1000
1000
2000
0000
,
3000
0000
0010
0000
,
1000
0000
0100
0000
,
1000
0000
0001
0000
,
0100
0100
0200
0000
,
0300
0000
0010
0000
,
1000
0000
0001
0000
,
0100
0000
0010
0000
,
1000
0000
0001
0000
,
0010
0000
0000
0000
,
0001
0000
0100
0000
,
0001
0000
1000
0000
,
0020
0000
0000
0000
,
0000
0000
0030
0000
,
1001
0000
1001
0000
,
1001
0000
0000
0000
,
1001
0000
0000
0000
,
0010
0000
1000
0000
,
0200
0000
0300
0000
,
0010
0000
0001
0000
,
0100
0000
0010
0000
,
1000
0000
0001
0000
,
0010
0010
0010
0010
,
0010
0000
0001
0000
,
2000
0000
3000
0000
,
0001
0000
0010
0000
,
0100
0000
1000
0000
,
0001
0000
0100
0000
,
0010
0010
0010
0010
,
0010
0000
0000
0000
;

//---------------dance-single - ----------------
#NOTES:
     dance-single:
     :
     Easy:
     5:
     :
0000
0000
0000
0000
,
0000
0000
0000
0000
,
0000
0000
0000
0000
,
0000
0000
0000
0000
,
0000
0000
0000
0000
,
1000
0000
0000
0000
,
0001
0000
0000
0000
,
1000
0000
0000
0000
,
0001
0000
0000
0000
,
0010
0100
0010
0000
,
1000
0001
1000
0000
,
0010
0100
0010
0000
,
1000
0001
1000
0000
,
0010
0100
0001
0000
,
1000
0001
1000
0000
,
0010
0100
1000
0000
,
0001
1000
0001
0000
,
1000
0100
0010
0000
,
0001
0100
0010
0000
,
1000
0010
0001
0010
,
1000
0100
0010
0001
,
1000
0000
0100
0000
,
1000
0100
0010
0001
,
0010
0000
0001
0000
,
0010
0001
1000
0100
,
1000
0000
0100
0000
,
0010
0100
0001
0010
,
0100
0000
1000
0000
,
0010
0001
0010
0100
,
1000
0000
0001
0000
,
0100
0010
1000
0010
,
1000
0000
0001
0000
,
0010
0100
1000
0010
,
0100
0000
0001
0000
,
0100
0000
0001
0000
,
1000
0000
0010
0000
,
1000
0000
0010
0000
,
0100
0000
0001
0000
,
1000
0100
0010
0001
,
1000
0010
1000
0000
,
0001
0010
0001
0000
,
1000
0000
0100
0000
,
1000
0000
0100
0000
,
0010
0000
0001
0000
,
0010
0000
0001
0000
,
1000
0000
0100
0000
,
0010
0001
0100
0001
,
1000
0001
0010
0000
,
0100
1000
0010
0100
,
0001
1000
0001
0000
,
0100
0000
0010
0000
,
1000
0000
0000
0000
,
0000
0000
0000
0000
,
0100
0000
0010
0000
,
0001
0100
0001
0100
,
0001
0000
0010
0000
,
0100
1000
0100
1000
,
0001
0000
0100
0000
,
0001
1000
0010
1000
,
0001
0000
0100
0000
,
0010
1000
0100
1000
,
0001
0000
0010
0000
,
0100
1000
0100
0010
,
0001
0000
0100
0000
,
0010
1000
0100
0010
,
1001
0000
0000
0000
;

//---------------dance-single - ----------------
#NOTES:
     dance-single:
     :
     Medium:
     7:
     :
0000
0000
0000
0000
,
0000
0000
0000
0000
,
0000
0000
0000
0000
,
0000
0000
0000
0000
,
0000
0000
0000
0000
,
1000
0000
0100
0000
,
0010
0000
0001
0000
,
0100
0000
0010
0000
,
1000
0000
0100
0000
,
0010
0001
0100
0000
,
0010
1000
0100
1000
,
0001
0000
0100
0000
,
0000
0000
0000
0000
,
0010
1000
0100
1000
,
0001
0010
0000
0000
,
0100
0000
1000
0000
,
0000
0000
0000
0000
,
0001
0100
0010
1000
,
0100
1000
0001
0010
,
0100
0000
1000
0000
,
0010
0100
0001
1000
,
0001
0000
0010
0100
,
1000
0000
0001
1000
0000
0000
0000
0000
,
0000
0000
0010
0100
,
0001
0000
0010
0100
0000
0100
0000
0100
,
1000
0000
0001
0100
0000
0000
0000
0000
,
0001
0100
0001
0010
,
0100
0000
1000
0001
,
0100
0000
0010
1000
0000
0000
0000
0000
,
0000
0000
0100
1000
,
0010
0000
0100
0001
0000
0010
0000
0001
,
1000
0000
0010
0100
0000
0000
0000
0000
,
0001
0010
0100
1000
,
0001
0000
1000
0000
,
0001
0010
0001
0000
,
0100
0000
0010
0000
,
1000
0010
1000
0000
,
0001
0000
0100
0000
,
0001
0010
0100
1000
,
0010
0100
0001
1000
,
0001
0010
0100
0000
,
1000
0000
0010
0000
,
1000
0010
1000
0000
,
0001
0000
0010
0000
,
0100
1000
0100
0000
,
1000
0000
0001
0000
,
0100
0010
1000
0001
,
0100
0001
0010
0100
,
1000
1000
1000
1000
,
0001
0010
0001
0001
,
0110
0000
1001
0000
,
0110
0000
0000
0000
,
0000
0000
0000
0000
,
1000
0000
0001
0100
,
0010
0000
1000
0100
0000
0000
0000
0000
,
0000
0000
1000
0001
,
0100
0000
0010
0100
0000
0001
0000
1000
,
0001
0000
0100
0010
0000
0000
0000
0000
,
1000
0100
0010
0001
,
0100
0000
0001
0010
,
0001
0000
0100
0001
0000
0000
0000
0000
,
0000
0000
1000
0100
,
0010
0000
0001
1000
0000
0001
0000
0010
,
0001
0000
0100
0010
0000
0000
0000
0000
,
1000
0100
1000
0001
,
0110
0000
0000
0000
;

//---------------dance-single - ----------------
#NOTES:
     dance-single:
     :
     Hard:
     9:
     :
0000
0000
0000
0000
,
0000
0000
0000
0000
,
0000
0000
0000
0000
,
0000
0000
0000
0000
,
0000
0000
0000
0000
,
0000
0000
1000
0000
0000
0100
0000
0100
,
0000
0010
0000
0001
,
0000
0000
0100
0000
0000
0010
0000
0010
,
0000
1000
0000
0001
,
1000
0100
0010
0001
,
0100
0001
1000
0010
,
0100
0001
0010
0100
,
1000
0000
0001
0000
0100
0000
0001
0100
,
0010
1000
0100
1000
,
0001
0000
0010
0000
0001
0000
0100
0010
,
1000
0100
0010
0001
,
1000
0000
0001
0000
0100
0010
0100
0010
,
1000
0100
0010
0001
,
0010
0000
0100
0000
1000
0000
0001
1000
,
0100
0000
0100
0000
0100
0000
0010
0100
,
1000
0000
0001
0000
0100
0000
0010
0000
1000
0000
0000
0100
0000
0000
0010
0000
,
0001
0100
0010
1000
,
0100
0000
0010
0000
0001
0000
0010
0001
,
1000
0010
0100
0001
,
1000
0000
0100
0000
0010
0001
0010
0001
,
1000
0000
0100
0000
0010
0000
0001
0100
,
0010
0000
0000
0000
1000
0000
0000
0000
0100
0000
0000
0010
0000
0000
0001
0000
,
1000
0001
0100
0010
,
1000
0000
0100
0000
0010
0000
0001
1000
,
0001
1000
0010
0100
,
0001
0000
1000
0000
0100
0010
0000
0001
,
1000
0010
0100
0001
,
1000
0000
0001
0000
0010
0000
0100
0000
1000
0000
0000
0001
0000
0000
1000
0000
,
0100
0010
0001
0100
,
0010
1000
0010
0100
,
0001
0000
0000
0000
1000
0000
0000
0000
0100
0000
0000
0010
0000
0000
0001
0000
,
1000
0000
0100
0000
1000
0000
0010
1000
,
0100
0000
0010
0000
0001
0010
0001
0010
,
0100
1000
0010
0100
,
0001
0000
0000
0000
0010
0000
0000
0000
0100
0000
0000
1000
0000
0000
0001
0000
,
1000
0000
0010
0000
0100
0000
0001
1000
,
0100
0000
0000
0000
0010
0000
0000
0000
0001
0000
0000
1000
0000
0000
0100
0000
,
1000
0010
0100
0001
,
1000
0100
1000
0001
,
0100
0000
0000
0000
0010
0000
0000
0000
1000
0000
0000
0010
0000
0000
0100
0000
,
0001
0000
0010
0000
0100
0000
1000
0001
,
0100
0000
0010
0000
1000
0010
1000
0001
,
0010
0100
1000
0001
,
0100
0000
0000
0000
0010
0000
0000
0000
1000
0000
0000
0001
0000
0000
1000
0000
,
0100
0000
0010
0000
0001
0000
1000
0001
,
1000
0000
0001
0000
0100
0010
0100
0010
,
0100
0000
0000
0000
0000
0001
0000
0001
,
0001
0000
0000
0000
,
1000
0100
1000
0010
,
0100
0000
0000
0000
0001
0000
0000
0000
1000
0000
0000
0100
0000
0000
1000
0000
,
0001
0010
0001
0100
,
0010
0000
1000
0000
0100
0010
0100
0001
,
0100
0000
1000
0000
0010
0000
0100
0001
,
1000
0000
0000
0000
0100
0000
0000
0000
0010
0000
0000
0001
0000
0000
1000
0000
,
0100
0010
0001
0010
,
0100
0000
1000
0000
0001
0100
0001
0100
,
0001
1000
0100
0010
,
0001
0000
1000
0000
0010
0100
0000
0001
,
1000
0000
0100
0000
0010
0000
0001
1000
,
0100
0000
0010
0000
0001
0000
1000
0000
0001
0000
0000
0010
0000
0000
0100
0000
,
1001
0000
0000
0000
;

//---------------dance-single - ----------------
#NOTES:
     dance-single:
     :
     Challenge:
     13:
     :
0000
0000
0000
0000
,
0000
0000
0000
0000
,
0000
0000
0000
0000
,
0000
0000
0000
0000
,
0000
0000
0000
0000
,
1000
0000
0010
0000
0100
0001
0000
0001
,
1000
0000
0100
0000
1000
0010
0100
0001
,
0010
0100
1000
0010
0100
0001
1000
0001
,
0010
1000
0010
0001
0100
0010
1000
0001
,
0100
0010
0100
0001
0010
0100
1000
0000
,
0001
0100
0010
0100
1000
0100
0002
0000
,
0013
0100
0010
0001
0100
0010
1000
0000
,
0001
0100
0010
1000
0100
0010
0000
0010
,
0001
0100
0010
0100
1000
0100
0001
0010
,
0100
1000
0001
0000
0100
0010
1000
0001
,
0010
0001
0100
0010
1000
0100
0001
0000
,
0010
0001
0010
0100
1000
0010
0001
0010
,
2000
0000
3001
0100
0010
1000
0100
0000
,
0110
0000
0001
0100
1000
0100
0001
0000
,
0020
0001
0031
0100
0020
1000
1030
0100
,
1100
0000
0000
0000
0101
0000
0000
0000
1000
0010
0000
0100
0001
0000
1000
0000
,
1001
0000
0010
0100
1000
0100
0001
0100
,
0010
0001
0010
2000
0000
3010
0100
0001
,
0010
0000
1000
0100
0001
0100
0010
0100
,
1000
0010
0100
0001
0010
1100
0000
0010
,
0101
0000
1000
0010
0100
0000
0010
0100
,
0001
0100
0010
0100
1000
0010
0100
0001
,
1000
0000
0010
1000
0100
0001
0100
1000
,
0010
0100
0001
2000
0000
0100
3100
0010
,
0001
0000
0100
0010
0100
1000
0100
0001
,
0010
0100
0001
0100
1000
0101
0000
0001
,
1100
0000
0010
1000
0100
0000
1000
0001
,
0010
1000
0010
0001
0100
0010
1000
0001
,
0100
0010
1000
0000
0001
0100
0010
1000
,
1100
0000
0110
0000
0011
0001
0100
0010
,
1000
0100
0001
0000
0010
0100
1000
0001
,
0101
0000
1010
0000
1100
0010
0100
0001
,
0000
1000
0100
1000
0010
0001
0010
0100
,
0010
1000
0100
0010
0000
0001
0100
0020
,
0000
0000
1030
0000
0100
0000
0010
0000
0001
0000
0000
1000
0000
0000
0100
0000
,
1001
0000
0000
0000
1010
0000
0000
0000
1100
0000
0001
0000
0100
0000
0010
1000
,
0010
0100
0001
0000
1000
0100
0010
0001
,
0210
0000
1300
0100
0010
0001
0100
0010
,
1000
0100
0010
0000
0001
0100
0001
1000
,
0010
0001
0010
1000
0100
0010
0001
0000
,
1000
0010
0100
0010
1000
0001
0000
0100
,
0010
0100
0001
0010
0100
1000
0001
1000
,
0010
0000
0100
0000
0001
0000
0000
0000
0010
0000
0000
0001
0000
0000
1000
0000
,
0010
0100
1000
0100
0001
0010
0100
0001
,
0100
0000
0010
0000
0100
0000
1000
0000
0010
0000
0000
0100
0000
0000
0001
0000
,
0011
1100
0101
1010
,
0210
0010
0010
0010
0010
0010
0010
0010
,
0020
0000
0000
0330
,
1001
0100
1000
0000
0001
0100
0010
0001
,
0010
1000
0100
0010
1000
0010
0001
0000
,
0100
0000
0010
1000
0100
0010
0001
1000
,
0010
0100
0001
1000
0100
0011
0000
0100
,
1010
0000
0001
0100
0010
0000
1000
0001
,
0010
0000
0100
0000
0001
0000
0100
0000
1000
0000
0010
0000
0100
0000
0001
1000
,
0001
0000
0100
0010
0100
1000
0100
0001
,
0010
0100
1000
0002
0000
0103
0010
1000
,
0001
0000
0010
0100
0001
0100
1000
0010
,
0100
0010
1000
0001
0100
1010
0000
0100
,
0011
0000
0100
1000
0010
0000
0100
0001
,
0010
0000
1000
0000
0010
0000
0001
0000
0100
0000
0010
0000
1000
0000
0001
0100
,
0001
1000
0020
0000
1030
0001
0010
0000
;

//---------------dance-double - ----------------
#NOTES:
     dance-double:
     :
     Easy:
     6:
     :
00000000
00000000
00000000
00000000
,
00000000
00000000
00000000
00000000
,
00000000
00000000
00000000
00000000
,
00000000
00000000
00000000
00000000
,
00000000
00000000
00000000
00000000
,
00000010
00000000
00001000
00000000
,
00000100
00000000
00000000
00000000
,
00000010
00000000
00000001
00000000
,
00000100
00000000
00000000
00000000
,
00000010
00001000
01000000
00000000
,
10000000
00100000
02000000
03000000
,
00010000
10000000
00200000
00300000
,
01000000
00000000
00001000
00000000
,
00010000
00000010
00001000
00000100
,
00000010
00000001
00000100
00000000
,
00000001
00000010
00001000
00000000
,
00000100
00000000
00010000
00001000
,
00011000
00000000
01000000
00100000
,
01100000
00000000
10000000
00010000
,
02000000
00000000
00200000
03000000
,
10000000
00010000
10000000
00010000
,
01300000
00000000
00010000
00100000
,
00001000
00010000
00000020
00000030
,
00000100
00000000
00000010
00001000
,
00000100
00000010
00000001
00001000
,
00001001
00000010
00001000
00000100
,
00000010
00000010
00000001
00001000
,
00000100
00000000
00010000
00001000
,
01000000
00100000
20000000
30000000
,
01000000
00000000
00100000
00001000
,
00010000
00000010
00001000
00000100
,
00000110
00000001
00001000
00000010
,
00010000
00010000
00001000
01000000
,
00100000
00000000
10000000
01000000
,
10000000
00010000
02000000
03000000
,
00200000
00300000
01000000
00001000
,
00010000
00000100
00000020
00000030
,
00000000
00000000
00000001
00000001
,
00000001
00000100
00001000
00010000
,
01000000
10000000
00020000
00030000
,
01100000
10010000
01100000
00000000
,
10000000
00000000
01000000
00100000
,
00002000
00003000
00010000
00000100
,
00000020
00000030
00000001
00000100
,
00000001
00000010
00001000
00000100
,
00000010
00000000
00000000
00000110
,
00000001
00000100
00000010
00001000
,
00000200
00000300
00010000
00001000
,
01000000
00010000
00200000
00000000
,
00000000
00000000
00000000
00300000
,
01100000
00000000
10010000
00000000
,
02002000
00000000
00000000
00003000
,
00100000
00000000
00000000
03000000
,
00011000
00000000
00010000
00001000
,
00000100
00000001
00000020
00000030
,
00000001
00000000
00001000
00000010
,
00001000
00000100
00001000
00010000
,
01000000
10000000
00100000
01000000
,
00001000
00001000
00010000
00000100
,
00000010
00000000
00000001
00000100
,
00000001
00000010
00002000
00003000
,
01000000
00000000
10000000
00100000
,
10000000
01000000
00100000
00001000
,
00011000
00000100
00001000
00000001
,
00000100
00000100
00000010
00001000
,
00001100
00000000
00000000
00000000
;

//---------------dance-double - ----------------
#NOTES:
     dance-double:
     :
     Medium:
     9:
     :
00000000
00000000
00000000
00000000
,
00000000
00000000
00000000
00000000
,
00000000
00000000
00000000
00000000
,
00000000
00000000
00000000
00000000
,
00000000
00000000
00000000
00000000
,
00010000
00100000
00010000
01000000
,
00100000
10000000
01000000
00100000
,
00001000
00010000
00001000
00000100
,
00000001
00000000
00000010
00000000
00000001
00000000
00001000
00000100
,
00000010
00000000
00000001
00001000
00000010
00000000
00000000
00000000
,
00010000
00001000
01000000
00000000
20100000
00000000
00000000
00010000
,
00000000
00000000
00000000
00000000
02000000
00000000
00000000
00000000
00000000
00000000
00000000
03000000
00000000
00000000
00000000
00000000
30100000
00000000
00000000
00000000
10000000
00000000
00000000
00000000
01000000
00000000
00000000
00000000
00000000
00000000
00000000
00000000
,
10000000
00000000
00100000
00000000
01000000
00001000
00000000
00010000
,
00000010
00000000
00000100
00000000
00000001
00001000
00000000
00001100
,
00000000
00000011
00000000
00000000
00000100
00000001
00000010
00000100
,
00001000
00000001
00000000
00000200
00000000
00000000
00000000
00000000
,
00000310
00001000
00000100
00000000
00010000
00001000
00010000
00001000
,
02000000
00000000
03100000
00000000
10000000
01000000
00010000
00000000
,
00110000
00000000
01000000
10000000
00010000
10000000
01000000
00000000
,
00200000
10000000
00302000
00000100
,
00010000
00000000
00000001
00000000
00010000
00000000
00003001
00001000
,
00000100
00000000
00000000
00000000
00000001
00000100
00000010
00002000
,
00000000
00000000
00003010
00000200
00000000
00000000
00000000
00000000
,
00000301
00000000
00000000
00000010
00000100
00010000
00001000
02000000
,
00000000
00000000
03100000
10000000
00000000
01001000
00000000
00100000
,
10000000
00000000
01000000
00100000
00010000
00000000
01000000
00001000
,
00010000
00000000
00011000
00000000
00001000
00010000
00000100
00000000
,
00000110
00000000
00000000
00000000
00000001
00001000
00000001
00001000
,
00000020
00000000
00001030
00000200
00000000
00000000
00000000
00000000
,
00010300
00000000
00000000
00000000
00001000
00010000
00001000
01000000
,
00200000
00000000
10300000
00010000
00000000
01001000
00000000
00100000
,
10000000
00000000
00010000
00100000
01000000
00000000
10000000
00100000
,
01000000
00000000
01100000
00000000
00001000
00010000
00001000
00000000
,
00010100
00000000
00000000
00000000
00000010
00000001
00000010
00000001
,
00001000
00000000
00001010
00000000
00000201
00000000
00000301
00000100
,
00000020
00000000
00000030
00000000
00010000
00001000
00010000
00001000
,
01000000
01010000
10100000
00000000
,
10000000
00000000
00100000
00000000
01000000
00010000
01000000
00010000
,
00100000
00100000
00001000
00010000
,
00020100
00000010
00000200
00030300
,
00001100
00000000
00000110
00000000
00000012
00000000
00001003
00000001
,
00000200
00000000
00000300
00000000
00000010
00001000
00000010
00001000
,
00000002
00000000
00000000
00000000
00000013
00000000
00000001
00000100
,
00002000
00000000
00003000
00000000
00100000
01000000
00100000
00010000
,
10000000
00000000
00000000
00000000
00000000
00000000
00000000
00000000
00100000
00000000
00000000
00000000
20000000
00000000
00000000
00000000
00000000
00000000
00000000
00000000
00020000
00000000
00000000
00000000
00000000
00000000
00000000
30030000
00000000
00000000
00000000
00000000
,
00100000
00000000
00010000
00000000
01000000
00100000
00000000
10000000
,
02000000
00000000
03200000
00000000
00302000
00000000
00013000
00000010
,
00000000
00000100
00000001
00000000
00000011
00000000
00001100
00000000
,
00000020
00000000
00001030
00000001
00000200
00000000
00000000
00000000
,
00000010
00000310
00001000
00000001
,
00000011
00000000
00001100
00000000
,
02002000
00000000
00000000
00000000
00000000
00000000
00000000
00000000
00000000
00000000
00000000
00000000
00000000
00000000
00000000
00003000
00000000
00000000
00000000
00000000
00010000
00000000
00000000
00000000
00000000
00000000
00000000
00000000
00000000
00000000
00000000
00000000
,
00200000
00000000
00000000
03300000
,
10010000
00000000
00000000
00000000
10000000
01000000
00100000
00020000
,
00000000
00000000
01030000
00002000
00000000
00000000
00000000
00000000
,
00003010
00000000
00000000
00000000
00000001
00001000
00000010
00000200
,
00000000
00000000
00000310
00001000
00000000
00010100
00000000
00000010
,
00001000
00000000
00000001
00000100
00000010
00000000
00001000
00000001
,
00000100
00000000
00000110
00000000
00000010
00010000
00002000
00000000
,
01003000
00000000
00000000
00000000
00100000
01000000
00010000
10000000
,
02000000
00000000
03100000
00020000
00000000
00000000
00000000
00000000
,
01030000
00000000
00000000
00000000
00001000
00010000
00001000
00000100
,
00000002
00000000
00000013
00000100
00000000
00010100
00000000
00000010
,
00001000
00000000
00000001
00000100
00000010
00000000
00010000
00001000
,
01000000
00000000
01100000
00000000
10000000
00100000
00020000
00000000
,
01030000
01010000
01000000
11000000
;

//---------------dance-double - ----------------
#NOTES:
     dance-double:
     :
     Hard:
     12:
     :
00000000
00000000
00000000
00000000
,
00000000
00000000
00000000
00000000
,
00000000
00000000
00000000
00000000
,
00000000
00000000
00000000
00000000
,
00000000
00000000
00000000
00000000
,
00000011
00000000
00001020
00000000
00000000
00000001
00000000
00001030
,
00000010
00000000
00000110
00000000
00000000
00000000
00001000
00010000
,
01000000
00000000
12000000
00000000
00000000
00010000
00000000
13000000
,
01000000
00100000
00010000
01000000
00100000
00000000
10000000
00010000
,
01000000
00100000
01000000
00001000
00000000
00011000
00000000
00000100
,
00000010
00000001
00000100
00000010
00002000
00000000
00003100
00000010
,
00000001
00000100
00001000
00010000
02000000
00100000
03100000
00000000
,
00010000
10000000
00100000
00000000
01000000
00000000
00010000
10000000
,
00100000
10000000
01000000
00000000
10000000
00100000
01000000
00010000
,
00100000
00000000
00001000
00000000
00010000
00000000
00000000
00000000
00000010
00000000
00000000
00000100
00000000
00000000
00000001
00000000
,
00000010
00000100
00000000
00001000
00000001
00000000
00001010
00000000
,
00001000
00000100
00010000
00000000
00001000
01000000
10000000
01000000
,
00001000
00010000
00001000
00000100
00000001
00000010
00000100
00000000
,
00010100
00000000
00010000
00001000
01000000
00100000
10000000
00000000
,
11000000
00010000
01000000
00100000
20000000
01000000
31000000
00000000
,
10010000
00000000
00000000
00000000
01100000
00000000
00000000
00000000
00001000
00000000
00000000
00010000
00000000
00000000
00000100
00000000
,
00000011
00000000
00000000
00000100
00000010
00001000
00000100
00000010
,
00000001
00000100
00000010
00020000
00000000
01000000
00000000
00001000
,
00031000
00000000
00000000
00100000
01000000
00010000
01000000
10000000
,
00100000
01000000
00010000
10000000
00000000
10100000
00000000
00010000
,
01100000
00000000
10000000
01000000
00010000
00000000
00001000
00000100
,
00000001
00000010
00001000
00000010
00000001
00000001
00000001
00000000
,
00000101
00000000
00000000
00000010
00001000
00000100
00000001
00000100
,
00000010
00000001
00001000
00000020
00000000
00000001
00000000
00000100
,
00000130
00000000
00000000
00000010
00010000
00001000
00010000
01000000
,
10000000
00100000
01000000
00010000
00000000
01001000
00000000
00100000
,
11000000
00000000
00010000
10000000
00100000
00000000
01000000
00001000
,
00010000
01000000
00010000
00001000
00000100
00000100
00000100
00000000
,
00000110
00000001
00001000
00000000
00000010
00000100
00000010
00000100
,
00000001
00000100
00000010
00000100
00001000
00000100
00000001
00000100
,
00000020
00000000
00000030
00000000
00010000
00001000
00010000
01000000
,
00100000
10000000
00100000
00010000
01000000
00000000
10000000
00100000
,
00000000
01000000
00000000
00100000
10000000
01000000
10000000
00010000
,
01000000
00200000
00000000
20300000
00000000
30020000
00000000
01030000
,
00100000
00000000
10000000
00000000
01000000
00000000
00100000
00000000
00010000
00000000
00000000
01000000
00000000
00000000
10000000
00000000
,
10100000
00000000
01010000
00000000
00011000
00000000
00001000
00000001
,
00000100
00000000
00000110
00000000
00000001
00000100
00000010
00001000
,
00000200
00000000
00000301
00000100
00001000
00000010
00000100
00000010
,
00010000
00000000
00000000
00001000
00010000
01000000
00100000
00001000
,
00010000
00001000
01000000
00200000
00000000
20300000
00000000
31000000
,
10000000
00100000
00000000
01000000
00010000
00110000
00000000
00000100
,
00010000
00001000
00010000
00000010
00000100
00001000
00000100
00000001
,
00000010
00000000
00000100
00000000
00001000
00000000
00000000
00000000
00000001
00000000
00000000
00001000
00000000
00000000
00000010
00000000
,
00001020
00000000
00000000
00000000
00000130
00000000
00000001
00000000
00000010
00000000
00000000
00000100
00000000
00000000
00001000
00000000
,
00000001
00000000
00001000
00000000
00000200
00000000
00000000
00000000
00010300
00000000
00000000
00001000
00000000
00000000
01000000
00000000
,
20100000
30010000
00120000
10030000
,
02001000
00001000
00001000
00001000
,
00200000
00000000
00000000
03300000
,
10010000
00000000
00000000
00100000
10000000
01000000
00010000
01000000
,
00100000
00001000
00010000
00000020
00000000
00000001
00000000
00000100
,
00000130
00000000
00000000
00000010
00001000
00000100
00010000
01000000
,
10000000
00100000
01000000
00010000
00000000
01010000
00000000
00100000
,
11000000
00000000
00010000
01000000
10000000
00000000
00100000
01000000
,
10000000
01000000
00010000
00100000
00001000
00001000
00001000
00000000
,
00010010
00000000
00000000
00000010
00000100
00001000
00000100
00000010
,
00010000
00001000
00010000
02000000
00000000
00001000
00000000
00100000
,
03100000
00000000
00000000
01000000
10000000
00010000
01000000
00100000
,
10000000
01000000
10000000
00010000
00000000
00110000
00000000
01000000
,
00101000
00000000
00010000
00001000
00000100
00000000
00000001
00000010
,
00001000
00000010
00000100
00000010
00000001
00000001
00000001
00000000
,
00000100
00000010
00001001
00000000
00000100
00000010
00001001
00000000
;

//---------------dance-double - ----------------
#NOTES:
     dance-double:
     :
     Challenge:
     14:
     :
00000000
00000000
00000000
00000000
,
00000000
00000000
00000000
00000000
,
00000000
00000000
00000000
00000000
,
00000000
00000000
00000000
00000000
,
00000000
00000000
00000000
00000000
,
00011000
00000000
01000000
00100000
00000000
10100000
00000000
01010000
,
00000000
00000000
01100000
00000000
00000000
00001000
00000000
00010000
,
00000010
00000100
00001000
00000100
00000001
00000010
00000100
00000001
,
00000100
00010000
00001000
00000100
00000001
00000010
00001000
01000000
,
10000000
00000000
01000000
00000000
00010000
00000000
00100000
00000000
01000000
10000000
00000000
10000000
00100000
00000000
00010000
00000000
,
00000100
00000001
00000100
00001000
00000010
00000100
00010000
00000100
,
00000001
00000000
00000010
00000000
00000100
00000000
00000001
00000000
00000100
00010000
00000000
00010000
00001000
00000000
01000000
00000000
,
00100000
00010000
00100000
10000000
01000000
00100000
10000000
00100000
,
00010000
00000000
01000000
00000000
00100000
00000000
01000000
00000000
00001000
00100000
00000000
00100000
00010000
00000000
10000000
00000000
,
01000000
00000000
00100000
00000000
10000000
00000000
00100000
00000000
00001000
00000100
00000000
00000100
00000001
00000000
00000010
00000000
,
00000100
00000000
00000001
00000000
00000100
00000000
00000010
00000000
00000001
00001000
00000000
00001000
00000010
00000000
00000100
00000000
,
00000010
00010000
00001000
00010000
01000000
01000000
01000000
00100000
,
00012000
00000000
00013000
00001000
00000100
00000001
00001000
00000000
,
00001020
00000000
00001030
00000010
00000100
00000001
00001000
00000000
,
00000020
00001000
00001030
00000100
00020000
01000000
01030000
10000000
,
00100000
00000000
10000000
01000000
10000000
00000000
00010000
01000000
00010000
00000000
10000000
01000000
10000000
00000000
00010000
01000000
,
00010000
01000000
00100000
01000000
10000000
01000000
00001000
00010000
,
00000010
00000000
00000100
00000000
00001000
00000000
00000100
00000000
00000001
00000010
00000000
00000010
00000001
00000000
00001000
00000000
,
00000100
00000001
00000100
00000010
00001000
00000010
00000001
00000100
,
00001000
00000000
00000100
00000000
00000010
00000000
00010000
00000000
01000000
00000000
00101000
00000000
00000000
00000000
00001000
00010000
,
00001000
01000000
00100000
00010000
00100000
10000000
01000000
00100000
,
10000000
00000000
00100000
00000000
00010000
00000000
01000000
00000000
00100000
00000000
00100000
00000000
00100000
00000000
10000000
00010000
,
10000000
01000000
00100000
10000000
00100000
00001000
00010000
00001000
,
00000100
00000000
00000001
00000000
00000010
00000000
00000100
00000000
00001000
00000010
00000000
00000010
00001000
00000000
00000001
00000000
,
00000100
00010000
00000100
00000010
00010000
00001000
01000000
10000000
,
01000000
00000000
00010000
00000000
00100000
00000000
01000000
00000000
10000000
00000000
01010000
00000000
00000000
00000000
00100000
00001000
,
00100000
10000000
00100000
00010000
01000000
00100000
00001000
00000100
,
00000001
00000000
00000010
00000000
00000100
00000000
00000010
00000000
00000001
00000000
00000001
00000000
00000001
00000000
00001000
00000100
,
00001000
00000000
00000010
00000000
00000100
00000001
00000000
00000001
00001000
00000000
00000010
00000000
00000100
00000000
00000001
00000000
,
00000010
00001000
00000010
00000001
00000100
00000010
00010000
00001000
,
01000000
00000000
00100000
00000000
10000000
01000000
00000000
01000000
00100000
00000000
10000000
00000000
00100000
00000000
00010000
00000000
,
01000000
00001000
00010000
01000000
00100000
00010000
01000000
00100000
,
00000000
00000000
10000000
00000000
01000000
00100000
00010000
00000000
00000100
00000000
00000010
00000000
00000100
00000000
00000001
00001000
,
00000001
00000010
00000001
00000100
00000010
00010000
00001000
00000100
,
00000001
00000000
00000010
00000000
00001000
00000000
00000010
00000000
00000001
00000100
00000000
00000100
00000010
00000000
00001000
00000000
,
00000100
00000000
00000001
00000000
00000100
00000000
00010000
00000000
00002000
00000000
01000000
00000000
01003000
00000000
00100000
10000000
,
00100000
00000000
01000000
00000000
00100000
00000000
10000000
00010000
10000000
00000000
01000000
00000000
00100000
00000000
00010000
00000000
,
00000200
00000010
00000310
00001000
00000001
00000100
00000010
00001000
,
00010000
00000000
00100000
00000000
00010000
10000000
01000000
00000000
00100000
00000000
01000000
00000000
00001000
00000000
01000000
00000000
,
00100000
00000000
00010000
00000000
01000000
00000000
00100000
00000000
10000000
00010000
00000000
00010000
00000100
00000000
00000010
00000100
,
00000000
00000000
00000001
00000000
00001000
00000100
00000010
00000000
00000001
00000000
00010100
00000000
00000000
00000000
00001000
00010000
,
01000000
00100000
10000000
00100000
00010000
01000000
00100000
10000000
,
01000000
00000000
00010000
00000000
00001000
00000000
00000100
00000000
00000001
00000010
00000000
00000010
00000100
00000000
00001000
00000000
,
00000010
00000000
00001000
00000000
00000001
00000000
00000100
00000000
00000010
00001000
00000000
00001000
00000100
00000000
00010000
00001000
,
00000000
01000000
00100000
10000000
01000000
00010000
01000000
00100000
,
01100000
00000000
00010000
10000000
00010000
00000000
00000000
00000000
01100000
00000000
10000000
00010000
10000000
00000000
00000000
00000000
,
02001000
00001000
00001000
00001000
00001000
00001000
00001000
00001000
,
00200000
00000000
00000000
03300000
,
10010000
01000000
00100000
00010000
00100000
01000000
00001000
00010000
,
00000010
00000000
00000100
00000000
00010000
00000000
00000100
00000000
00000010
00001000
00000000
00001000
00000001
00000000
00000100
00000000
,
00000010
00001000
00000100
00000010
00010000
00000010
00000100
00001000
,
00000010
00000000
00000100
00000000
00000001
00000000
00000010
00000000
00000100
00000000
00110000
00000000
00000000
00000000
10000000
01000000
,
10000000
00100000
01000000
10000000
01000000
00010000
00100000
01000000
,
00001000
00000000
00000100
00000000
00001000
00000000
00000001
00000100
00000010
00000000
00000010
00000000
00000010
00000000
00001000
00000001
,
00000100
00000010
00001000
00000010
00000001
00000010
00010000
00001000
,
00010000
00000000
01000000
00000000
10000000
00000000
00100000
00000000
01000000
00010000
00000000
00010000
10000000
00000000
01000000
00000000
,
00100000
10000000
00100000
00001000
00010000
00000100
00001000
00000001
,
00000100
00000000
00001000
00000000
00000100
00000000
00000001
00000000
00000010
00000000
00001001
00000000
00000000
00000000
00010000
00000100
,
00001000
00000010
00000100
00000001
00000010
00001000
00000010
00000100
,
00010000
00000000
00001000
00000000
01000000
00000000
00100000
10000000
00010000
00000000
00010000
00000000
00010000
00000000
00100000
01000000
,
10000000
00100000
01000000
00010000
00100000
01000000
01100000
00000000
;

//---------------dance-solo - ----------------
#NOTES:
     dance-solo:
     :
     Easy:
     3:
     :
000000
000000
000000
000000
,
000000
000000
000000
000000
,
000000
000000
000000
000000
,
000000
000000
000000
000000
,
000000
000000
000000
000000
,
010000
000000
000000
000000
,
000010
000000
000000
000000
,
100000
000000
000000
000000
,
000001
000000
000000
000000
,
000100
001000
000100
000000
,
100000
000001
100000
000000
,
000100
001000
000100
000000
,
100000
000001
100000
000000
,
000100
001000
000010
000000
,
100000
000001
100000
000000
,
000100
001000
010000
000000
,
000001
100000
000001
000000
,
100000
001000
000100
000000
,
000001
001000
000100
000000
,
010000
010000
000010
000010
,
100000
001000
000100
000001
,
100000
000000
001000
000000
,
100000
001000
000100
000001
,
000100
000000
000001
000000
,
000100
000001
100000
001000
,
100000
000000
001000
000000
,
000100
001000
000001
000100
,
001000
000000
100000
000000
,
000100
000001
000100
001000
,
010000
000000
000001
000000
,
001000
000100
100000
010000
,
100000
000000
000010
000000
,
000100
001000
100000
000100
,
001000
000000
000001
000000
,
001000
000000
000001
000000
,
100000
000000
000100
000000
,
100000
000000
000100
000000
,
001000
000000
000001
000000
,
100000
001000
000100
000001
,
010000
000100
100000
000000
,
000010
000100
000001
000000
,
100000
000000
001000
000000
,
100000
000000
001000
000000
,
000100
000000
000001
000000
,
000100
000000
000001
000000
,
100000
000000
001000
000000
,
000100
000001
001000
000010
,
100000
000001
000100
000000
,
001000
100000
000100
001000
,
000010
100000
000001
000000
,
001000
000000
000100
000000
,
100000
000000
000000
000000
,
000000
000000
000000
000000
,
001000
000000
000100
000000
,
000001
001000
000010
001000
,
000001
000000
000100
000000
,
001000
100000
001000
010000
,
000001
000000
001000
000000
,
000010
100000
000100
100000
,
000001
000000
001000
000000
,
000100
100000
001000
010000
,
000001
000000
000100
000000
,
001000
010000
001000
000010
,
000001
000000
001000
000000
,
000100
100000
001000
000100
,
100001
000000
000000
000000
;

//---------------dance-solo - ----------------
#NOTES:
     dance-solo:
     :
     Medium:
     5:
     :
000000
000000
000000
000000
,
000000
000000
000000
000000
,
000000
000000
000000
000000
,
000000
000000
000000
000000
,
000000
000000
000000
000000
,
100000
000000
001000
000000
,
000100
000000
000001
000000
,
001000
000000
000100
000000
,
100000
000000
001000
000000
,
000100
000001
001000
000000
,
000100
100000
001000
010000
,
000001
000000
001000
000000
,
000000
000000
000000
000000
,
000100
100000
001000
010000
,
000001
000100
000000
000000
,
001000
000000
100000
000000
,
000000
000000
000000
000000
,
000001
001000
000100
100000
,
001000
010000
000001
000100
,
001000
000000
100000
000000
,
000100
001000
000010
100000
,
000001
000000
000100
001000
,
010000
000000
000001
100000
000000
000000
000000
000000
,
000000
000000
000100
001000
,
000001
000000
000100
001000
000000
001000
000000
001000
,
100000
000000
000001
001000
000000
000000
000000
000000
,
000010
001000
000001
000100
,
001000
000000
010000
000001
,
001000
000000
000100
100000
000000
000000
000000
000000
,
000000
000000
001000
100000
,
000100
000000
001000
000010
000000
000100
000000
000001
,
010000
000000
000100
001000
000000
000000
000000
000000
,
000001
000100
001000
100000
,
000001
000000
010000
000000
,
000010
000010
000010
000000
,
001000
000000
000100
000000
,
100000
010000
100000
000000
,
000001
000000
001000
000000
,
000001
000100
001000
100000
,
000100
001000
000010
100000
,
000001
000100
001000
000000
,
100000
000000
000100
000000
,
010000
010000
010000
000000
,
000010
000000
000100
000000
,
001000
010000
001000
000000
,
100000
000000
000001
000000
,
001000
000100
100000
000010
,
001000
000001
000100
001000
,
100000
100000
100000
100000
,
000001
000010
000001
000010
,
001100
000000
100001
000000
,
001100
000000
000000
000000
,
000000
000000
000000
000000
,
100000
000000
000001
001000
,
000100
000000
100000
001000
000000
000000
000000
000000
,
000000
000000
010000
000001
,
001000
000000
000100
001000
000000
000001
000000
100000
,
000010
000000
001000
000100
000000
000000
000000
000000
,
100000
001000
000100
000001
,
001000
000000
000010
000100
,
000001
000000
001000
000010
000000
000000
000000
000000
,
000000
000000
100000
001000
,
000100
000000
000001
010000
000000
000010
000000
000100
,
000001
000000
001000
000100
000000
000000
000000
000000
,
100000
001000
010000
000001
,
001100
000000
000000
000000
;

//---------------dance-solo - ----------------
#NOTES:
     dance-solo:
     :
     Hard:
     7:
     :
000000
000000
000000
000000
,
000000
000000
000000
000000
,
000000
000000
000000
000000
,
000000
000000
000000
000000
,
000000
000000
000000
000000
,
000000
000000
010000
000000
000000
001000
000000
001000
,
000000
000100
000000
000001
,
000000
000000
001000
000000
000000
000100
000000
000100
,
000000
100000
000000
000001
,
010000
001000
000100
000001
,
001000
000010
100000
000100
,
001000
000001
000100
001000
,
010000
000000
000001
000000
001000
000000
000010
001000
,
000100
100000
001000
010000
,
000001
000000
000100
000000
000010
000000
001000
000100
,
100000
001000
000100
000001
,
100000
000000
000010
000000
001000
000100
001000
000100
,
100000
001000
000100
000001
,
000010
000000
001000
000000
010000
000000
000001
100000
,
001000
000000
001000
000000
001000
000000
000100
001000
,
100000
000000
000001
000000
001000
000000
000100
000000
100000
000000
000000
001000
000000
000000
000100
000000
,
000001
001000
000100
100000
,
001000
000000
010000
000000
100000
000000
000100
000001
,
100000
000100
001000
000001
,
100000
000000
001000
000000
000100
000001
000100
000010
,
100000
000000
001000
000000
000100
000000
000001
001000
,
000100
000000
000000
000000
100000
000000
000000
000000
001000
000000
000000
000100
000000
000000
000001
000000
,
100000
000010
001000
000100
,
100000
000000
001000
000000
000100
000000
000001
010000
,
000010
100000
000100
001000
,
000001
000000
100000
000000
001000
000100
000000
000001
,
100000
000100
001000
000010
,
100000
000000
000001
000000
000100
000000
001000
000000
010000
000000
000000
000001
000000
000000
100000
000000
,
001000
000100
000001
001000
,
000100
100000
010000
001000
,
000010
000000
000000
000000
100000
000000
000000
000000
001000
000000
000000
000100
000000
000000
000001
000000
,
100000
000000
001000
000000
010000
000000
000100
100000
,
001000
000000
000100
000000
000001
000010
000001
000100
,
001000
100000
000100
001000
,
000001
000000
000000
000000
000100
000000
000000
000000
001000
000000
000000
010000
000000
000000
000001
000000
,
100000
000000
000100
000000
001000
000000
000001
100000
,
001000
000000
000000
000000
000100
000000
000000
000000
000001
000000
000000
010000
000000
000000
001000
000000
,
100000
000100
001000
000010
,
100000
001000
010000
000001
,
001000
000000
000000
000000
000100
000000
000000
000000
100000
000000
000000
010000
000000
000000
001000
000000
,
000010
000000
000100
000000
001000
000000
100000
000001
,
001000
000000
000100
000000
100000
010000
100000
000010
,
000100
001000
100000
000001
,
001000
000000
000000
000000
000100
000000
000000
000000
100000
000000
000000
000010
000000
000000
100000
000000
,
001000
000000
000100
000000
000001
000000
010000
000010
,
100000
000000
100000
000000
001000
000100
001000
000100
,
001000
000000
000000
000000
000000
000001
000000
000001
,
000001
000000
000000
000000
,
100000
001000
010000
000100
,
001000
000000
000000
000000
000001
000000
000000
000000
100000
000000
000000
001000
000000
000000
010000
000000
,
000001
000100
000010
001000
,
000100
000000
100000
000000
001000
000100
001000
000010
,
001000
000000
100000
000000
000100
000000
001000
000001
,
100000
000000
000000
000000
001000
000000
000000
000000
000100
000000
000000
000001
000000
000000
010000
000000
,
001000
000100
000001
000010
,
001000
000000
010000
000000
000001
001000
000001
001000
,
000010
100000
001000
000100
,
000001
000000
100000
000000
000100
001000
000000
000010
,
100000
000000
001000
000000
000100
000000
000001
100000
,
001000
000000
000100
000000
000001
000000
010000
000000
000010
000000
000000
000100
000000
000000
001000
000000
,
100001
000000
000000
000000
;
