#TITLE:Hypnotise;
#ARTIST:Anya Jasmine;
#BANNER:Hypnotise-bn.png;
#BACKGROUND:Hypnotise-bg.png;
#JACKET:Hypnotise-jacket.png;
#MUSIC:Hypnotise.ogg;
#SAMPLESTART:55.25;
#SAMPLELENGTH:20;
#DISPLAYBPM:139;
#BPMS:0=139;
#BGCHANGES:;

//---------------dance-single - ----------------
#NOTES:
     dance-single:
     :
     Beginner:
     3:
     :
0000
0000
0000
0000
,
0000
0000
0000
0000
,
0000
0000
0000
0000
,
0000
0000
0000
0000
,
0000
0000
0000
0000
,
0000
0000
0000
0000
,
0000
0000
0000
0000
,
0000
0000
0000
0000
,
0010
0000
0000
0000
,
1000
0000
0000
0000
,
0001
0000
0000
0000
,
0100
0000
0000
0000
,
0010
0000
0000
0000
,
1000
0000
0000
0000
,
0100
0000
0000
0000
,
0001
0000
0000
0000
,
0010
0000
0001
0000
,
0100
0000
0001
0000
,
1000
0000
0100
0000
,
1000
0000
0010
0000
,
0100
0000
0100
0000
,
0010
0000
0010
0000
,
1000
0000
1000
0000
,
0001
0000
0001
0000
,
0010
0010
0010
0000
,
0000
0000
0000
0000
,
0100
0100
0100
0000
,
0000
0000
0000
0000
,
1000
1000
1000
0000
,
0000
0000
0001
0000
,
1000
1000
1000
0000
,
0000
0000
0010
0010
,
0010
0000
0100
0000
,
0010
0000
1000
0000
,
0001
0000
0010
0000
,
0001
0000
0001
0000
,
0001
0000
0100
0000
,
0010
0010
0010
0000
,
1000
0000
0001
0000
,
1000
0000
1000
1000
,
1000
0000
0100
0000
,
0010
0000
0001
0000
,
0100
0100
0100
0000
,
0010
0000
1000
0000
,
0001
0000
0010
0000
,
0001
0000
0100
0000
,
1000
0000
0010
0000
,
1000
1000
1000
1000
,
1000
0000
0001
0000
,
0000
0000
0010
0000
,
0001
0000
0100
0000
,
0000
0000
0000
0000
,
1000
1000
1000
0000
,
0010
0000
0100
0000
,
0001
0001
0001
0000
,
1000
0000
0001
0000
,
0100
0000
0000
0000
;

//---------------dance-single - ----------------
#NOTES:
     dance-single:
     :
     Easy:
     6:
     :
0000
0000
0000
0000
,
0000
0000
0000
0000
,
0000
0000
0000
0000
,
0000
0000
0000
0000
,
0000
0000
0000
0000
,
0000
0000
0000
0000
,
0000
0000
0000
0000
,
0000
0000
0000
0000
,
0020
0000
0000
0030
,
2000
0000
0000
3000
,
0002
0000
0000
0003
,
0200
0000
0000
0300
,
0020
0030
2000
3000
,
0002
0003
0200
0300
,
0020
0030
2000
3000
,
0002
0000
1000
1003
,
0001
0100
0001
0100
,
0000
0010
1000
0001
,
0010
0001
0010
0100
,
0000
1000
0000
0001
,
0100
0010
0100
0001
,
0010
0001
1000
0100
,
1000
1000
0001
0001
,
1000
0001
0100
0100
,
0010
1000
0001
0000
,
0110
0000
1001
0000
,
0010
1000
0001
0000
,
0110
0000
1001
0000
,
0001
0100
1000
0000
,
0010
0000
1000
0100
,
1000
0001
0100
0000
,
0010
0000
0110
1001
,
0001
0100
1000
0000
,
0010
1000
0100
0001
,
0010
0100
0010
0000
,
0001
0001
1000
0001
,
1000
0100
0010
0000
,
0001
0100
0001
1000
,
0010
1000
0100
0000
,
1000
1000
0001
0001
,
0010
0001
0100
0000
,
0010
0100
0010
1000
,
0100
0001
0010
0000
,
0001
0001
1000
1000
,
0010
1000
0001
0000
,
0010
0001
0100
1000
,
0010
1000
0100
0000
,
1000
0001
1000
0001
,
0010
0001
1000
0000
,
0010
0000
0100
0100
,
0010
1000
0001
0000
,
0000
0100
0000
0001
,
0010
0001
1000
0100
,
1000
0010
0100
0001
,
0010
0001
0100
0001
,
1000
0010
1000
0001
,
0200
0000
0000
0000
,
0000
0000
0000
0000
,
0300
0000
0000
0000
;

//---------------dance-single - ----------------
#NOTES:
     dance-single:
     :
     Medium:
     11:
     :
0000
0000
0000
0000
,
0000
0000
0000
0000
,
0000
0000
0000
0000
,
0000
0000
0000
0000
,
0000
0000
0000
0000
,
0000
0000
0000
0000
,
0000
0000
0000
0000
,
0000
0000
0000
0000
,
0000
0010
0000
0010
0000
0010
0000
0010
,
0000
1000
0000
1000
0000
1000
0000
1000
,
0000
0001
0000
0001
0000
0001
0000
0001
,
0000
0100
0000
0100
0000
0100
0000
0100
,
0000
0001
0000
0001
0000
1000
0000
1000
,
0000
0010
0000
0010
0000
0100
0000
0100
,
0000
0001
0000
0010
0000
0100
0000
1000
,
0002
0000
0000
0000
0103
0010
0100
0010
,
1000
0001
0100
0010
0000
1000
0000
0001
,
0000
0010
0001
0100
0000
0010
0000
1000
,
0000
0100
1000
0001
0000
0010
0000
0001
,
0000
0100
0010
0100
0000
0001
0000
1000
,
0100
0000
1000
0001
0010
0000
0001
0100
,
0010
0000
0000
0000
1000
0000
0001
0000
0100
0000
0000
0010
1000
0000
0001
0000
,
0010
0000
0000
0001
0010
0000
0100
0000
1000
0000
0000
0001
1000
0000
0100
0000
,
0010
0001
0000
1000
0001
0100
0010
0100
,
0001
0000
0001
0000
0001
0000
0010
0100
0000
0100
0000
0000
0000
0000
0000
0000
,
0000
1000
0001
0100
0000
0001
0010
0100
,
1000
0000
1000
0000
1000
0000
0001
0100
0000
0100
0000
0000
0000
0000
0000
0000
,
0010
0000
0000
0000
1000
0000
0100
0000
0010
0000
0000
0001
0100
0000
0010
0000
,
1000
0000
1000
0000
1000
0000
0001
0100
0000
0100
0000
0000
0000
0000
0000
0000
,
0000
0000
0010
1000
0000
0000
0001
0000
0000
0000
0010
0000
0000
0000
0100
0000
,
0010
0000
0010
0000
0010
0000
0001
1000
0000
1000
0000
0000
0000
0000
0000
0000
,
0010
0000
1000
0000
0000
0000
0100
0000
1000
0001
1000
0001
1000
0000
0100
0000
,
0010
0000
0010
0000
0010
0000
0001
1000
0000
0001
0000
0000
0000
0000
0000
0000
,
0100
0000
0100
0000
0100
0000
0010
1000
0000
0000
0010
0000
0000
0000
0100
0000
,
0001
0000
0001
0000
0001
0000
1000
0100
0000
1000
0000
0000
0000
0000
0000
0000
,
0010
0100
0010
1000
0100
0010
0001
1000
,
0001
0000
0001
0000
0001
0000
0100
0010
0000
1000
0000
0000
0000
0000
0000
0000
,
0100
0000
0100
0000
0100
0000
1000
0001
0000
0000
0010
0000
0001
0000
1000
0000
,
0010
0000
0010
0000
0010
0000
1000
0001
0000
0000
0000
0000
0000
0000
0000
0000
,
0010
0000
0001
0000
0010
0000
0100
0000
1000
0010
1000
0010
1000
0000
0001
0000
,
0100
0000
0100
0000
0100
0000
0001
0010
0000
0000
0001
0000
0000
0000
1000
0000
,
0100
0000
0100
0000
0100
0000
0010
0001
0000
0000
1000
0000
0000
0000
0001
0000
,
1000
0000
1000
0000
1000
0000
0001
0010
0000
0000
0000
0000
0000
0000
0000
0000
,
0001
0100
0001
0100
0001
0000
1000
0000
0010
0000
0100
0000
0001
0000
1000
0000
,
0100
0000
0100
0000
0100
0000
0010
0100
0000
0000
0000
0000
0000
0000
0000
0000
,
0010
0000
0010
0000
0010
0000
0001
0100
0000
0000
0010
0000
0000
0000
1000
0000
,
0001
0000
0001
0000
0001
0000
1000
0001
0000
0000
0000
0000
0000
0000
0000
0000
,
0010
0000
0001
0000
1000
0000
0001
0000
0100
0000
0010
1000
0010
0000
0100
0000
,
0001
0000
0010
0000
0001
0000
0010
0100
0000
1000
0000
0000
0000
0000
0000
0000
,
0000
0000
0001
1000
0000
0000
0100
0000
0010
0000
0001
0000
1000
0000
0001
0000
,
0100
0000
0010
0000
1000
0000
0010
1000
0000
0001
0000
0000
0000
0000
0000
0000
,
0000
0000
0010
0001
0000
0000
1000
0000
0000
0000
0100
1000
0000
0000
0001
0000
,
0100
0000
0100
0000
0100
0000
0001
1000
0000
0010
0000
0000
0000
0000
1000
0000
,
1000
0000
0000
0001
0000
0000
0100
0000
0100
0000
0010
0000
1000
0000
0001
0000
,
0010
0000
0010
0000
0010
0000
0001
1000
0000
1000
0000
0000
0000
0000
0000
0000
,
0010
0000
0000
1000
0001
0000
0100
0000
0001
1000
0001
1000
0001
0000
0200
0000
,
0000
0000
0000
0000
,
0000
0000
0000
0000
,
0300
0000
0000
0000
;

//---------------dance-single - ----------------
#NOTES:
     dance-single:
     :
     Hard:
     15:
     :
0000
0000
0000
0000
,
0000
0000
0000
0000
,
0000
0000
0000
0000
,
0000
0000
0000
0000
,
0000
0000
0000
0000
,
0000
0000
0000
0000
,
0000
0000
0000
0000
,
0000
0000
0000
0000
,
0000
0000
0010
0100
0000
0000
0010
0100
0000
0000
0010
0100
0000
0000
0010
0000
,
0000
0000
1000
0001
0000
0000
1000
0001
0000
0000
1000
0001
0000
0000
1000
0000
,
0000
0000
0001
0100
0000
0000
0001
0100
0000
0000
0001
0100
0000
0000
0001
0000
,
0000
0000
1000
0100
0000
0000
1000
0100
0000
0000
1000
0100
0000
0000
1000
0000
,
0000
0000
0010
1000
0000
0000
0010
1000
0000
0000
0010
1000
0000
0000
0010
1000
,
0000
0000
0001
0010
0000
0000
0001
0010
0000
0000
0001
0010
0000
0000
0001
0010
,
0000
0000
0001
0100
0000
0000
0010
1000
0000
0000
0100
1000
0000
0000
0001
0010
,
0002
0000
0000
0000
0103
0100
0010
1000
,
0001
0000
1000
0100
0000
0000
0010
0001
0000
0000
0100
0010
0000
0000
1000
0000
,
0010
0000
1000
0001
0000
0000
0010
0100
0000
0000
0010
0001
0000
0000
1000
0000
,
0100
0000
0010
0001
0000
0000
1000
0001
0000
0000
0100
0010
0000
0000
1000
0000
,
0001
0000
0010
0100
0000
0000
1000
0010
1000
0000
0001
0100
0000
0000
0010
0000
,
1000
0000
0001
0100
0001
0000
0010
0000
0100
0000
1000
0001
1000
0000
0010
0000
,
0100
0000
0001
0010
0001
0000
1000
0000
0100
0000
0010
0001
0010
0000
0100
0000
,
1000
0000
0001
0010
0001
0000
1000
0100
1000
0000
0010
0100
0010
0000
1000
0000
,
0001
0000
0010
0100
0010
0000
0001
0000
1000
0000
0010
0100
0010
0000
1000
0000
,
0001
0000
0001
0100
0001
0000
0010
0100
0000
1000
0000
0001
0100
0000
0010
0000
,
1000
0000
0100
0010
0001
0000
0100
0010
1000
0000
0001
1000
0100
0000
0010
0000
,
0001
0000
0001
0100
0001
0000
1000
0010
0000
0100
0000
0001
1000
0000
0100
0000
,
0010
0000
0001
0100
0001
0000
0010
0000
0100
0000
1000
0010
1000
0000
0001
0000
,
0100
0000
0100
0000
0100
0000
0010
1000
0000
0001
0000
0010
0001
0000
0100
0000
,
0010
0000
1000
0100
0000
0000
0010
0001
0100
0000
0010
1000
0001
0000
0100
0000
,
0010
0000
0010
1000
0010
0000
0100
0001
0000
1000
0001
0100
0010
0000
1000
0000
,
0001
0000
0010
0001
1000
0000
0010
1000
0100
0000
0010
0001
1000
0000
0010
0000
,
0100
0000
0001
0010
0001
0000
1000
0010
0000
0000
0100
0001
1000
0000
0010
0000
,
1000
0000
1000
0000
1000
0000
0100
0010
0000
0000
0001
0100
0000
0001
0100
0000
,
0010
0000
0010
0000
0010
0000
1000
0001
0000
1000
0000
0100
0010
0000
0001
0000
,
0100
0001
0010
0001
0010
0100
1000
0100
1000
0010
0100
0010
1000
0000
0001
0000
,
0010
0000
0010
0000
0010
0000
0001
1000
0001
0000
0100
0010
1000
0000
0001
0000
,
0100
0000
0100
0000
0100
0000
0001
0010
0100
0000
1000
0001
1000
0000
0010
0000
,
0100
0000
0100
0001
0100
0000
0010
1000
0001
0000
0010
0100
1000
0000
0001
0000
,
1000
0010
0100
0001
0000
0010
0100
1000
0010
0100
0010
1000
0001
0000
0100
0000
,
0001
0000
0001
0000
0001
0000
1000
0100
0000
0000
0010
0001
0000
0000
0010
0000
,
0100
0000
0100
0000
0100
0000
1000
0001
0000
0000
0010
0000
0001
0000
1000
0000
,
0010
0000
0010
0000
0010
0000
1000
0100
1000
0000
0001
0000
0100
0000
0010
0000
,
1000
0100
0010
0001
0100
0000
0010
1000
0001
0010
0001
0100
0010
0000
1000
0000
,
0100
0000
0100
0000
0100
0000
1000
0001
0010
0000
0100
0000
0000
0000
1000
0001
,
1000
0000
1000
0000
1000
0000
0010
0100
0000
0000
0001
0000
1000
0000
0100
0000
,
0010
0000
0010
0000
0010
0000
0001
1000
0001
0000
0000
0000
0110
0000
0000
0000
,
1000
0100
1000
0001
0100
0000
0010
1000
0010
0100
0001
1000
0001
0000
0100
0000
,
0001
0000
0001
0000
0001
0000
0010
0100
1000
0000
0000
0000
1100
0000
0000
0000
,
1000
0010
0100
0010
1000
0100
0010
0100
,
1000
0000
1000
0000
1000
0000
0010
0100
0000
0001
0000
0000
0010
0000
0001
0000
,
1000
0000
0100
0010
0100
0000
0010
0000
0001
0000
1000
0010
1000
0000
0001
0000
,
0100
0000
0100
0010
0100
0000
0001
1000
0000
1000
0000
0000
0100
0000
0010
0000
,
0001
0000
0100
0010
0100
0000
0001
0000
1000
0000
0010
0000
1000
0000
0001
0000
,
0100
0000
0100
0000
0100
0000
0001
0010
0000
0010
0000
0100
1000
0000
0001
0000
,
0100
0000
0010
1000
0010
0000
0100
0000
0001
0010
0100
1000
0001
0000
0200
0000
,
0000
0000
0000
0000
,
0000
0000
0000
0000
,
0300
0000
0000
0000
;
