#TITLE:Hunny Bunny;
#SUBTITLE:;
#ARTIST:U1 overground;
#TITLETRANSLIT:;
#SUBTITLETRANSLIT:;
#ARTISTTRANSLIT:;
#GENRE:;
#CREDIT:;
#BANNER:Hunny Bunny-bn.png;
#BACKGROUND:Hunny Bunny-bg.png;
#LYRICSPATH:;
#CDTITLE:;
#MUSIC:Hunny Bunny.ogg;
#OFFSET:0.000000;
#SAMPLESTART:25.483999;
#SAMPLELENGTH:20.000000;
#SELECTABLE:YES;
#DISPLAYBPM:160.000000;
#BPMS:0.000000=160.000000
;
#STOPS:64.000000=1.125000,
189.000000=1.125000
;
#BGCHANGES:;
#KEYSOUNDS:;
#ATTACKS:;

//---------------dance-single - ----------------
#NOTES:
     dance-single:
     :
     Beginner:
     2:
     0.123313,0.213874,0.119650,0.051279,0.000000,101.000000,87.000000,14.000000,6.000000,0.000000,0.000000,0.123313,0.213874,0.119650,0.051279,0.000000,101.000000,87.000000,14.000000,6.000000,0.000000,0.000000:
0000
0000
0000
0000
,
0000
0000
0000
0000
,
0000
0000
0000
0000
,
0000
0000
0000
0000
,
0000
0000
0000
0000
,
0002
0000
0000
0000
,
0003
0000
0000
0000
,
2000
0000
0000
0000
,
3000
0000
0000
0000
,
1001
0000
0000
0000
,
0001
0000
0001
0000
,
0001
0000
0000
0000
,
1000
0000
1000
0000
,
1000
0000
0000
0000
,
0010
0000
0010
0000
,
0100
0000
0100
0000
,
0000
0000
0000
1001
,
0000
0000
0000
0001
,
0001
0001
0000
1001
,
0000
0000
0000
1000
,
1000
1000
0000
1001
,
0000
0000
0000
0001
,
0001
0001
0000
1001
,
0000
0000
0000
1000
,
1000
1000
0000
0100
,
0000
0001
0000
0000
,
0000
0001
0000
0010
,
0000
0001
0000
0000
,
0000
0001
0000
0010
,
0000
1000
0000
0000
,
0000
1000
0000
0010
,
0000
1000
0000
0000
,
0000
1001
0000
0000
,
0000
1000
0000
0010
,
0000
1001
0000
0000
,
0000
0001
0000
0010
,
0000
1001
0000
0000
,
0000
1001
0000
0000
,
0000
1001
0000
0000
,
0000
0000
0000
0000
,
0000
0001
0000
0010
,
0000
0100
0000
0100
,
0000
0001
0000
0100
,
0000
1000
0000
0000
,
0000
1000
0000
0010
,
0000
0100
0000
0100
,
0000
1000
0000
0100
,
0000
0000
0000
0000
,
0000
0000
0002
0000
,
0000
0000
0003
0000
,
0000
0000
2000
0000
,
0000
0000
3000
0000
,
0000
0000
0002
0000
,
0000
0000
0003
0000
,
0000
0000
2000
0000
,
0000
0000
3000
0000
,
1000
0000
0100
0000
,
1000
0000
0000
0000
,
0010
0000
1000
0000
,
0000
0000
1001
0000
,
0000
0000
1001
0000
,
0000
0000
1001
0000
,
0000
0000
0000
0000
,
0000
0000
0001
0000
,
0100
0000
0010
0000
,
0000
0000
0001
0000
,
0010
0000
1000
0000
,
0000
0000
1000
0000
,
0100
0000
0010
0000
,
0000
0000
1000
0000
,
0010
0000
0001
0000
,
0000
0000
1001
0000
,
0000
0000
0000
0000
;

//---------------dance-single - ----------------
#NOTES:
     dance-single:
     :
     Easy:
     6:
     0.257614,0.305535,0.452960,0.102557,0.000000,211.000000,158.000000,53.000000,12.000000,0.000000,0.000000,0.257614,0.305535,0.452960,0.102557,0.000000,211.000000,158.000000,53.000000,12.000000,0.000000,0.000000:
0000
0000
0000
0000
,
0000
0000
0000
0000
,
0000
0000
0000
0000
,
0000
0000
0000
0000
,
0000
0000
0000
0000
,
0001
1000
0001
0000
,
0001
0100
0001
0000
,
1000
0100
1000
0000
,
2002
0000
3003
0000
,
1000
0010
1000
0000
,
0110
0000
1001
0000
,
0001
0010
0001
0000
,
0110
0000
1001
0000
,
0001
0100
0010
0000
,
0110
0000
1001
0000
,
1000
0100
0010
0000
,
0000
0001
0001
0100
,
0000
0110
0000
1001
,
0000
1000
1000
0100
,
0000
0110
0000
1001
,
0000
1001
0000
0110
,
0000
1001
0000
0010
,
0010
1001
0000
0110
,
0000
1001
0000
0010
,
0010
1000
0100
0001
,
0000
0001
0100
1000
,
0000
0001
0100
1000
,
0000
1000
0100
0001
,
0000
1001
0000
0110
,
0000
1001
0000
0110
,
0000
0001
0010
0100
,
1000
0001
0001
0001
,
0000
0110
0000
1001
,
0000
0100
0001
0010
,
0000
0110
0000
1001
,
0000
0100
1000
0010
,
0000
0110
0000
0110
,
0000
1001
0000
0000
,
0000
0110
0000
0110
,
0000
1001
0000
0000
,
0000
1001
0000
1001
,
0000
0010
0010
0010
,
0000
1001
0000
1001
,
0000
0100
0100
0100
,
0000
0010
1000
0010
,
1000
0100
1000
0100
,
0000
0010
0001
0010
,
0001
0000
2002
0000
,
0000
0000
3003
0000
,
0000
0000
2002
0000
,
0000
0000
3003
0000
,
0000
0000
0220
0000
,
0000
0000
0330
0000
,
0000
0000
0220
0000
,
0000
0000
0330
0000
,
0000
0000
0001
1000
,
1001
0000
1000
0001
,
1001
0000
0010
0100
,
0110
0000
0100
0010
,
0110
0000
1001
0000
,
0110
0000
1001
0000
,
0110
0000
0001
1000
,
0001
0000
2002
0000
,
3003
0000
1000
0010
,
0001
0010
1000
0010
,
1000
0000
0001
0010
,
1000
0010
0001
0010
,
0001
0000
1000
0100
,
0010
0010
0001
0100
,
0010
0000
1010
0000
,
1100
0000
0101
0000
,
0011
0000
1001
0000
,
0000
0000
0000
0000
;

//---------------dance-single - ----------------
#NOTES:
     dance-single:
     :
     Medium:
     10:
     0.503018,0.519409,0.752085,0.230753,0.004273,412.000000,324.000000,88.000000,27.000000,0.000000,0.000000,0.503018,0.519409,0.752085,0.230753,0.004273,412.000000,324.000000,88.000000,27.000000,0.000000,0.000000:
0000
0000
0000
0000
,
0000
0000
0000
0000
,
0000
0000
0000
0000
,
0000
0000
0000
0000
,
0000
0000
0000
0000
,
1000
0001
1000
0000
0010
0100
0010
0000
,
1000
0001
1000
0000
0100
0010
0100
0000
,
1000
0100
1000
0100
0010
0001
0010
0000
,
2002
0000
0000
3003
,
1001
1100
0110
1100
,
1001
0000
0010
0100
0010
0100
0001
0000
,
1001
0101
0110
0101
,
1001
0000
0010
0100
0010
0100
1000
0000
,
0101
0101
0011
0011
,
0101
0101
1001
1001
,
1000
0100
1000
0100
0010
0001
0010
0000
,
0000
0000
0001
0100
0010
0000
1010
0000
,
1100
0000
1010
0000
0010
0001
0100
0001
,
0010
0000
0001
1000
0100
0000
0101
0000
,
0011
0101
1100
1010
,
1100
0000
0001
0100
0001
1000
0001
1000
,
0001
1000
0000
0000
1001
0000
0100
0010
,
0100
0000
0022
0000
0033
0202
0000
0303
,
2020
0000
3030
2200
0000
3300
0110
0000
,
1001
0000
0010
1000
0010
1000
0100
0010
,
0100
0000
0010
0001
0010
0000
0101
0000
,
1001
0000
0010
0001
0010
0001
0100
0010
,
0100
0000
0010
1000
0010
0000
1100
0000
,
1001
0000
1000
0100
1000
0000
0110
0000
,
1001
0000
0001
0100
0001
0000
0110
0000
,
1001
0000
0001
0010
0001
0000
1000
0100
,
1000
0000
0100
0010
0100
0000
0110
0000
,
1001
0000
1000
0010
0100
0000
0101
0000
,
0011
0000
0101
0000
0100
1000
0010
1000
,
0100
0000
1000
0001
0010
0000
1010
0000
,
1100
1010
0011
0101
,
0011
0000
1000
0010
1000
0001
0000
0000
,
1001
0000
0110
0000
1001
0000
0010
0100
,
0010
0000
2200
0000
3300
2020
0000
3030
,
0202
0000
0303
0022
0000
0033
0110
0000
,
1001
0000
0000
1100
0000
0110
0000
0011
,
0000
1000
0001
1000
0001
0000
0110
0000
,
1001
0000
0000
0101
0000
0011
0000
1001
,
0000
0010
0100
0010
0100
0000
0110
0000
,
1001
0000
0001
0100
0000
0001
0010
0000
,
0001
0100
0000
0001
0010
0000
0001
1000
,
0001
0000
1000
0010
0000
1000
0100
0000
,
1000
0010
0000
0000
2002
0000
0000
0000
,
0000
0000
0000
0000
,
0000
3003
0220
0000
,
0000
0000
0000
0000
,
0000
0000
0000
0000
0330
0000
0000
0000
0001
0000
0000
0100
0000
0000
0000
0000
,
1001
0000
0110
0000
,
2002
3003
0010
0100
,
0001
1000
0001
1000
0002
0000
0000
0000
,
0000
0000
0003
0000
0001
0010
0001
0100
,
0010
1000
0010
0000
1000
0010
1000
0100
,
0010
0001
0010
0000
0001
0100
1000
0100
,
0001
1000
0001
0000
1000
0100
0001
0100
,
1000
0001
1000
0000
0010
1000
0010
1000
,
0001
0010
0001
0010
0100
1000
0100
1000
,
0001
0100
0001
0100
0010
1000
0100
0000
,
0010
0001
0100
0000
2002
0000
0000
0000
,
0000
0000
3003
0000
0001
0100
0010
0100
,
0001
0000
1001
0000
1000
0100
0010
0001
,
1000
0000
1001
0000
0010
1000
0100
1000
,
0010
0000
0110
0000
0100
0001
0010
0100
,
1000
0000
1001
0000
1000
0100
1000
0100
,
0001
0100
1000
0000
0001
0010
0001
0010
,
1000
0010
0001
0000
1000
0010
1000
0010
,
0100
0001
0100
0000
0101
0000
0011
0000
,
1100
1010
1001
0000
,
0000
0000
0000
0000
;

//---------------dance-single - ----------------
#NOTES:
     dance-single:
     :
     Hard:
     15:
     0.719121,0.824944,0.846096,0.068371,0.423048,589.000000,490.000000,99.000000,8.000000,0.000000,0.000000,0.719121,0.824944,0.846096,0.068371,0.423048,589.000000,490.000000,99.000000,8.000000,0.000000,0.000000:
0000
0000
0000
0000
,
0000
0000
0000
0000
,
0000
0000
0000
0000
,
0000
0000
0000
0000
,
0000
0000
0000
0000
,
0001
0010
0100
1000
0001
0010
1000
0010
,
0001
0100
0010
1000
0001
0100
1000
0100
,
0001
0010
0001
0000
0100
0000
0001
0000
1000
0010
1000
0000
0100
0000
1000
0000
,
2002
0000
0000
3003
,
1100
0000
0000
0000
0110
0000
0000
0000
1001
0000
0000
0000
0100
0010
1000
0000
,
0011
0000
0000
0000
0110
0000
0000
0000
1001
0000
0000
0000
0010
0100
0001
0000
,
1100
0000
0000
0000
0101
0000
0000
0000
1010
0000
0000
0000
0100
0001
0010
0000
,
0101
0000
0000
0000
1100
0000
0000
0000
0011
0000
0000
0000
0100
1000
0010
0000
,
0101
0000
0000
0000
0110
0000
0000
0000
1100
0000
0000
0000
0001
1000
0010
0000
,
0101
0000
1001
0000
0110
0000
1000
0100
,
1000
0010
1000
0000
0100
0000
0010
0000
0001
0100
0001
0000
1000
0100
0010
0001
,
0000
0000
0000
0000
0001
0000
0100
0000
0001
0100
0000
0001
0100
0000
0000
0000
,
1010
0000
0000
0000
0101
0000
0001
0000
1000
0100
0000
1000
0100
0000
0000
0000
,
0011
0000
0000
0000
0101
0000
0100
0000
0010
1000
0000
0010
1000
0000
0000
0000
,
0110
0000
0000
0000
1001
0000
0100
0000
0010
0001
0000
0010
0001
0000
0000
0000
,
0110
0000
1001
0001
0200
0010
0010
0010
,
0010
0310
0000
0000
1001
0000
0010
0001
,
0101
0000
0000
0000
0001
0100
0001
0100
0001
0000
1000
0100
1000
0100
1000
0000
,
0001
0100
0001
0100
0001
0000
1000
0100
1000
0100
1000
0000
0001
0100
0001
0000
,
0100
0001
0100
0000
0010
0000
1000
0000
0110
0000
0000
0000
1001
0000
0000
0000
,
0010
0001
1000
0000
0100
0000
0010
0000
0110
0000
0000
0000
1100
0000
0000
0000
,
0100
0010
0001
0000
0100
0000
0010
0000
1010
0000
0000
0000
0011
0000
0000
0000
,
1000
0001
0100
0000
0010
0000
1000
0000
1010
0000
0000
0000
0101
0000
0000
0000
,
1000
0001
0010
0000
0100
0000
1000
0000
1001
0000
0000
0000
0011
0000
0000
0000
,
0100
0001
0010
0000
0100
0000
1000
0000
1100
0000
0000
0000
0110
0000
0000
0000
,
0100
0010
0001
0000
1000
0010
1000
0000
0001
0000
0100
0000
0010
1000
0010
0000
,
0100
0000
0001
0000
0010
0100
0010
0000
0001
0000
1000
0000
0010
0100
0010
0000
,
1000
0000
0001
0000
1000
0000
0010
0000
1000
0010
0000
1000
0010
0000
0000
0000
,
0101
0000
0000
0000
0110
0000
1000
0000
0001
0010
0000
0001
0010
0000
0000
0000
,
1010
0000
0000
0000
1010
0000
0010
0000
0100
0001
0000
0100
0001
0000
0000
0000
,
0110
0000
0000
0000
1001
0000
0010
0000
0100
1000
0000
0100
1000
0000
0000
0000
,
0110
0000
0001
1000
0010
0110
0000
0110
,
0010
0100
1001
0000
1001
0000
0100
1000
,
1010
0000
0000
0000
1000
0010
1000
0010
1000
0000
0001
0010
0001
0010
0001
0000
,
1000
0010
1000
0010
1000
0000
0001
0010
0001
0010
0001
0000
1000
0010
1000
0000
,
0010
1000
0010
0000
0100
0000
0101
0000
0000
0000
0110
0000
0000
0000
1010
0000
,
0100
0010
0100
0000
1000
0000
0010
0000
1000
0100
0000
0010
0100
0000
0000
0000
,
1001
0001
0100
0110
0000
1001
0000
1010
,
1000
0100
1000
0000
0001
0000
0010
0000
0100
0010
0000
0001
0100
0000
0000
0110
,
0000
0110
1000
1010
1000
0010
0011
0010
,
0001
0101
0001
0100
1100
0100
1000
1010
,
0010
0011
0001
0101
0001
0100
1100
0100
,
1000
1010
0000
0000
2002
0000
0000
0000
,
0000
0000
0000
0000
,
0000
3003
0220
0000
,
0000
0000
0000
0000
,
0000
0000
0000
0000
0330
0000
0000
0000
0001
0000
1000
0001
0000
0000
0000
0000
,
1001
0000
1010
0000
1100
0000
0010
0001
,
0100
0000
0001
0000
0011
0000
0000
0000
1000
0010
1000
0000
0010
0001
0010
0000
,
1000
0010
1000
0000
0100
0001
0100
1000
0200
0000
0000
0000
0000
0000
0000
0000
,
0000
0000
0000
0000
0300
0000
0000
0000
1000
0000
0010
0000
0100
0001
0010
0000
,
0001
0000
0100
0000
0010
1000
0100
0000
0010
0000
0100
0000
0010
0001
0100
0000
,
0001
0000
1000
0000
0100
1000
0010
0000
1000
0000
0001
0000
0010
1000
0010
0000
,
0001
0000
1000
0000
0001
0010
1000
0000
0010
0000
0001
0000
0100
1000
0100
0000
,
0001
0000
0100
0000
1000
0100
0001
0000
1000
0100
0010
0000
0100
0010
0001
0000
,
0011
0000
0000
0101
0000
0000
1001
0000
0001
0100
0010
0000
0100
0010
1000
0000
,
1010
0000
0000
1100
0000
0000
1001
0000
0011
0000
0001
0000
0101
0000
0000
0000
,
1100
0000
1000
0000
1001
0000
0000
0000
0001
0100
0001
0100
1000
0100
0001
0000
,
1000
0010
1000
0010
0001
0010
0001
0010
1000
0000
0000
0100
1000
0000
0010
0000
,
0110
0000
0000
0000
1001
0000
0001
0000
0010
0000
0000
0001
0100
0000
0010
0000
,
1010
0000
0000
0000
1100
0000
0100
0000
0010
0000
0000
0001
1000
0000
0100
0000
,
0110
0000
0000
0000
0101
0000
0001
0000
1000
0000
0000
0001
0010
0000
0100
0000
,
1100
0000
1001
0000
1010
1000
0100
0010
,
0001
0010
0001
0000
0010
0001
0010
0000
0001
0000
0010
0000
0100
0000
1000
0000
,
0010
1000
0010
0000
1000
0010
1000
0000
0100
0000
0001
0000
0100
0000
1000
0000
,
0010
0100
1001
0000
0001
0010
1000
0001
,
0100
1000
1001
0000
0110
0000
0000
0000
,
0000
0000
0000
0000
;

//---------------dance-double - ----------------
#NOTES:
     dance-double:
     :
     Easy:
     6:
     0.263718,0.305535,0.495693,0.102557,0.000000,216.000000,158.000000,58.000000,12.000000,0.000000,0.000000,0.263718,0.305535,0.495693,0.102557,0.000000,216.000000,158.000000,58.000000,12.000000,0.000000,0.000000:
00000000
00000000
00000000
00000000
,
00000000
00000000
00000000
00000000
,
00000000
00000000
00000000
00000000
,
00000000
00000000
00000000
00000000
,
00000000
00000000
00000000
00000000
,
10000000
01000000
10000000
00000000
,
01000000
00100000
00001000
00000000
,
00010000
00001000
00010000
00000000
,
00022000
00000000
00033000
00000000
,
00000100
00000010
00000001
00000000
,
00001001
00000000
00000110
00000000
,
00000010
00001000
00000100
00000000
,
00011000
00000000
00011000
00000000
,
00010000
00001000
01000000
00000000
,
01100000
00000000
10010000
00000000
,
00100000
01000000
00100000
00000000
,
00000000
10000000
10000000
01000000
,
00000000
00010000
00000000
00011000
,
00000000
00001000
00001000
00000010
,
00000000
00000001
00000000
00001001
,
00000000
00000110
00000000
00000110
,
00000000
00011000
00000000
00011000
,
00000000
01100000
00000000
01100000
,
00000000
10010000
00000000
10010000
,
00000000
10000000
01000000
00010000
,
00000000
00011000
00000000
00011000
,
00000000
00001000
00000010
00000001
,
00000000
00001001
00000000
00001001
,
00000000
00000010
00000100
00001000
,
00000000
00011000
00000000
00011000
,
00000000
00100000
00010000
01000000
,
00000000
01100000
00000000
10010000
,
00000000
10010000
00000000
01100000
,
00000000
00010000
00001000
00010000
,
00000000
00011000
00000000
00000110
,
00000000
00000001
00001000
00000001
,
00000000
00001001
00000000
00000110
,
00000000
00001000
00010000
00001000
,
00000000
00011000
00000000
01100000
,
00000000
00010000
10000000
00010000
,
00000000
10010000
00000000
01100000
,
00000000
00001000
00001000
00001000
,
00000000
00011000
00000000
00000110
,
00000000
00001000
00001000
00001000
,
00000000
00001001
00000000
00000110
,
00000000
00010000
00010000
00010000
,
00000000
00000110
00000000
00011000
,
00000000
00000000
00022000
00000000
,
00000000
00000000
00033000
00000000
,
00000000
00000000
02200000
00000000
,
00000000
00000000
03300000
00000000
,
00000000
00000000
00022000
00000000
,
00000000
00000000
00033000
00000000
,
00000000
00000000
00000220
00000000
,
00000000
00000000
00000330
00000000
,
00000000
00000000
00001000
00010000
,
00011000
00000000
01000000
00100000
,
01100000
00000000
00010000
00001000
,
00011000
00000000
00000100
00000010
,
00000110
00000000
00001001
00000000
,
00000010
00001000
00011000
00000000
,
00001000
01000000
01100000
00000000
,
10000000
00010000
20020000
00000000
,
30030000
00000000
10000000
01000000
,
00100000
00001000
00010000
01000000
,
00010000
00001000
00000010
00000001
,
00000100
00001000
00010000
00001000
,
00000100
00001000
00010000
00100000
,
01100000
00000000
10000000
00010000
,
10010000
00000000
00100000
00010000
,
00001000
00000100
00000110
00000000
,
00010010
00000000
00011000
00000000
,
00000000
00000000
00000000
00000000
;

//---------------dance-double - ----------------
#NOTES:
     dance-double:
     :
     Medium:
     10:
     0.492030,0.549962,0.846096,0.239300,0.004273,403.000000,304.000000,99.000000,28.000000,0.000000,0.000000,0.492030,0.549962,0.846096,0.239300,0.004273,403.000000,304.000000,99.000000,28.000000,0.000000,0.000000:
00000000
00000000
00000000
00000000
,
00000000
00000000
00000000
00000000
,
00000000
00000000
00000000
00000000
,
00000000
00000000
00000000
00000000
,
00000000
00000000
00000000
00000000
,
10000000
01000000
10000000
00000000
00100000
01000000
00010000
00000000
,
00100000
00001000
00010000
00000000
00000100
00001000
00000100
00000000
,
00000010
00000001
00000010
00000001
00001000
00000100
00010000
00000000
,
00022000
00000000
00000000
00033000
,
00101000
00110000
01010000
01100000
,
10010000
00000000
00000000
00000000
01000000
00100000
01000000
00000000
,
01010000
00110000
00011000
00010010
,
00001010
00000000
00000000
00000000
00000100
00000001
00000100
00000000
,
00000011
00000011
00001100
00001100
,
00011000
00011000
00110000
00110000
,
10000000
01000000
00010000
00000000
00001000
00010000
00000010
00010000
,
00000000
00000000
00000001
00001000
00000001
00000000
00000110
00000000
,
00001001
00000000
00001100
00000000
00000000
00000000
00010000
00001000
,
00010000
00000000
00001000
01000000
00010000
00000000
01100000
00000000
,
10100000
11000000
01010000
01001000
,
00011000
00000000
00001000
00010000
00000010
00000000
00000100
00000010
,
00000100
00000000
00000110
00000000
00001001
00000000
00000010
00000100
,
00000010
00000000
00002020
00000000
00003030
00002200
00000000
00003300
,
00022000
00000000
00033000
02020000
00000000
03030000
10010000
00000000
,
01100000
00000000
10000000
01000000
10000000
00100000
01000000
00100000
,
00010000
00000000
00001000
00000100
00000010
00000000
00001010
00000000
,
00001001
00000000
00000001
00000100
00000001
00000010
00000100
00000010
,
00001000
00000000
00010000
01000000
00100000
00000000
00110000
00000000
,
10010000
11000000
00110000
01010000
,
00011000
00001010
00011000
01010000
,
00011000
00001100
00000110
00000011
,
00000101
00001100
00001010
00011000
,
01010000
00000000
10000000
00010000
10000000
00000000
01100000
00000000
,
10010000
00000000
00110000
00000000
00000000
00000000
00001000
00010000
,
00001000
00000000
00010000
00000010
00001000
00000000
00000110
00000000
,
00000101
00000011
00001010
00010010
,
00011000
00000000
00010000
00001000
01000000
00000000
00100000
01000000
,
00100000
00000000
01100000
00000000
10010000
00000000
01000000
00100000
,
01000000
00000000
02020000
00000000
03030000
00220000
00000000
00330000
,
00022000
00000000
00033000
00002020
00000000
00003030
00001001
00000000
,
00000110
00000000
00000000
00001010
00000000
00000101
00000000
00001100
,
00000000
00010000
00001000
00100000
00010000
00000000
00100000
00000000
,
10010000
00000000
00000000
00110000
00000000
11000000
00000000
01010000
,
00000000
00001000
00010000
00000010
00001000
00000000
00000010
00000000
,
00001001
00000000
00000001
00000100
00000000
00000010
00001000
00000000
,
00000100
00010000
00000000
00001000
00100000
00000000
00010000
00000000
,
10010000
00000000
10000000
00100000
00000000
01000000
00010000
00000000
,
00100000
00001000
00000000
00000000
00022000
00000000
00000000
00000000
,
00000000
00000000
00000000
00000000
,
00000000
00033000
00002020
00000000
,
00000000
00000000
00000000
00000000
,
00000000
00000000
00000000
00000000
00003030
00000000
00000000
00000000
00000001
00000000
00000000
00000100
00000000
00000000
00000000
00000000
,
00000110
00000000
00010000
00000000
,
00022000
00033000
01000000
00100000
,
00010000
10000000
00010000
00000000
20020000
00000000
00000000
00000000
,
00000000
00000000
30030000
00000000
10000000
00100000
01000000
00100000
,
10000000
01000000
00100000
00010000
00100000
00001000
00010000
00001000
,
00010000
00000100
00001000
00000000
00000010
00000100
00000001
00000010
,
00000100
00001000
00000010
00000100
00001000
00010000
00001000
00100000
,
00010000
01000000
00100000
00000000
10000000
00100000
10000000
00100000
,
01000000
00010000
01000000
00000000
00001000
00010000
00001000
00010000
,
00000010
00001000
00000010
00000000
00000100
00000001
00001000
00000000
,
00000100
00010000
00001000
00000000
00022000
00000000
00000000
00000000
,
00000000
00000000
00033000
00000000
00010000
00100000
10000000
00000000
,
10100000
00000000
01100000
00000000
00100000
00010000
00001000
00000000
,
00001100
00000000
00000110
00000000
00000001
00001000
00000100
00000000
,
00000110
00000000
00000011
00000000
00000010
00001000
00010000
00000000
,
01010000
00000000
01100000
00000000
10000000
01000000
10000000
01000000
,
00010000
00001000
00010000
00000000
00001000
00010000
00001000
00010000
,
00001000
00000010
00000001
00000000
00000100
00001000
00000100
00000000
,
00000001
00000010
00000001
00000000
00001010
00000000
00010000
00000000
,
00011000
01000000
01100000
00000000
,
00000000
00000000
00000000
00000000
;

//---------------dance-double - ----------------
#NOTES:
     dance-double:
     :
     Hard:
     15:
     0.698365,0.855497,0.897375,0.076918,0.393135,572.000000,467.000000,105.000000,9.000000,0.000000,0.000000,0.698365,0.855497,0.897375,0.076918,0.393135,572.000000,467.000000,105.000000,9.000000,0.000000,0.000000:
00000000
00000000
00000000
00000000
,
00000000
00000000
00000000
00000000
,
00000000
00000000
00000000
00000000
,
00000000
00000000
00000000
00000000
,
00000000
00000000
00000000
00000000
,
00000001
00000010
00000001
00000010
00000100
00001000
00000010
00000100
,
00001000
00010000
00001000
00010000
00100000
01000000
00010000
00100000
,
01000000
10000000
01000000
00010000
00001000
00000010
00000001
00000000
,
00002002
00000000
00000000
00003003
,
00000011
00000000
00000000
00000000
00001001
00000000
00000000
00000000
00000101
00000000
00000000
00000000
00000100
00000010
00001000
00000000
,
00001100
00000000
00000000
00000000
00011000
00000000
00000000
00000000
00110000
00000000
00000000
00000000
01000000
00100000
10000000
00000000
,
11000000
00000000
00000000
00000000
10010000
00000000
00000000
00000000
10100000
00000000
00000000
00000000
01000000
00010000
00100000
00000000
,
00011000
00000000
00000000
00000000
01001000
00000000
00000000
00000000
00011000
00000000
00000000
00000000
00000100
00001000
00000010
00000000
,
00000110
00000000
00000000
00000000
00000101
00000000
00000000
00000000
00001100
00000000
00000000
00000000
00000010
00010000
00001000
00000000
,
00011000
00000000
00101000
00000000
01100000
00000000
00010000
01000000
,
00100000
10000000
00100000
00000000
01000000
00000000
00100000
00000000
00010000
00000000
00001000
00000000
00000100
00000000
00000001
00000000
,
00000000
00000000
00000000
00000000
00001000
00000000
00010000
00000000
00100000
10000000
00000000
00100000
10000000
00000000
00000000
00000000
,
11000000
00000000
00000000
00000000
01010000
00000000
00010000
00000000
00001000
00010000
00000000
00001000
00010000
00000000
00000000
00000000
,
00001100
00000000
00000000
00000000
00000011
00000000
00000001
00000000
00000100
00000010
00000000
00000100
00000010
00000000
00000000
00000000
,
00010010
00000000
00000000
00000000
00011000
00000000
00001000
00000000
00100000
00010000
00000000
00100000
00010000
00000000
00000000
00000000
,
10010000
00000000
00100000
00010000
00002000
00010000
00010000
00010000
,
00010000
00013000
00000000
00000000
00000110
00000000
00000001
00000100
,
00001001
00000000
00000000
00000000
00000001
00000100
00000001
00000100
00000001
00000000
00001000
00000100
00001000
00000100
00001000
00000000
,
00000010
00010000
00000010
00010000
00000010
00000000
00010000
00001000
00010000
00001000
00010000
00000000
00001000
00100000
00001000
00000000
,
01000000
00010000
01000000
00000000
01100000
00000000
00000000
00000000
10100000
00000000
00000000
00000000
00110000
00000000
00000000
00000000
,
01000000
00100000
00010000
00000000
01010000
00000000
00000000
00000000
00011000
00000000
00000000
00000000
00010100
00000000
00000000
00000000
,
00001000
00000100
00000010
00000000
00000011
00000000
00000000
00000000
00000101
00000000
00000000
00000000
00001100
00000000
00000000
00000000
,
00000001
00001000
00000010
00000000
00001010
00000000
00000000
00000000
00011000
00000000
00000000
00000000
00110000
00000000
00000000
00000000
,
01000000
00100000
10000000
00000000
00010000
00000000
01000000
00000000
01001000
00000000
00000000
00000000
00010000
00000100
00001000
00000000
,
00001100
00000000
00000000
00000000
00000001
00000000
00000010
00000000
00000110
00000000
00000000
00000000
00001000
00000010
00010000
00000000
,
00011000
00000000
00000000
00000000
01000000
00010000
01000000
00000000
00100000
00000000
10000000
00000000
01000000
00100000
01000000
00000000
,
00010000
00000000
00001000
00000000
00010000
00000100
00010000
00000000
00000010
00000000
00000100
00000000
00001000
00010000
00001000
00000000
,
00011000
00000000
00000000
00000000
00010000
00000000
00001000
00000000
00000010
00000001
00000000
00000010
00000001
00000000
00000000
00000000
,
00000101
00000000
00000000
00000000
00001100
00000000
00001000
00000000
00010000
00001000
00000000
00010000
00001000
00000000
00000000
00000000
,
01010000
00000000
00000000
00000000
10100000
00000000
10000000
00000000
01000000
00100000
00000000
01000000
00100000
00000000
00000000
00000000
,
00101000
00000000
00000000
00000000
00011000
00000000
00010000
00000000
00000010
00001000
00000000
00000010
00001000
00000000
00000000
00000000
,
00001001
00000000
00000010
00001000
00010000
00001000
00000000
00001000
,
00100000
00000000
01100000
00000000
10010000
00000000
10000000
01000000
,
10010000
00000000
00000000
00000000
10000000
00100000
10000000
00100000
10000000
00000000
00010000
00100000
00010000
00100000
00010000
00000000
,
01000000
00001000
01000000
00001000
01000000
00000000
00001000
00010000
00001000
00010000
00001000
00000000
00010000
00000100
00010000
00000000
,
00000010
00001000
00000010
00000000
00000100
00000000
00000101
00000000
00000000
00000000
00000011
00000000
00000000
00000000
00001010
00000000
,
00010000
00001000
00010000
00000000
00001000
00000000
00011000
00000000
00100000
00010000
00000000
01000000
00010000
00000000
00000000
00000000
,
01010000
01000000
00100000
10100000
00000000
11000000
00000000
01010000
,
00010000
00100000
00010000
00000000
00100000
00000000
00101000
00000000
00010000
00000100
00000000
00001000
00000100
00000000
00000000
00000110
,
00000000
00001001
00000001
00000001
00000101
00000100
00000100
00000110
,
00000010
00000010
00010010
00010000
00010000
00011000
00001000
00101000
,
00100000
01100000
10000000
10000000
10100000
00100000
00100000
01100000
,
01000000
01000000
00000000
00000000
00022000
00000000
00000000
00000000
,
00000000
00000000
00000000
00000000
,
00000000
00033000
00002002
00000000
,
00000000
00000000
00000000
00000000
,
00000000
00000000
00000000
00000000
00003003
00000000
00000000
00000000
00000001
00000000
00000000
00000100
00000000
00000000
00000000
00000000
,
00001010
00000000
01010000
00000000
,
00100000
00000000
01000000
00000000
00100000
00000000
00000000
00000000
10000000
01000000
10000000
00000000
00010000
00100000
00010000
00000000
,
00100000
00001000
00010000
00000000
00000100
00000010
00000001
00000000
00002002
00000000
00000000
00000000
00000000
00000000
00000000
00000000
,
00000000
00000000
00000000
00000000
00003003
00000000
00000000
00000000
00000001
00000000
00000100
00000000
00000010
00001000
00000100
00000000
,
00000010
00000000
00001000
00000000
00010000
00001000
00100000
00000000
00010000
00000000
01000000
00000000
00100000
10000000
00010000
00000000
,
00100000
00000000
01000000
00000000
10000000
01000000
00100000
00000000
01000000
00000000
10000000
00000000
00100000
01000000
00010000
00000000
,
00100000
00000000
00001000
00000000
00010000
00000100
00001000
00000000
00000010
00000000
00000100
00000000
00000001
00000010
00000001
00000000
,
00000100
00000000
00000010
00000000
00000110
00000000
00000000
00000000
00000001
00000100
00000010
00000000
00000100
00000010
00001000
00000000
,
00001100
00000000
00000000
00011000
00000000
00000000
00101000
00000000
00100000
00010000
01000000
00000000
00100000
01000000
00010000
00000000
,
00110000
00000000
00000000
10100000
00000000
00000000
10010000
00000000
11000000
00000000
00000000
00000000
00110000
00000000
00000000
00000000
,
00001100
00000000
00000000
00000000
00000011
00000000
00000000
00000000
00000001
00000100
00000010
00000100
00001000
00000100
00001000
00000000
,
00010000
01000000
00010000
01000000
00100000
01000000
10000000
00010000
10000000
00000000
00000000
01000000
00010000
00000000
00001000
00000000
,
00101000
00000000
00000000
00000000
00110000
00000000
00100000
00000000
00001000
00000000
00000000
00000010
00000100
00000000
00001000
00000000
,
00001100
00000000
00000000
00000000
00000011
00000000
00000001
00000000
00000100
00000000
00000000
00001000
00010000
00000000
00000010
00000000
,
00010010
00000000
00000000
00000000
00011000
00000000
00010000
00000000
00001000
00000000
00000000
00100000
01000000
00000000
10000000
00000000
,
10100000
00000000
10010000
00000000
01100000
10000000
01000000
00100000
,
00001000
00010000
00001000
00000000
00010000
00001000
00010000
00000000
00010100
00000000
00000100
00000000
00000010
00000000
00001000
00000000
,
00010000
00001000
00010000
00000000
00001000
00010000
00001000
00000000
00000100
00000000
00000001
00000000
00000010
00000000
00001000
00000000
,
00010000
01000000
10000000
00100000
10100000
00000000
01010000
00000000
,
00001100
00000011
00001001
00000000
,
00000000
00000000
00000000
00000000
;

//---------------dance-single - ----------------
#NOTES:
     dance-single:
     :
     Challenge:
     18:
     1.074408,1.036468,0.128196,0.076918,1.529810,880.000000,865.000000,15.000000,9.000000,0.000000,0.000000,1.074408,1.036468,0.128196,0.076918,1.529810,880.000000,865.000000,15.000000,9.000000,0.000000,0.000000:
// measure 0
0000
0000
0000
0000
,  // measure 1
0000
0000
0000
0000
,  // measure 2
0000
0000
0000
0000
,  // measure 3
0000
0000
0000
0000
,  // measure 4
0000
0000
0000
0000
,  // measure 5
1000
0100
0010
0000
0001
1000
0010
1000
0001
0000
0100
0010
2000
0000
0000
0000
,  // measure 6
3100
0010
0100
0010
0001
1000
0010
0100
0000
0001
1000
0001
0100
0010
1000
0010
,  // measure 7
1000
0100
1000
0100
0001
0100
0001
0100
1000
0010
1000
0010
0001
0010
0001
0010
,  // measure 8
1000
0100
0010
0001
0010
0100
1000
0100
0010
0001
0010
0100
1000
0100
0010
0001
,  // measure 9
0100
0000
0001
0000
0010
0100
0010
0001
1000
0000
0010
0100
0002
0000
0000
0000
,  // measure 10
1003
0000
0010
0000
1000
0001
1000
0001
0010
0100
1000
0000
0010
0000
0100
0001
,  // measure 11
1000
0000
0010
0000
0100
0001
0010
0001
1000
0000
0010
0100
0002
0000
0000
0000
,  // measure 12
1003
0000
0010
0000
1000
0001
0010
0001
0100
0010
1000
0001
0010
0100
1000
0000
,  // measure 13
0001
0000
0100
0000
0010
1000
0100
0010
0001
0000
1000
0001
0200
0000
0000
0000
,  // measure 14
0310
1000
0010
0100
0010
1000
0001
0010
1000
0010
0100
0010
0001
0000
0000
1000
,  // measure 15
0010
0100
0001
0100
0001
1000
0100
1000
0100
1000
0010
0001
0010
1000
0001
0010
,  // measure 16
0200
0000
0000
0000
1300
0000
0010
0000
0100
0001
0010
0001
1000
0000
0010
0100
,  // measure 17
0001
0000
1000
0000
0001
0000
0010
0000
0100
1000
0001
0000
0100
0010
1000
0000
,  // measure 18
0001
0000
0010
0001
0100
0000
0010
0000
1000
0100
0001
0100
0010
0000
0100
1000
,  // measure 19
0001
0000
0010
0001
0100
0000
0010
0000
1000
0100
0001
0000
0010
0000
0100
1000
,  // measure 20
0001
0000
0010
0001
1000
0000
0010
0000
1000
0100
0001
0000
0011
0000
0011
0000
,  // measure 21
0011
0000
0011
0000
0001
0000
0100
0000
0010
1000
0001
0000
0010
0000
0001
0100
,  // measure 22
1000
0000
0010
1000
0001
0100
1000
0001
0010
1000
0001
0100
1000
0001
0010
1000
,  // measure 23
0001
0100
1000
0001
0010
1000
0001
0100
1000
0001
0010
1000
0001
0100
0001
0100
,  // measure 24
0010
1000
0010
1000
0001
0010
1000
0010
0001
0000
0100
0001
0010
0000
0100
1000
,  // measure 25
0100
0000
1000
0000
0001
0100
1000
0100
0001
0000
0010
0001
0100
0010
1000
0000
,  // measure 26
0001
0100
0010
1000
0100
0001
0100
1000
0001
0000
0010
0100
0010
0001
1000
0010
,  // measure 27
0100
0000
0001
1000
0001
0100
0010
0100
0001
0010
0100
0010
0001
0100
0010
0100
,  // measure 28
0001
0000
1000
0001
0010
1000
0010
0001
0100
0000
0001
1000
0010
1000
0100
0000
,  // measure 29
1000
0010
0001
0010
1000
0000
0010
0100
0001
1000
0001
0000
1000
0010
1000
0010
,  // measure 30
0100
0001
0100
0001
0010
0100
0010
0001
0100
0010
1000
0001
1000
0010
1000
0100
,  // measure 31
0010
0100
0001
0100
1000
0010
0100
0010
0001
0010
1000
0001
1000
0010
0100
0001
,  // measure 32
0010
1000
0010
0001
0100
0000
0010
0000
1000
0001
0010
0001
1000
0000
0010
0100
,  // measure 33
0001
0000
1000
0100
0010
0000
0001
0000
1000
0001
0100
0000
0001
0000
0010
0100
,  // measure 34
1000
0000
0001
0010
1000
0000
0100
0000
1000
0001
0100
0000
0010
0000
0100
0001
,  // measure 35
0010
0000
0100
1000
0010
0000
0100
0000
0001
1000
0001
0000
0010
0000
0001
0100
,  // measure 36
0010
0000
1000
0100
1000
0000
0001
0000
0010
0100
1000
0000
0001
0000
0100
0001
,  // measure 37
1000
0000
0010
0100
0001
1000
0100
1000
0001
0010
0100
0000
1000
0000
0010
0100
,  // measure 38
0001
0000
1000
0001
1000
0010
0001
1000
0100
0001
1000
0010
0001
1000
0100
0001
,  // measure 39
1000
0010
0001
1000
0100
0001
1000
0010
0001
1000
0100
0001
1000
0010
1000
0010
,  // measure 40
0100
0001
0100
0001
0010
0000
0100
0000
1000
0010
0001
0000
0100
0000
0001
1000
,  // measure 41
0001
0010
0100
0000
1000
0000
0110
0000
0001
0010
0100
1000
0001
0000
0100
0001
,  // measure 42
0010
0100
1000
0001
0100
0000
0010
1000
0000
1000
0001
0000
0010
0001
0100
0000
,  // measure 43
0001
0010
1000
0000
0100
0000
1001
0000
0010
1000
0001
0010
0100
1000
0010
1000
,  // measure 44
0001
0010
0100
1000
0001
0100
0010
0100
0001
0100
0010
1000
0100
1000
0010
1000
,  // measure 45
0001
1000
0100
1000
0001
1000
0010
0100
0001
0100
0010
0100
0001
1000
0001
1000
,  // measure 46
0010
0100
0010
0100
0001
0010
0001
0010
0001
0010
0100
1000
0100
1000
0100
1000
,  // measure 47
0001
0000
0000
1000
0000
0000
0010
0000
0000
0100
0000
0000
0002
0000
0000
0000
0000
0000
0000
0000
0000
0000
0000
0003
1100
0000
0000
0000
0000
0000
0000
0000
0000
0000
0000
0000
0101
0000
0000
0000
0000
0000
0000
0000
0000
0000
0000
0000
,  // measure 48
0010
0101
1100
0000
,  // measure 49
1000
0010
1000
0000
1000
0000
1000
0010
1000
0000
0000
0000
1010
0000
0000
0000
,  // measure 50
0100
0011
1010
2000
,  // measure 51
3001
0010
0001
0000
0001
1000
0010
0100
0001
0000
0010
0100
1000
0000
0001
0000
,  // measure 52
0110
0000
2000
0000
3010
0100
0001
0000
,  // measure 53
0010
0001
0010
0000
0010
0000
0010
0000
1001
0000
0100
0000
0001
0000
0100
0000
,  // measure 54
0001
0010
0100
1000
0001
0000
0100
0000
0010
1000
0100
0010
0001
0100
0001
0010
,  // measure 55
0100
1000
0001
1000
0010
1000
0001
0100
0010
0000
1000
0000
0100
0010
0100
1000
,  // measure 56
0010
0100
0001
1000
0100
0001
0100
1000
0001
0000
0010
0000
0100
1000
0010
0001
,  // measure 57
0010
0100
0010
0001
0010
1000
0001
1000
0100
0000
0001
0000
0100
1000
0010
1000
,  // measure 58
0001
0010
0100
0010
0001
0100
0010
1000
0001
0100
1000
0100
0001
0010
1000
0010
,  // measure 59
0001
1000
0001
1000
0010
0100
0010
0100
0001
0000
0010
0000
0001
1000
0100
1000
,  // measure 60
0001
0010
0100
1000
0010
0100
0010
1000
0100
0001
0100
0010
0001
1000
0001
1000
,  // measure 61
0010
1000
0100
0001
0100
1000
0100
0010
0001
0010
0001
1000
0001
0010
0001
0100
,  // measure 62
1000
0100
0010
0100
0010
1000
0100
0001
0100
1000
0000
0010
0100
0010
1000
0001
,  // measure 63
0010
0100
1000
0010
0100
0001
0010
0100
1000
0000
0001
0100
0001
0010
0001
0100
,  // measure 64
0010
1000
0100
0010
0001
1000
0010
1000
0100
0001
0100
1000
0100
0001
0100
1000
,  // measure 65
0010
0100
0010
1000
0001
0010
1000
0010
0001
0000
0100
0000
0010
1000
0001
0010
,  // measure 66
0100
1000
0010
0100
1000
0100
0001
0010
1000
0010
0001
0100
0001
1000
0001
0010
,  // measure 67
0100
0010
1000
0010
0100
0010
0001
1000
0001
0100
0010
0100
0001
1000
0010
1000
,  // measure 68
0100
0010
0001
0100
0001
0010
0001
1000
0010
1000
0100
0010
0001
0100
1000
0100
,  // measure 69
0010
0100
1000
0100
0001
0010
0001
1000
0100
0010
0100
1000
0010
0100
0001
1000
,  // measure 70
0001
0010
0001
0100
0001
0010
0001
1000
0100
0010
1000
0010
0100
0010
1000
0010
,  // measure 71
0001
0100
0010
1000
0100
0001
0100
1000
0020
0000
0000
0000
0000
0000
0000
0000
,  // measure 72
0000
0000
0000
0000
,  // measure 73
0000
0000
0030
0000
;
