#TITLE:How It All Works Out;
#ARTIST:Faouzia;
#BANNER:How It All Works Out.png;
#BACKGROUND:How It All Works Out-bg.png;
#JACKET:How It All Works Out-jacket.png;
#MUSIC:How It All Works Out.ogg;
#SAMPLESTART:27.692;
#SAMPLELENGTH:20;
#DISPLAYBPM:117;
#BPMS:0=117;
#BGCHANGES:;

//---------------dance-single - ----------------
#NOTES:
     dance-single:
     :
     Beginner:
     3:
     :
0000
0000
0000
0000
,
0000
0000
0000
0000
,
1000
0000
0001
0000
,
0010
0010
0000
0000
,
0000
0000
0001
0000
,
0100
0100
0100
0000
,
0010
0000
1000
0000
,
0001
0001
0000
0000
,
0000
0000
0010
0000
,
0001
0001
0001
0000
,
1000
0000
0001
0000
,
0010
0000
0001
0000
,
1000
0000
0010
0000
,
0100
0000
0001
0001
,
0001
0000
1000
0000
,
0000
0000
0010
0000
,
1000
0000
1000
0000
,
1000
0000
0100
0100
,
0000
0000
1000
0000
,
0100
0000
0001
0001
,
0000
0000
0010
0000
,
0001
0001
0001
0000
,
0100
0000
0010
0000
,
0000
0000
1000
0000
,
0001
0000
0001
0000
,
0001
0000
0100
0100
,
0000
0000
0010
0000
,
0100
0000
0001
0001
,
0000
0000
0010
0000
,
1000
1000
1000
0000
,
0010
0000
0100
0000
,
0001
0001
0000
0000
,
1000
0000
0100
0000
,
1000
1000
1000
0000
,
0010
0000
1000
0000
,
0001
0002
0003
0000
,
0010
0000
0001
0000
,
0100
0100
0100
0000
,
0010
0000
1000
0000
,
0010
0000
1000
0000
,
0100
0000
0010
0000
,
0001
0000
1000
0000
,
1001
0000
0000
0000
,
0110
0000
0000
0000
,
1001
0000
0000
0000
,
0110
0000
1000
1000
,
1000
0000
0100
0000
,
0000
0000
0001
0000
,
0010
0000
0010
0000
,
0010
0000
0100
0100
,
0000
0000
1000
0000
,
0100
0000
0001
0001
,
0000
0000
1000
0000
,
0010
0010
0010
0000
,
0010
0000
0100
0000
,
0000
0000
0001
0000
,
1000
0000
1000
0000
,
1000
0000
0100
0100
,
0000
0000
1000
0000
,
0100
0000
0001
0001
,
0000
1000
0000
0000
,
0001
0001
0001
0000
,
0020
0000
0000
0000
,
0000
0000
0000
0030
;

//---------------dance-single - ----------------
#NOTES:
     dance-single:
     :
     Easy:
     7:
     :
0000
0000
0000
0000
,
0000
0000
0000
0000
,
1000
0000
0010
1000
,
0100
0001
0010
0001
,
0100
0000
0001
0010
,
0001
1000
0100
0010
,
0001
0000
0010
0001
,
0100
1000
0001
1000
,
0010
0000
1000
0100
,
1000
0000
0010
0000
0100
0000
0000
0001
,
0000
1000
0000
0000
0010
0000
0000
0100
,
0000
0001
0000
0000
0010
0000
0000
0100
,
0000
1000
0000
0000
0001
0000
0000
1000
,
0000
0001
0000
0000
0100
0000
0100
0000
,
2002
3000
0200
0303
,
0010
0010
1000
1000
,
0200
0300
2000
3000
,
0001
0010
0001
0100
,
0010
0010
1000
0001
,
0100
0100
0110
1001
,
0001
0001
1000
0100
,
0010
0010
0100
0100
,
2002
0003
0020
3030
,
1000
0010
0100
0001
,
0020
0030
0002
0003
,
0010
0001
1000
0100
,
1000
1000
0010
0001
,
0100
0100
0110
1001
,
0010
1000
0100
0100
,
1000
0001
0100
0000
,
0010
0000
0100
0010
,
1000
1000
0100
0001
,
0010
0001
0010
0100
,
1000
0010
1000
0001
,
0100
0000
0001
0010
,
0001
1000
0002
0000
0003
0000
0000
0000
,
0010
0000
0001
0010
,
1000
0000
0100
0000
1000
0000
0000
0010
,
0000
0100
0000
0000
0001
0000
0000
0010
,
0000
0100
0000
0000
1000
0000
0000
0001
,
0000
1000
0000
0000
0001
0000
0000
0100
,
0000
0010
0000
0000
1000
0000
0000
0100
,
0000
1000
0000
0000
0001
0000
0000
0010
,
0000
0001
0000
0000
0100
0000
0000
0100
,
0000
1000
0000
0000
0010
0000
0000
1000
,
0000
0001
0000
0000
0010
0000
0010
0000
,
2002
0003
0002
3003
,
0010
0001
0100
1000
,
0002
0003
2000
3000
,
0010
1000
0100
0100
,
1000
0010
0001
0001
,
0100
0010
0110
1001
,
0010
1000
0100
0001
,
0010
0010
0010
0001
,
2002
3000
2000
3003
,
0001
0010
1000
0100
,
2000
3000
0002
0003
,
0010
0001
1000
0100
,
1000
0010
0001
1000
,
0100
0100
0110
1001
,
0001
0010
0001
0100
,
1000
0001
0100
0000
,
0020
0000
0000
0000
,
0000
0000
0000
0030
;

//---------------dance-single - ----------------
#NOTES:
     dance-single:
     :
     Medium:
     10:
     :
0000
0000
0000
0000
,
0000
0000
0000
0000
,
1000
0000
0000
0010
1000
0010
0100
0001
,
1000
0100
1000
0000
0000
0000
0000
0000
,
0001
0000
0000
0010
0001
0010
0100
1000
,
0010
0100
0010
1000
0001
1000
0100
0010
,
0001
0000
0000
0100
0010
0100
0001
1000
,
0100
0010
0100
0000
0000
0000
0000
0000
,
0010
0000
0000
0001
1000
0001
0010
0100
,
1000
0010
1000
0001
1000
0100
0010
0001
,
0000
0001
0000
0100
0010
0100
0010
1000
,
0000
1000
0000
0010
1000
0010
1000
0100
,
0000
0100
0000
1000
0001
1000
0001
0010
,
0000
0010
0000
0000
0002
0000
1003
0000
,
2002
0000
0003
0010
0020
0000
3030
0000
,
0100
0000
0100
0000
0100
0000
0100
0010
,
2000
0000
3000
0001
0020
0000
0031
0100
,
0000
0010
1000
0010
1000
0010
0100
0000
,
0001
0000
0001
0000
0001
1000
0010
0000
,
0100
0000
0110
0000
0100
0001
1000
0000
,
0000
0010
1000
0010
1000
0100
0010
0001
,
0200
0320
2030
3001
,
0022
0000
0030
1000
2000
0000
3003
0010
,
0000
1000
0100
1000
0010
0100
0001
0010
,
0002
0000
0003
1000
0200
0000
1300
0010
,
0000
1000
0001
1000
0001
1000
0100
0000
,
0010
0001
0010
0100
1000
0001
1000
0000
,
0100
0000
1100
0000
1000
0001
0010
0000
,
0000
0001
0100
0010
0100
0001
1000
0100
,
0020
0032
2003
3020
,
0130
0000
0000
0001
0010
0001
1000
0100
,
1000
0010
0100
0000
0000
0000
0000
0000
,
0010
1000
0010
1000
0100
0010
0001
0100
,
0001
1000
0001
1000
0001
0010
0100
1000
,
0010
0000
0000
1000
0100
1000
0100
0010
,
0001
0100
2000
0000
3001
0000
0000
0000
,
0010
0000
0000
0001
0100
0001
0010
0100
,
1000
0010
1000
0100
0010
0001
1000
0010
,
0000
0010
0000
1000
0001
0010
0001
0100
,
0000
0100
0000
0001
0010
0100
1000
0001
,
0000
0001
0000
0010
0001
0010
0100
1000
,
0000
1000
0000
0010
1000
0100
1000
0001
,
0100
0010
0000
1000
0000
0001
0100
0000
,
0001
0000
0000
0001
0000
0000
0001
0000
0000
0000
1000
0000
0100
0000
0000
0000
,
1000
0001
0000
0000
0010
0001
0010
0100
,
0000
1000
0000
0000
0020
0000
0130
0000
,
1001
0000
0001
0100
2000
0000
3000
0010
,
0000
1000
0100
1000
0100
0010
0001
0100
,
0020
0000
0030
1000
0002
0000
1003
0100
,
0000
1000
0010
1000
0001
0010
0100
0000
,
1000
0010
0100
0010
1000
0001
0010
0000
,
0100
0000
0011
0000
0001
1000
0010
0000
,
0000
1000
0100
0010
0100
0010
0100
1000
,
0002
2003
3200
0310
,
1100
0000
0010
1000
0002
0000
0103
0010
,
0000
1000
1000
0100
1000
0010
0100
0001
,
0020
0000
0030
0001
0200
0000
0301
1000
,
0000
1000
0100
0010
0001
1000
0100
0000
,
1000
0010
1000
0100
0010
0001
1000
0000
,
0100
0000
1010
0000
0001
0010
1000
0000
,
0010
0100
0010
0100
1000
0001
1000
0001
,
0020
0230
2300
3002
,
0023
0000
0000
0000
,
0000
0000
0000
0030
;

//---------------dance-single - ----------------
#NOTES:
     dance-single:
     :
     Hard:
     12:
     :
0000
0000
0000
0000
,
0000
0000
0000
0000
,
1000
0001
0100
0010
1000
1000
1000
0100
,
0001
0001
0001
0000
0010
0001
0100
0000
,
0010
0000
1001
0100
0001
0001
0001
0010
,
0100
0100
0100
1000
0010
0100
0001
0001
,
0010
0001
0100
0010
1000
1000
1000
0001
,
0010
0010
0010
0000
0001
1000
0010
0000
,
0100
0000
1001
1000
0100
0100
0100
0010
,
0001
0001
0100
0010
1000
1000
0010
0101
,
0000
1100
0000
0010
0001
0001
0100
0110
,
0000
1010
0000
1000
0100
0100
0010
0011
,
0000
1010
0000
0001
0001
1000
0100
1100
,
0000
1001
0000
0000
2000
0000
3001
0000
,
2001
0000
3010
0100
0002
0000
1000
0000
,
0013
0001
0001
0001
0100
0100
0010
1000
,
0200
0000
1300
0010
0020
0000
0130
0002
,
0000
1000
1003
0001
0101
0101
0101
0000
,
0010
1000
1000
1000
0001
0100
1000
0000
,
1200
0000
1300
0001
0011
0011
0011
0000
,
0001
1000
1000
1000
0100
0100
0010
0001
,
0020
0031
2000
3001
0200
0001
0301
0000
,
0110
1000
0001
0100
0100
0010
1000
0001
,
0000
0010
0010
0010
0001
0001
1000
0001
,
1100
1000
0010
0100
0100
0001
0010
0010
,
0000
0001
0001
1000
1010
1010
1010
0000
,
0010
0100
0100
0100
0001
1000
0010
0000
,
0210
0000
0310
1000
1100
1100
1100
0000
,
0001
1000
1000
1000
0010
0100
0001
0001
,
0200
0301
2000
3001
0020
0001
0031
0000
,
1001
0000
0000
0100
0100
0010
1000
0001
,
0010
0010
0010
0000
0001
0100
1000
0000
,
0010
1000
1000
1000
0001
0001
0010
0100
,
1000
1000
0010
0100
0100
0001
0010
0100
,
1000
0010
1000
0100
0100
0010
0001
0001
,
0100
0100
0100
0000
0010
1000
0100
0000
,
0010
0000
0101
0010
1000
1000
1000
0001
,
0010
0010
0010
0001
0100
0100
0010
1010
,
0000
0101
0000
0100
0100
0010
1000
1100
,
0000
0011
0000
0001
0010
0010
0001
1001
,
0000
0110
0000
1000
1000
0100
1000
1001
,
0000
0011
0000
0100
0010
0010
0010
0110
,
0000
0101
0000
0001
1000
0010
0100
0110
,
0000
1010
0000
1000
0100
0010
0001
0101
,
0000
1100
0000
1000
0010
0100
0001
0011
,
0000
1010
0000
0000
0020
0000
0130
0000
,
1001
0010
1000
0100
0100
0010
0001
0001
,
0000
0100
0100
0100
0010
0010
1000
0001
,
0011
0010
0100
1000
1000
0010
0100
0100
,
0000
0001
0001
0010
0011
0011
1001
0000
,
0010
1000
1000
1000
0100
0001
0001
0000
,
0201
0000
0310
1000
1100
1100
1001
0000
,
0010
0001
0001
0001
0100
0100
0010
1000
,
0200
1300
0020
1030
0002
1000
1003
0000
,
1010
1000
0010
0100
0100
0001
0010
0100
,
0000
0010
0010
0010
0100
0100
1000
0100
,
1001
0010
0100
0001
0001
0010
1000
1000
,
0000
0001
0001
0100
0110
0110
1001
0000
,
0010
0100
0100
0100
0010
1000
0001
0000
,
0210
0000
0310
0100
0101
0101
1001
0000
,
0010
0100
0100
0100
0001
0010
0100
1000
,
0020
1030
0002
1003
0200
1000
1300
0000
,
0020
0000
0000
0000
,
0000
0000
0000
0030
;
