#TITLE:Hollywood Galaxy;
#SUBTITLE:;
#ARTIST:dj TAKA;
#TITLETRANSLIT:;
#SUBTITLETRANSLIT:;
#ARTISTTRANSLIT:;
#GENRE:;
#CREDIT:;
#BANNER:Hollywood Galaxy-bn.png;
#BACKGROUND:Hollywood Galaxy-bg.png;
#LYRICSPATH:;
#CDTITLE:;
#MUSIC:Hollywood Galaxy.ogg;
#OFFSET:0.000000;
#SAMPLESTART:42.580002;
#SAMPLELENGTH:20.000000;
#SELECTABLE:YES;
#DISPLAYBPM:186.000000;
#BPMS:0.000000=186.000000
;
#STOPS:63.500000=1.290000
;
#BGCHANGES:;
#KEYSOUNDS:;
#ATTACKS:;

//---------------dance-single - ----------------
#NOTES:
     dance-single:
     :
     Hard:
     15:
     0.799559,0.953649,0.108678,0.018113,0.556974,618.000000,606.000000,12.000000,2.000000,0.000000,0.000000,0.799559,0.953649,0.108678,0.018113,0.556974,618.000000,606.000000,12.000000,2.000000,0.000000,0.000000:
0000
0000
0000
0000
,
0000
0000
0000
0000
,
0000
0000
0000
0000
,
0000
0000
0000
0000
,
0000
0000
0000
0000
,
0000
0000
0000
0000
,
0000
0000
0000
0000
,
0000
0000
0000
0000
,
0110
0000
1000
0001
0000
1000
0100
0010
,
0001
0100
0001
0010
0000
0100
1000
0001
,
0100
0000
0010
1000
0000
0010
0100
0001
,
1000
0100
0001
0000
1000
0010
0001
0000
,
0100
0001
0100
0010
1000
0100
0001
0000
,
0010
0001
1000
0001
0100
0010
1000
0000
,
0001
0010
0001
0100
0010
1000
0001
0000
,
1000
0100
0001
0000
1000
0010
0100
0001
,
1001
0000
0100
0000
0010
0000
1000
0000
0000
0000
0001
0000
0010
0000
0100
1000
,
0100
0000
0010
0000
0001
0100
0000
0000
0000
0000
0010
0000
1000
0001
1000
0001
,
0100
0000
0010
0000
0100
0000
0001
0000
0000
0000
1000
0000
0100
0000
1000
0001
,
1000
0000
0010
0000
0100
0001
0000
0100
0010
0000
1000
0000
0100
0000
0010
0001
,
1000
0000
0001
0000
0100
0010
1000
0000
0000
0000
0001
0000
1000
0000
0100
0010
,
0001
0000
0100
0000
0010
1000
0000
1000
0100
0000
0010
0000
0001
0000
1000
0001
,
0100
0000
0010
0000
1000
0000
0100
0000
0000
0000
0010
0000
0001
0000
0100
0001
,
1000
0000
0010
0000
0100
0001
0000
0001
0010
0100
0010
0001
0010
0100
1000
0001
,
0100
0000
0010
0000
1000
0001
1000
0000
0000
0000
0100
0000
0010
0000
0001
0100
,
0001
0000
1000
0000
0001
0100
0001
0010
0000
0000
0100
0000
1000
0000
0001
0100
,
0001
0000
0010
0000
0100
0000
1000
0000
0000
0000
0010
0000
1000
0000
0100
0010
,
0100
0000
1000
0000
0001
0100
0001
0100
0010
1000
0100
0000
0010
0001
1000
0001
,
0100
0000
0010
0000
1000
0000
0100
0010
0000
0010
0001
0000
1000
0000
0001
0000
,
0100
0000
0010
0000
0100
0001
1000
0001
0000
0000
0010
0000
0100
1000
0010
0000
,
0100
0000
0001
0000
0010
0000
0100
1000
0000
1000
0001
0000
0100
0000
0010
0000
,
1001
0000
0000
0000
0000
0000
0000
0000
0100
0010
0100
0010
0100
1000
0001
0100
,
0010
0000
1000
0001
0100
0000
0010
0000
0000
0000
1000
0000
1000
0000
0000
0000
,
0001
0000
0010
0100
1000
0000
0001
0000
0000
0000
0100
0000
0100
0000
0010
0000
,
1000
0100
0010
0100
1000
0000
0001
0100
0000
0001
0100
0000
0010
0000
0000
0000
,
1000
0100
0010
0100
1000
0000
0010
0000
0001
0000
0010
1000
0100
0010
0001
0100
,
0001
0000
0010
0000
0001
0000
1000
0000
0000
0000
0010
0000
0100
0000
0010
1000
,
0001
0001
1000
1000
0001
0001
1000
1000
,
0010
1000
0000
0010
0100
0001
0100
0001
0100
0010
0100
0010
1000
0100
0010
0001
,
0100
0100
0010
0010
0100
0100
0010
0010
,
1000
0000
0010
1000
0100
0000
0010
0000
0001
0000
0000
0000
0100
0001
0100
0010
,
1000
0000
0001
0010
0001
0000
0100
0000
1000
0000
0010
0000
0010
0000
0100
0000
,
0001
0010
0001
0010
0001
0000
1000
0000
0001
0000
0100
0000
0010
0000
0000
0000
,
1000
0001
0100
0001
0010
0000
0100
0000
1000
0000
0010
0100
0010
1000
0100
0010
,
0001
0000
0000
0000
1000
0000
0001
0000
1000
0000
0100
0000
0001
0000
0010
0100
,
1000
1000
0010
0010
0100
0100
0001
0001
,
0011
0000
0000
0000
0100
0001
0100
0010
0100
0001
0100
0010
1000
0100
0010
0001
,
0100
0100
0001
0001
0010
0010
1000
1000
,
0100
0000
1000
0001
0000
0000
0000
0000
,
0010
0000
0001
1000
0000
0000
0000
0000
,
0010
0000
1000
0100
1000
0100
0000
0000
,
0010
0001
0010
0100
0000
1000
1000
0001
,
0100
0000
0001
0010
0000
0010
0000
0000
,
0100
1000
0100
0010
0000
0010
0000
0000
,
0001
1000
0001
1000
0100
0010
0000
0000
,
0001
0100
0010
0100
0010
0100
0001
0000
,
1000
0000
1000
0100
0000
1000
0001
0000
,
0010
0001
1000
0001
0000
0000
0010
0100
,
1000
0010
1000
0010
1000
0001
0100
0000
,
0001
0010
0001
0010
0100
0010
0001
0000
,
1000
0000
0001
0000
0010
0000
0001
0000
0100
0000
0010
0000
1000
0000
0001
0010
,
0001
0000
1000
0010
1000
0000
0001
0100
0001
0000
1000
0100
1000
0000
0001
1000
,
0001
0000
0010
0100
0010
0000
0001
0000
1000
0010
1000
0010
0100
0001
0100
0001
,
0010
0100
0010
0100
0000
1000
1000
0000
,
0001
0000
0000
0000
0010
0000
0001
1000
0000
1000
0100
0000
0010
0000
0001
0000
,
0100
0000
0010
0000
1000
0000
0100
0010
0000
0010
0001
0000
1000
0000
0010
0000
,
0100
0001
0100
0010
1000
0100
0001
0000
,
0010
0000
0001
0000
1000
0000
0001
0100
0000
0100
0010
0000
1000
0000
0001
0000
,
0010
1000
0010
0001
0100
0010
1000
0100
,
0010
0000
0001
0000
0100
0000
0010
1000
0000
1000
0100
0000
1000
0001
0100
0010
,
1000
0000
0100
0000
0010
0000
0001
1000
0000
0001
1000
0000
0100
0000
0000
0000
,
0010
0000
0001
0000
0100
0000
0001
1000
0000
1000
0010
0000
0100
0001
0100
0010
,
1000
0000
0000
0000
1100
0000
0001
0010
0000
0010
0100
0000
1000
0000
0001
0000
,
0101
0000
0000
0000
0011
0000
0100
1000
0001
0000
0100
0000
0010
0000
1000
0100
,
1000
0000
0010
0000
0001
0000
0100
0010
0100
0000
0001
0000
1000
0000
0000
0000
,
1010
0000
0000
0000
1001
0000
0100
0010
0000
0100
0010
0000
1000
0000
0001
0000
,
0010
0000
0001
0000
0100
0000
0010
1000
0000
0010
1000
0000
0100
0000
0010
0001
,
0100
0000
0010
1000
0100
0000
0000
0000
1000
0000
0001
0010
0001
0000
0100
0010
,
1000
0101
0000
1100
1100
0010
0001
0100
,
0000
0001
1000
0000
0000
1000
0001
0000
0000
1000
0010
0000
0100
0000
0001
2000
,
0200
0000
0000
0000
,
3300
0000
0000
0000
;

//---------------dance-single - ----------------
#NOTES:
     dance-single:
     :
     Medium:
     11:
     0.548565,0.623540,0.108678,0.126791,0.000000,424.000000,412.000000,12.000000,14.000000,0.000000,0.000000,0.548565,0.623540,0.108678,0.126791,0.000000,424.000000,412.000000,12.000000,14.000000,0.000000,0.000000:
0000
0000
0000
0000
,
0000
0000
0000
0000
,
0000
0000
0000
0000
,
0000
0000
0000
0000
,
0000
0000
0000
0000
,
0000
0000
0000
0000
,
0000
0000
0000
0000
,
0000
0000
0000
0000
,
0110
0001
1000
0001
,
0100
0010
0100
0010
,
1000
0001
0100
0010
,
1000
0100
1000
0000
0001
0100
0001
0000
,
0010
0001
0010
0001
0100
0000
0100
0000
,
1000
0010
1000
0010
0100
0000
0100
0000
,
0001
1000
0001
1000
0100
0000
0100
0000
,
1000
0001
1000
0000
0001
0010
0100
1000
,
0001
1000
0001
0100
0000
0010
1000
0000
,
0100
0010
0100
1000
0000
1000
0001
0000
,
0010
0001
0100
0010
0000
1000
0001
0000
,
0100
0010
1000
0000
0001
0010
0100
0000
,
1000
0001
1000
0010
0000
0100
0001
0000
,
0010
0001
1000
0001
0000
1000
0100
0000
,
0010
0001
0100
0001
0000
0100
0010
0000
,
1000
0100
1000
0010
0100
0001
1000
0000
,
1001
0000
1000
0100
0000
1000
0001
0100
,
0010
1000
0100
0010
0000
0001
1000
0001
,
0010
0001
0010
0100
0000
1000
0010
1000
,
0100
0010
0100
1000
0010
0100
0001
0000
,
1000
0001
0010
0001
0000
1000
0100
0010
,
0100
1000
0010
0100
0000
0001
0010
0001
,
0100
0010
0100
0001
1000
0010
0100
0001
,
1001
0000
0000
0000
0100
0100
0100
0100
,
0010
1000
0200
0000
0001
0000
1000
0000
,
0310
0001
0200
0000
1000
0000
0001
0000
,
0310
1000
0002
0000
0010
0000
1000
0000
,
0103
0010
1000
0000
0110
0000
1000
0001
,
0200
0000
0001
0000
0010
0000
0301
1000
,
1000
0010
1000
0010
1000
0010
1000
0010
,
0100
0000
0001
1000
0001
0000
0010
0100
,
1000
0100
1000
0100
0001
0100
0001
0100
,
1000
0100
0020
0000
1000
0000
0001
0000
,
0130
1000
0020
0000
0001
0000
1000
0000
,
0130
0001
2000
0000
0100
0000
0010
0000
,
3001
0100
0010
0000
0110
0000
1000
0001
,
2000
0000
0010
0000
0001
0000
3010
0100
,
0100
0001
0100
0001
0100
0010
0100
0010
,
1000
0000
0001
0010
0001
0000
0100
0010
,
1000
0001
1000
0001
1000
0100
0010
0001
,
0100
0000
0000
0100
0000
0000
0000
0000
,
0010
1000
0010
1000
0000
0000
0000
0000
,
0001
0000
1000
0100
0000
0100
0000
0000
,
1000
0000
0010
0100
0000
0100
0000
0000
,
0001
0000
0010
0001
0000
1000
0000
0000
,
0001
0100
0001
0100
0000
0100
0000
0000
,
0010
1000
0010
1000
0000
1000
0000
0000
,
0002
0203
0320
2030
,
3100
0000
1000
0001
0000
1000
0100
0010
,
0001
0000
0100
0010
0000
0010
1000
0000
,
0001
1000
0001
0100
0000
0010
0100
0000
,
0010
1000
0010
1000
0100
0010
0001
0000
,
1001
0000
0100
0010
0100
0001
0100
0000
,
0001
0010
0001
0100
0010
1000
0100
0000
,
1000
0010
1000
0010
1000
0100
0010
0001
,
1001
0000
0000
0000
0000
0100
0010
0000
,
1000
0000
0100
1000
0000
1000
0001
0000
,
0100
0010
0100
0001
0000
1000
0100
0010
,
0001
1000
0001
0100
0010
1000
0100
0000
,
0010
0001
0010
0001
0000
1000
0001
0000
,
0100
0000
0001
0010
0000
0010
0100
0000
,
1000
0001
1000
0100
0000
0010
0001
0100
,
0001
0000
1000
0010
0000
1000
0100
0000
,
0010
0001
0100
0001
0000
1000
1000
0001
,
0101
0000
1100
0000
0010
0001
0100
0000
,
1010
0000
0001
0000
1000
0100
0001
0000
,
0010
0000
0010
0001
1000
0000
0100
0000
,
1100
0000
0011
0000
0000
1000
0001
1000
,
0001
0000
0100
0010
0000
1000
0100
0000
,
0010
0010
0001
1000
,
0001
0001
0000
1000
1000
0000
0001
1000
,
0000
0010
0000
0100
0000
0010
1000
0002
,
0200
0000
0000
0000
,
0303
0000
0000
0000
;

//---------------dance-single - ----------------
#NOTES:
     dance-single:
     :
     Easy:
     8:
     0.342853,0.434712,0.163017,0.217356,0.000000,265.000000,247.000000,18.000000,24.000000,0.000000,0.000000,0.342853,0.434712,0.163017,0.217356,0.000000,265.000000,247.000000,18.000000,24.000000,0.000000,0.000000:
// measure 0
0000
0000
0000
0000
,  // measure 1
0000
0000
0000
0000
,  // measure 2
0000
0000
0000
0000
,  // measure 3
0000
0000
0000
0000
,  // measure 4
0000
0000
0000
0000
,  // measure 5
0000
0000
0000
0000
,  // measure 6
0000
0000
0000
0000
,  // measure 7
0000
0000
0000
0000
,  // measure 8
0110
0001
1000
0001
,  // measure 9
1000
0100
0010
0100
,  // measure 10
0010
0001
0100
0010
,  // measure 11
1000
1000
0001
0001
,  // measure 12
0010
0001
0010
0100
,  // measure 13
1000
0001
1000
0010
,  // measure 14
1000
0100
0010
0001
,  // measure 15
0100
0100
0010
0010
,  // measure 16
1001
0010
0000
1000
,  // measure 17
0100
0010
0000
0001
,  // measure 18
1000
0001
0000
0100
,  // measure 19
0001
0001
1000
1000
,  // measure 20
0001
0100
0000
0010
,  // measure 21
1000
0100
1000
0001
,  // measure 22
0010
0010
0000
0100
,  // measure 23
1000
0010
1000
0001
,  // measure 24
0200
0010
0000
0010
,  // measure 25
0001
0001
0000
0310
,  // measure 26
2000
0010
0000
0010
,  // measure 27
0100
0100
0001
3001
,  // measure 28
0020
0001
0000
0001
,  // measure 29
0100
0100
0000
0031
,  // measure 30
2000
0010
0100
3001
,  // measure 31
1001
0000
0101
1100
,  // measure 32
0001
0100
2000
0000
0000
0000
3000
0000
,  // measure 33
0010
1000
0200
0000
0000
0000
0300
0000
,  // measure 34
1000
0001
0200
0000
0000
0000
0300
0000
,  // measure 35
0010
1000
0100
0000
0100
0000
0110
0000
,  // measure 36
1001
0000
0000
0000
0000
0000
0000
1000
,  // measure 37
0001
0010
0001
0100
,  // measure 38
0010
2000
0100
3001
,  // measure 39
0010
0000
0001
0010
0100
0000
1000
0000
,  // measure 40
0001
1000
0002
0000
0000
0000
0003
0000
,  // measure 41
0100
0010
2000
0000
0000
0000
3000
0000
,  // measure 42
0010
1000
0002
0000
0000
0000
0003
0000
,  // measure 43
0100
0010
1000
0000
1000
0000
1100
0000
,  // measure 44
0101
0000
0000
0000
0000
0000
0000
0001
,  // measure 45
1000
0000
0010
0000
0100
0000
0001
1000
,  // measure 46
0001
0020
0001
0130
,  // measure 47
0010
0000
0001
0000
0100
0000
0010
2000
,  // measure 48
0000
0000
0000
3000
,  // measure 49
0200
0000
0000
0300
,  // measure 50
0020
0030
0002
0003
,  // measure 51
2000
0000
0000
3000
0000
0010
0100
0010
,  // measure 52
0200
0000
0000
0300
,  // measure 53
0002
0000
0000
0003
,  // measure 54
0020
0030
0200
0300
,  // measure 55
1000
0001
1000
0100
,  // measure 56
0110
1000
0000
0001
,  // measure 57
0010
0001
0000
0100
,  // measure 58
0020
0030
2000
3000
,  // measure 59
0002
0000
0000
0003
,  // measure 60
0110
0001
1000
0001
,  // measure 61
0100
0010
1000
0100
,  // measure 62
1000
0010
1000
0001
,  // measure 63
1001
0000
0000
0000
0000
0100
0010
0000
,  // measure 64
1000
0010
1000
0001
,  // measure 65
0010
0001
0100
0010
,  // measure 66
1000
0100
1000
0001
,  // measure 67
0100
0010
0100
0001
,  // measure 68
0010
0001
1000
0010
,  // measure 69
1000
0001
0010
0100
,  // measure 70
1000
0010
1000
0100
,  // measure 71
0010
0010
0001
1000
,  // measure 72
0101
0000
1100
0000
1000
0001
0100
0000
,  // measure 73
0010
0010
0010
1000
,  // measure 74
0100
0010
0001
0100
,  // measure 75
0001
0000
0001
0000
0000
1000
0100
0010
,  // measure 76
0001
0100
0010
1000
,  // measure 77
0100
1000
0001
0100
,  // measure 78
0110
0000
0000
0000
1001
0000
0000
0110
,  // measure 79
0000
0000
0000
0000
0000
1000
0001
0000
,  // measure 80
0110
0000
0000
0000
;

//---------------dance-single - ----------------
#NOTES:
     dance-single:
     :
     Beginner:
     4:
     0.170780,0.217356,0.036226,0.000000,0.000000,132.000000,128.000000,4.000000,0.000000,0.000000,0.000000,0.170780,0.217356,0.036226,0.000000,0.000000,132.000000,128.000000,4.000000,0.000000,0.000000,0.000000:
0000
0000
0000
0000
,
0000
0000
0000
0000
,
0000
0000
0000
0000
,
0000
0000
0000
0000
,
0000
0000
0000
0000
,
0000
0000
0000
0000
,
0000
0000
0000
0000
,
0000
0000
0000
0000
,
0110
0000
0000
0000
,
0001
0000
0000
0000
,
1000
0000
0000
0000
,
0001
0000
0100
0000
,
0010
0000
0000
0000
,
1000
0000
0000
0000
,
0100
0000
0000
0000
,
1000
0000
0001
0000
,
0010
0010
0000
0000
,
0001
0001
0000
0000
,
1000
1000
0000
0000
,
0001
0000
0100
0000
,
0001
0001
0000
0000
,
0010
0010
0000
0000
,
0100
0100
0000
0000
,
1000
0000
0001
0000
,
1000
1000
0000
0000
,
0010
0010
0000
0000
,
0100
0100
0000
0000
,
0010
0000
0100
0000
,
0001
0001
0000
0000
,
0010
0010
0000
0000
,
0001
0000
1000
0000
,
1001
0000
0000
0000
,
0010
0010
0000
0000
,
0100
0100
0000
0000
,
0010
0010
0000
0000
,
1000
1000
1000
0000
,
0001
0000
0000
0000
,
0010
0000
0001
0000
,
0100
0000
0000
0000
,
0010
0010
0010
0000
,
1000
1000
0000
0000
,
0001
0001
0000
0000
,
1000
1000
0000
0000
,
0100
0100
0100
0000
,
0010
0000
0000
0000
,
0001
0000
1000
0000
,
0010
0000
0000
0000
,
0100
0100
0100
0000
,
0001
0000
0000
0000
,
1000
0000
0000
0000
,
0001
0000
0100
0000
,
0100
0000
0000
0000
,
0010
0000
0000
0000
,
1000
0000
0000
0000
,
0100
0000
1000
0000
,
0001
0000
0100
0000
,
0010
0000
0000
0000
,
1000
0000
0000
0000
,
1000
0000
0001
0000
,
1000
0000
0000
0000
,
0010
0000
0010
0000
,
0100
0000
0100
0000
,
0010
0000
1000
0000
,
1001
0000
0000
0000
,
0001
0001
0000
0000
,
0010
0010
0000
0000
,
0100
0100
0000
0000
,
1000
1000
0000
0000
,
0010
0010
0000
0000
,
0100
0100
0000
0000
,
0001
0001
0000
0000
,
1000
1000
0000
0000
,
0100
0100
0000
0000
,
1000
1000
1000
0000
,
0001
0000
0010
0000
,
0001
0000
0000
0100
,
0100
0000
0000
0000
,
0010
0000
1000
0000
,
0001
0000
0001
0000
,
0001
0000
0000
0000
,
0110
0000
0000
0000
;
