#TITLE:Hillbilly Bone;
#ARTIST:Blake Shelton ft. Trace Adkins;
#BANNER:Hillbilly Bone-bn.png;
#BACKGROUND:Hillbilly Bone-bg.png;
#JACKET:Hillbilly Bone-jacket.png;
#MUSIC:Hillbilly Bone.ogg;
#OFFSET:1;
#SAMPLESTART:39;
#SAMPLELENGTH:20;
#DISPLAYBPM:144;
#BPMS:0=144;
#BGCHANGES:;

//---------------dance-single - ----------------
#NOTES:
     dance-single:
     :
     Beginner:
     4:
     :
0000
0000
0000
0000
,
0000
0000
0000
0000
,
0000
0000
0000
0000
,
0000
0000
0000
0000
,
0000
0000
0000
0000
,
0010
0000
1000
0000
,
0001
0001
0001
0000
,
0200
0000
0000
0000
,
0000
0000
0300
0000
,
0001
0000
1000
0000
,
0010
0000
0100
0000
,
0000
0000
0010
0000
,
1000
0000
0100
0000
,
0001
0000
0001
0000
,
1000
0000
0100
0000
,
1000
1000
1000
0000
,
1001
0000
0000
0000
,
0010
0000
1000
0000
,
0100
0100
0100
0000
,
1000
0000
0001
0000
,
0100
0100
0000
0000
,
0000
0000
0010
0000
,
1000
0000
0001
0000
,
1000
0000
0100
0000
,
0010
0010
0010
0000
,
0001
0000
0100
0000
,
1000
0000
0010
0000
,
1000
0000
0100
0000
,
0001
0001
0001
0000
,
0010
0010
0010
0000
,
0001
0001
0000
0000
,
1000
0000
0001
0000
,
0000
1001
1001
0000
,
0010
0000
0100
0000
,
0010
0000
1000
0000
,
0001
0000
0010
0000
,
0001
0000
1000
0000
,
0010
0010
0000
0000
,
0100
0100
0000
0000
,
0001
0000
0001
0000
,
0001
0001
0001
0000
,
0010
0000
0001
0000
,
0100
0000
0001
0000
,
1000
0000
0100
0000
,
2000
0000
3000
0000
,
0010
0000
0100
0000
,
0001
0001
0001
0000
,
1001
0000
0000
0000
,
0000
0000
0100
0100
,
0100
0000
0010
0000
,
1000
0000
0000
0000
,
0001
0000
0010
0000
,
0100
0000
0000
0000
,
1000
0000
0010
0000
,
0100
0100
0000
0000
,
0001
0000
1000
0000
,
0000
1001
1001
0000
,
0010
0000
1000
0000
,
0010
0000
0100
0000
,
0001
0000
0010
0000
,
0001
0000
1000
0000
,
0010
0010
0000
0000
,
0100
0100
0000
0000
,
0001
0000
0001
0000
,
0001
0001
0001
0000
,
1000
0000
1000
0000
,
1000
1000
1000
0000
,
0010
0000
0010
0000
,
0010
0010
0010
0000
,
0100
0000
0100
0000
,
0100
0100
0100
0000
,
0001
0000
0010
0000
,
0001
0000
0100
0000
,
1000
0000
1000
0000
,
0002
0000
0003
0000
,
0010
0000
0001
0000
,
1000
1000
1000
0000
,
0020
0000
0000
0000
,
0000
0000
0000
0000
,
0000
0000
0000
0000
,
0000
0000
0000
0000
,
0000
0000
0000
0000
,
0000
0000
0030
0000
;

//---------------dance-single - ----------------
#NOTES:
     dance-single:
     :
     Easy:
     6:
     :
0000
0000
0000
0000
,
0000
0000
0000
0000
,
0000
0000
0000
0000
,
0000
0000
0000
0000
,
0000
0000
0000
0000
,
0010
0001
0200
0300
,
0001
1000
0002
0003
,
0200
0020
0000
0330
,
1000
0001
1000
0100
,
1000
0010
1000
0100
,
0010
0010
1001
0000
,
0001
0100
0001
1000
,
0100
0100
1001
0000
,
0110
0000
0001
0100
,
0010
1000
0001
0000
,
1000
0001
0100
0010
,
1000
0000
0000
0110
,
0002
0000
1003
0100
,
1000
0010
0100
0001
,
0001
0010
1000
0100
,
1000
1000
2000
3000
,
0010
1000
0010
0100
,
0001
0010
0001
0000
,
0100
0010
1000
0000
,
0001
1000
0001
1000
,
0010
0010
1000
0100
,
1000
0001
0001
0000
,
0010
0001
0100
0010
,
1000
0100
1000
0000
,
1001
0110
0001
0100
,
1000
2000
0020
3030
,
1000
0010
0001
0200
,
0300
1001
1001
0100
,
0002
0003
1000
0100
,
1000
0010
0100
0000
,
0010
1000
0100
1000
,
0001
0001
0100
0010
,
2000
0002
0000
3003
,
0020
0200
0000
0330
,
1000
0000
0001
0000
,
1001
0110
1001
0000
,
0010
0010
1000
1000
,
0001
1000
0200
0300
,
1000
0010
1000
0002
,
0100
0100
0100
0003
,
0010
1000
0002
0003
,
1000
0100
2000
3000
,
0002
2000
0000
3003
,
0010
1000
0100
0001
,
1000
1000
0001
0100
,
0010
1000
0100
0000
,
1000
0010
1000
0100
,
0010
0010
0001
0000
,
1001
0110
1000
0100
,
0001
0002
0020
0033
,
0100
1000
0010
0002
,
0003
1001
1001
0010
,
2000
3000
0100
1000
,
0001
0100
0001
0000
,
0010
0001
0100
0010
,
1000
0100
1000
0110
,
0002
2000
0000
3003
,
0020
0200
0000
0330
,
1000
0000
0010
0000
,
0110
1001
0110
0000
,
0001
0000
0010
0000
,
1001
0110
1001
0000
,
1000
0000
0100
0000
,
1001
0110
1001
0000
,
0001
0000
0100
0000
,
0110
1001
0110
0000
,
0001
0001
1000
1000
,
0001
1000
0200
0300
,
1000
0010
1000
0002
,
0100
0100
0100
0003
,
1000
0010
0200
0300
,
0001
0001
0001
0000
,
0020
0000
0000
0000
,
0000
0000
0000
0000
,
0000
0000
0000
0000
,
0000
0000
0000
0000
,
0000
0000
0000
0000
,
0000
0000
0030
0000
;

//---------------dance-single - ----------------
#NOTES:
     dance-single:
     :
     Medium:
     9:
     :
0000
0000
0000
0000
,
0000
0000
0000
0000
,
0000
0000
0000
0000
,
0000
0000
0000
0000
,
0000
0000
0000
0000
,
0010
0000
0001
0000
1000
0200
0000
0000
,
1300
0001
1000
0001
1000
0002
0000
0000
,
0103
0000
2020
0000
0000
0030
0000
3001
,
1000
0010
0100
0000
0110
0000
1001
0000
,
1000
0010
0000
0100
0001
0000
0010
0100
,
0000
2200
0000
0300
3001
1000
0000
0000
,
0000
0010
1000
0100
1000
0000
0001
0200
,
0000
0320
0000
0000
1030
0001
0000
0000
,
0010
0002
0000
0000
1003
0001
0100
0000
,
0101
0000
0010
1000
0000
0000
0000
0000
,
0100
1000
0001
0000
0110
0000
0001
0200
,
0000
0000
0000
0300
0000
0000
1000
0001
,
1000
0200
0000
0000
0310
0000
0010
0001
,
2000
0000
3001
0100
0000
0000
0010
1000
,
0001
0000
0010
0002
0000
2003
0000
0000
,
3010
1000
0100
0000
0000
0000
0000
0000
,
0010
0001
0100
0000
0101
0000
1100
0000
,
0010
1000
0010
0100
0000
0000
0001
0010
,
0100
0000
1000
0010
0200
0000
0300
0000
,
0001
1000
0001
1000
0001
2000
0000
0000
,
3010
0000
1000
0001
1000
0000
0100
0000
,
1000
0010
0000
0202
0000
0003
1000
0000
,
0301
0100
0001
0100
0001
0000
0000
0011
,
0000
0110
0000
1100
0000
0000
0010
0100
,
0001
0000
0001
0000
0001
1000
0100
0010
,
0001
0100
0020
0000
0000
0000
0030
0000
,
1000
0001
0000
1000
0010
0100
0002
0000
,
0003
0000
1001
0000
1001
0000
0010
0100
,
0001
2000
0000
0000
3100
0010
0001
0000
,
0020
0000
0031
0100
0000
0000
0010
1000
,
0100
0000
0010
0000
0011
0000
0001
1000
,
0010
0100
1010
1000
,
0001
0100
0020
0000
0000
0000
1030
0000
,
0100
1000
0002
0000
0000
0000
0013
0000
,
0001
1000
0000
0000
0001
0000
0000
1000
,
0000
0001
1000
0000
1001
0000
0000
0000
,
0001
0100
1000
0000
0001
0100
1000
0000
,
0001
0100
0010
2000
0000
0000
0000
0000
,
3001
0100
1000
0000
0001
1000
0010
0200
,
0000
0000
0000
0000
,
0310
0000
1000
0000
0001
0200
0000
0000
,
0301
1000
0001
1000
0001
2000
0000
0000
,
3010
0202
0000
0000
,
0300
0000
0000
0013
0002
0000
0203
0000
,
0310
0000
1000
0001
1000
0000
0100
0000
,
1000
0010
0000
0202
0000
0003
1000
0000
,
0301
0100
0010
0100
0001
0000
0000
0011
,
0000
0110
0000
1100
0000
0000
0001
1000
,
0010
0000
0010
0000
0010
0100
0010
1000
,
0100
0010
0002
0000
0000
0000
0000
0000
,
1003
0010
0000
1000
0100
0010
0001
0000
,
0000
0000
1001
0000
1001
0000
0010
1000
,
0001
0200
0000
0000
0301
1000
0100
0000
,
0020
0000
0031
1000
0000
0000
0100
1000
,
0010
0000
0100
0000
0110
0000
0001
1000
,
0100
0010
0011
0001
,
1000
0001
0020
0000
0000
0000
0130
0000
,
0010
0100
2000
0000
0000
0000
3001
0000
,
1000
0100
0000
0000
1000
0000
0000
0100
,
0000
1000
0100
0000
1100
0000
0000
0000
,
0001
0100
0000
0000
0001
0000
0000
0100
,
0000
0001
0100
0000
0101
0000
0000
0000
,
1000
0010
0000
0000
1000
0000
0000
0010
,
0000
1000
0010
0000
1010
0000
0000
0000
,
0001
0010
0000
0000
0001
0000
0000
0010
,
0000
0001
0010
0000
0011
0000
0100
0000
,
0001
0010
1000
0000
0001
0010
1000
0000
,
0001
0010
0100
2000
0000
0000
0000
0000
,
3001
1000
0010
0000
1000
0100
0010
0002
,
0000
0000
0000
0000
,
0013
0000
0001
0000
1000
0200
0000
0000
,
1300
0001
1000
0001
1000
0002
0000
0000
,
0020
0000
0000
0000
,
0000
0000
0000
0000
,
0000
0000
0000
0000
,
0003
0000
0000
0000
,
0000
0000
0000
0000
,
0000
0000
0030
0000
;

//---------------dance-single - ----------------
#NOTES:
     dance-single:
     :
     Hard:
     11:
     :
0000
0000
0000
0000
,
0000
0000
0000
0000
,
0000
0000
0000
0000
,
0000
0000
0000
0000
,
0000
0000
0000
0000
,
0010
0000
0001
1000
0001
0200
0000
0000
,
0301
0010
1000
0001
0100
2000
0000
0000
,
3010
0000
0102
0000
1000
0000
0103
0001
,
0010
0100
1000
0001
0100
0010
1000
0000
,
1000
0100
0000
0100
0010
0000
0010
0001
,
0100
0001
0010
0000
0001
0100
1000
0000
,
0000
0010
1000
0001
2000
0000
3100
0010
,
0001
0100
0001
0000
1010
0001
0100
0000
,
1000
2000
0000
0000
3010
0100
0001
0000
,
0011
0000
0001
0100
0000
0010
1000
0000
,
0100
1000
0001
0000
0210
0000
0301
0100
,
1000
0010
0100
0000
0001
0010
0001
1000
,
0010
0200
0000
0000
0301
0000
0001
1000
,
2100
0000
0001
3001
0000
0100
0010
0100
,
0020
0000
1030
0001
0000
0002
0100
0000
,
1003
0001
0100
0000
0011
0001
0100
0000
,
0000
0010
1000
0000
1000
0100
1000
0001
,
0100
0010
0100
0001
0000
0001
1000
0100
,
1000
0001
1000
0100
0000
0010
0001
0000
,
1000
0010
0100
0001
0010
0100
1000
0001
,
1001
0000
0100
0010
2000
0000
3200
0000
,
1300
0001
0000
0012
0000
0000
0103
0000
,
1000
0100
0001
0100
1000
0000
0010
0100
,
0000
0100
0001
2000
0000
3100
1000
0001
,
0101
0000
1100
0000
0010
0100
0001
1000
,
0100
0010
0001
1000
0001
0010
0100
1000
,
0010
0010
0000
1000
0001
1000
0200
0000
,
0310
0000
1001
0000
1001
0000
0010
0100
,
0001
2000
0000
0000
3001
1000
0100
0010
,
0001
0100
0010
2000
0000
3100
1000
0001
,
1000
0100
0010
0002
0000
0000
0103
0010
,
1000
0001
0000
0101
0000
0010
0100
0000
,
0001
0010
2000
0000
3100
0000
1100
0000
,
1000
0010
0002
0000
0103
0000
0101
0000
,
1000
0100
0000
0100
0001
0000
1000
0010
,
0000
0010
0001
0000
1001
1000
0100
0010
,
0001
0100
1000
0000
0001
0100
1000
0000
,
0001
0010
0100
2000
0000
0000
0000
0000
,
3010
1000
0100
0000
0010
1000
0001
0200
,
0010
0010
1000
0001
,
0310
0000
0001
1000
0001
0200
0000
0000
,
0301
0010
1000
0001
0100
2000
0000
0000
,
3010
0000
2100
0000
0001
0000
3100
1000
,
0010
0100
0010
1000
0100
0001
0100
0010
,
1001
0000
0001
1000
0020
0000
0230
0000
,
0301
1000
0000
2010
0000
0000
3100
0000
,
1000
0010
0001
0010
1000
0000
0010
0110
,
0000
1001
0000
0110
0000
0001
0100
0010
,
1010
0000
0011
0000
1000
0100
0010
0001
,
0100
0010
1000
0000
0001
0010
0100
1000
,
0010
0010
0000
1000
0001
1000
0200
0000
,
0310
0000
1001
0000
1001
0000
0010
0100
,
0001
2000
0000
0000
3010
1000
0001
0100
,
0001
0010
0100
1000
0000
1000
0010
0100
,
0010
1000
0100
0020
0000
0000
0031
0100
,
0001
1000
0010
0100
0000
0100
0001
0000
,
0001
0100
2000
0000
3010
0000
1010
0000
,
1000
0100
0002
0000
0013
0000
0011
0000
,
0001
0100
0000
0100
1000
0000
0001
0010
,
0000
0010
1000
0000
2002
0000
3000
0000
,
1003
0100
0000
0100
0001
0000
1000
0010
,
0000
0010
0001
0000
0202
0000
0003
0000
,
0301
0010
0000
0010
1000
0000
0001
0100
,
0000
0100
1000
0000
2200
0000
3000
0000
,
1300
0010
0000
0010
0001
0000
1000
0100
,
0000
0100
0001
0000
1001
0001
0010
0100
,
1000
0010
0001
0000
1000
0010
0001
0000
,
1000
0100
0010
0002
0000
0000
0000
0000
,
0103
0010
1000
0000
1000
0001
1000
0200
,
0010
0010
0001
1000
,
0310
0000
0100
1000
0001
0200
0000
0000
,
0301
0010
1000
0001
0100
2000
0000
0000
,
0020
0000
0000
0000
,
0000
0000
0000
0000
,
0000
0000
0000
0000
,
3000
0000
0000
0000
,
0000
0000
0000
0000
,
0000
0000
0030
0000
;
