#TITLE:High Speed Junkie!;
#ARTIST:BEMANI Sound Team "KE!JU";
#BANNER:High Speed Junkie!-bn.png;
#BACKGROUND:High Speed Junkie!-bg.png;
#JACKET:High Speed Junkie!-jacket.png;
#MUSIC:High Speed Junkie!.ogg;
#OFFSET:1.5;
#SAMPLESTART:45.125;
#SAMPLELENGTH:20;
#LASTBEATHINT:1.435;
#DISPLAYBPM:175:185;
#BPMS:0=175,273=177,274=180,275=182,276=185;
#BGCHANGES:;

//---------------dance-single - ----------------
#NOTES:
     dance-single:
     :
     Beginner:
     5:
     :
0000
0000
0000
0000
,
0000
0000
0000
0000
,
0000
0000
0000
0000
,
0000
0000
0000
0000
,
0000
0000
0000
0000
,
0000
0000
0000
0000
,
0010
0010
0010
0000
,
1000
0000
0001
0000
,
0100
0000
0001
0000
,
1000
0000
0000
0000
,
1001
0000
0000
0000
,
0010
0000
0000
0000
,
1000
0000
0001
0000
,
1000
0000
0010
0000
,
0100
0000
0100
0000
,
0010
0000
0010
0000
,
1000
0000
0001
0000
,
0110
0000
0000
0000
,
1001
0000
0000
0010
,
0000
0010
0000
0001
,
0100
0000
0000
0010
,
0000
0010
0000
1000
,
0100
0000
0000
1000
,
0000
0001
0000
0000
,
0010
0010
0010
0000
,
0001
0000
1000
0000
,
0110
0000
1000
0000
,
0100
0000
0001
0000
,
1001
0000
0010
0000
,
0100
0000
0001
0000
,
0110
0000
1000
0000
,
0100
0000
0010
0000
,
0001
0001
0001
0000
,
1000
0000
0001
0000
,
0100
0100
0100
0000
,
0010
0000
1000
0000
,
0100
0010
0010
0000
,
0001
0000
1000
0000
,
0001
0001
0001
0000
,
1000
0000
0010
0000
,
1000
0000
0100
0000
,
0001
0000
0000
0000
,
0000
0010
0000
0010
,
0000
0001
0000
1000
,
0000
0001
0100
0000
,
0010
1000
0100
0000
,
0001
0001
0001
0000
,
0010
0001
0000
0100
,
0000
1000
0010
2000
,
0000
0000
3000
0000
,
0020
0000
0000
0000
,
0030
0000
0100
0100
,
0000
0001
0000
0010
,
0000
0001
0000
1000
,
0000
0010
0000
1000
,
0000
0100
0000
0001
,
0000
1000
0000
0010
,
0000
1000
0000
0001
,
0000
0100
0000
0010
,
0000
1000
0000
0100
,
0010
0000
0001
0000
,
0000
0000
1000
0000
,
0001
0000
0100
0000
,
0010
0000
0000
0000
,
0100
0000
0001
0000
,
0100
0000
0010
0000
,
1000
0000
0100
0000
,
1000
0000
0001
0000
,
0110
0000
1001
0000
,
0100
0100
0100
0000
,
0001
1000
0010
0000
,
1000
0100
1000
0000
,
0001
0100
0001
0000
,
0010
0100
1000
0000
,
0001
0001
0001
0000
,
0010
0001
0100
0000
,
0010
0000
1000
0000
,
1001
0000
0000
0000
,
0110
0000
0000
0000
,
1000
0001
0100
0000
,
0001
0000
1000
0000
,
0010
0010
0010
0000
,
1000
1000
1000
0000
,
0100
0000
0001
0000
,
0100
0100
1000
0000
,
0010
0000
0000
0000
;

//---------------dance-single - ----------------
#NOTES:
     dance-single:
     :
     Easy:
     9:
     :
0000
0000
0000
0000
,
0000
0000
0000
0000
,
0000
0000
0000
0000
,
0000
0000
0000
0000
,
0000
0000
0000
0000
,
0000
0000
0000
0000
,
0010
0010
0010
0001
,
0100
0010
1000
0100
,
1000
0010
0100
0001
,
0020
0000
0000
0030
,
1001
0000
0010
1000
,
0100
1000
0001
0100
,
0001
0010
0001
0100
,
1000
0010
1000
0001
,
0010
0010
0010
0010
,
0010
0010
0010
0010
,
0001
0100
1000
0010
,
0110
1000
0100
0001
,
1001
0000
0000
0000
0000
1000
0000
0010
,
0000
0100
0000
0001
0000
1000
0010
0100
,
0001
0000
0010
0000
0000
0001
0000
1000
,
0000
0010
0000
1000
0000
0100
1000
0001
,
0100
0000
0010
0000
1000
0100
0000
0001
,
0000
0010
0000
0001
0000
0100
0010
1000
,
0001
0010
0001
0100
,
1000
0010
1000
0001
,
1001
0000
0110
1000
,
0100
1000
0010
0001
,
1001
0010
1000
0100
,
0000
0010
0000
0010
0000
0100
0000
1000
,
0001
0000
0100
0000
0001
1000
0000
0010
,
0000
1000
0100
0010
0000
0001
0100
0010
,
1000
1000
0001
0001
,
0010
0001
0100
1000
,
1010
0101
1010
0101
,
0001
0010
0001
0100
,
0010
0000
1000
0100
1000
0000
0001
0000
,
0010
0000
0001
0000
0100
0010
1000
0000
,
1100
0011
1100
0011
,
0100
0001
0010
0100
,
1000
0000
0010
0000
1000
0001
0100
0020
,
0000
0000
0000
0000
1030
0001
0100
0000
,
1001
0010
1000
0100
,
0010
0001
0100
0001
,
1000
0000
0010
0000
1000
0001
0000
1010
,
0000
0101
0000
1100
0000
0001
1000
0001
,
0100
0010
0010
1000
,
0100
1000
0001
0010
,
0001
0000
0100
0000
1000
0010
1000
0002
,
0010
0010
1000
1003
,
0020
0000
0000
0000
,
0000
0000
0030
0000
1000
0001
0100
0000
,
0000
0010
0000
0010
,
0000
1000
0000
0001
,
0000
0010
0001
0100
,
0001
0010
0100
1000
,
0000
0001
0000
0001
,
0000
1000
0000
0100
,
0000
1000
0010
0100
,
0001
0010
0001
0100
,
1001
0000
0110
0000
,
0001
0010
0001
1000
,
0100
0010
0001
0001
,
0001
0010
1000
0100
,
1000
0010
1000
0100
,
0001
0010
0001
1000
,
0010
1000
0100
0001
,
1000
0010
1000
0001
,
0200
0000
0000
0010
0000
0310
0000
0000
,
1001
0110
1010
0101
,
0001
0000
0010
0001
0100
0000
0010
0000
,
1000
0000
0100
1000
0001
0000
0010
0000
,
0001
0000
1000
0010
0100
0000
0001
0000
,
0011
1100
1001
1010
,
0001
0000
1000
0010
1000
0000
0100
0000
,
0010
0000
0001
0100
0010
0000
1000
0002
,
0000
0000
0013
0000
0001
0100
1000
0000
,
0101
0000
0000
0000
0000
0000
0000
1001
,
0000
0110
0000
1001
0000
0000
0000
0020
,
0000
0000
1030
0000
0100
1000
0000
1001
,
0000
0101
0000
0011
0000
1000
0100
0010
,
0001
0000
1001
0000
0010
0100
0001
0000
,
1000
0000
0010
1000
0001
0000
0010
0000
,
0001
0000
0100
0010
1000
0000
0001
0000
,
0010
1000
0100
0010
0001
1000
0001
0000
,
0020
0000
0000
0000
,
0000
0000
0000
0000
,
0000
0000
0000
0000
,
0030
0000
0000
0000
;

//---------------dance-single - ----------------
#NOTES:
     dance-single:
     :
     Medium:
     12:
     :
0000
0000
0000
0000
,
0000
0000
0000
0000
,
0000
0000
0000
0000
,
0000
0000
0000
0000
,
0000
0000
0000
0000
,
0000
0000
0000
0000
,
0010
0000
0010
0000
0010
0000
0010
0002
,
0000
0000
0103
0010
0000
1000
0000
0002
,
0000
0000
0013
0100
1000
0010
0100
0002
,
0000
0000
0000
0003
,
1001
0000
0010
0000
1000
0100
1000
0002
,
0000
0103
0010
1000
0000
0001
1000
0200
,
0000
0310
0001
0100
0010
0000
1000
0002
,
0000
0013
0001
1000
0000
0020
0000
0000
,
0130
0100
0110
0110
,
1000
1000
1001
1001
,
0001
0010
0100
0000
1000
0010
0100
0000
,
0001
1000
0010
1000
0100
0010
0001
0000
,
1001
0000
0010
0000
1000
0100
1000
0001
,
0000
0010
0100
1000
0010
0100
0001
1000
,
0100
0000
0010
0000
0000
0001
0100
0010
,
0000
1000
0010
1000
0100
0010
0001
0100
,
0010
0000
1000
0000
0000
0100
1000
0001
,
0000
0010
0001
1000
0010
0100
0010
1000
,
0001
0000
0001
0000
0001
0010
0100
2000
,
0000
3010
1000
0002
0000
0203
0000
0310
,
1000
0000
0000
0000
0001
0100
0000
0100
,
0000
0010
0000
1000
0100
1000
0001
0000
,
0110
0000
0001
0000
1000
0100
0000
0010
,
0000
0001
0100
0010
0000
1000
0100
0001
,
0010
0000
0110
0000
1000
0001
0000
0100
,
0000
0001
0000
0010
0000
0001
0100
1000
,
0010
0000
0010
0000
1000
0001
1000
0200
,
0000
0310
0001
1000
0000
0020
0000
0000
,
0130
0000
1001
0000
0001
0010
0100
2000
,
0000
3010
1000
0001
0000
0010
0001
0200
,
0000
0310
1000
0100
1000
0000
0001
0020
,
0000
0031
0100
0010
0000
2000
0001
0000
,
3100
0000
1100
0000
0001
0010
0001
0200
,
0000
0301
1000
0100
0000
0010
0001
0020
,
0000
0130
1000
0001
1000
0010
0100
0002
,
0010
0000
0010
0000
1003
0001
0100
0000
,
1001
0000
0110
0000
1000
0001
0100
0020
,
0000
1030
0100
0001
0000
0010
0100
1000
,
0010
1000
0100
0010
0001
1000
0000
1010
,
0000
0001
0100
1001
0000
0010
1000
0001
,
0010
0000
0010
0000
0001
0100
0010
2000
,
0000
3100
1000
0001
0000
0010
0001
2000
,
0000
3100
0010
0100
1000
0010
1000
0001
,
0010
0100
1000
0010
0100
0001
1000
0100
,
0020
0000
0200
0000
,
0000
0000
0330
0000
1000
0100
0001
0100
,
1000
0000
0010
0100
0001
1000
0000
0000
,
0010
0100
0001
1000
0000
0100
0010
0001
,
0000
0000
1000
0100
1000
0100
1000
0100
,
1000
0010
0100
0001
0000
0001
0100
0000
,
0000
0000
0001
0010
0100
1000
0000
0000
,
0001
0010
0100
1000
0000
0010
1000
0001
,
0000
0000
0100
0001
0100
0001
0100
0001
,
1000
0010
0100
0001
0000
0010
0100
0000
,
1100
0000
0001
0100
1000
0100
0001
0000
,
0010
0001
0100
0010
0000
1000
0100
0001
,
0010
0000
0001
0100
0010
0100
0001
1000
,
0100
0010
0001
0100
0000
0010
1000
0000
,
0101
0000
0001
0010
0001
0100
1000
0000
,
0010
1000
0001
0100
0000
0001
0010
1000
,
0100
0000
0010
0001
0010
0001
0100
0010
,
1000
0100
1000
0001
0000
0100
0010
0000
,
1000
0100
0010
0002
0000
2000
3003
0000
,
1001
0000
0110
0000
1000
0001
0010
0200
,
0000
1300
0010
0100
0000
0001
0010
2000
,
0000
3100
1000
0001
0100
0000
0010
2000
,
0000
3100
0010
0100
1000
0001
0010
0001
,
0100
0000
0101
0000
0010
1000
0001
0200
,
0000
0301
0010
1000
0000
0100
1000
0002
,
0000
0013
0001
0010
0100
0000
1000
0002
,
0000
0013
0001
0100
0010
1000
0001
0100
,
1001
0000
0000
0000
0000
0000
0000
1010
,
0000
0100
0100
0100
0000
0000
0001
1000
,
0000
0001
1000
0100
1000
0001
0000
0011
,
0000
0110
0000
1100
0000
0010
1000
0001
,
0100
0000
0100
0000
0010
1000
0001
0020
,
0000
0130
1000
0001
0000
0010
0001
0200
,
0000
0310
0100
0001
1000
0000
1000
0020
,
0000
1030
0100
0010
0001
0100
1000
0000
,
0020
0000
0000
0000
,
0000
0000
0000
0000
,
0000
0000
0000
0000
,
0030
0000
0000
0000
;

//---------------dance-single - ----------------
#NOTES:
     dance-single:
     :
     Hard:
     15:
     :
0000
0000
0000
0000
,
0000
0000
0000
0000
,
0000
0000
0000
0000
,
0000
0000
0000
0000
,
0000
0000
0000
0000
,
0000
0000
0000
0000
,
0010
0000
0010
0000
0010
0001
0100
0020
,
0000
1030
0100
0001
0000
1000
0100
0020
,
0000
0031
0100
0010
1000
0100
1000
0002
,
0010
0100
0010
0103
,
1000
0001
0000
0000
0010
0000
0000
0000
0001
0000
0100
0000
0001
0000
2000
0000
,
0000
3010
0100
0010
1000
0100
0010
0002
,
0000
0103
0001
0010
0100
1000
0010
0000
,
0100
0001
1000
0200
0000
1300
0010
0000
,
0101
1100
0101
1100
,
0011
1010
0011
1010
,
0001
0001
0100
0100
0010
0010
1000
1000
,
0100
0000
1000
0010
1000
0000
0001
0010
0001
0000
0100
0010
0100
0000
0000
0000
,
1001
0000
0000
0000
0110
0000
0000
0000
0000
1000
0000
0010
0000
0100
0001
0000
,
0000
1000
0000
0010
0000
0100
0001
0000
1000
0100
1000
0000
0001
0100
0001
0000
,
0010
0100
0000
0000
1000
0000
0000
0000
0000
0001
0000
1000
0000
0010
0100
0000
,
0000
0001
0000
1000
0000
0010
0100
0000
0001
0010
0001
0000
1000
0000
0010
0000
,
0101
0000
0000
0000
1010
0000
0000
0000
0001
0100
0000
0010
0000
1000
0001
0000
,
1000
0100
0000
0010
0000
0001
1000
0000
0010
0100
0001
0000
0010
0100
1000
0000
,
0001
0100
0010
0100
0001
0100
0010
2000
,
0000
0000
3100
0000
1000
0000
0001
0000
0100
0010
1000
0000
0001
0100
0001
0000
,
0011
0000
0000
1100
0000
0000
0010
0100
0010
0000
1000
0001
,
0000
0010
0001
0000
1000
0100
1000
0010
0100
0001
0010
0100
,
1000
0000
0000
0001
0000
0000
0000
0000
0000
0000
0000
0000
0100
0000
0000
0010
0000
0000
0100
0000
0000
0000
0000
0000
0001
0000
0000
0000
0010
0000
0000
0000
0100
0000
0000
0000
0000
0000
0000
0000
1000
0000
0000
0000
0001
0000
0000
0000
,
0000
1000
0100
0000
0010
0001
0100
0010
1000
0000
0001
0100
,
0020
0000
0000
1030
0000
0000
0100
0010
0001
0000
1000
0001
,
0000
0010
0001
0000
0100
0010
0100
0001
1000
0001
1000
0100
,
0010
0000
0010
0000
0010
0001
1000
0020
,
0000
0000
0130
0000
0001
0000
1000
0000
0100
0010
0001
0000
1000
0001
0100
0000
,
0010
0000
1001
0000
1010
0100
0001
1000
,
0100
0000
0001
0000
0100
0000
1000
0000
0010
0000
0100
0001
0100
0000
0010
0000
,
1000
0100
0001
0100
0010
0000
0001
1000
,
0010
1000
0100
0010
0001
0100
2000
0000
,
3010
0000
0101
0000
1100
0001
1000
0100
,
0010
1000
0010
0001
0100
0010
1000
0100
,
0010
0100
0010
1000
0010
0001
0100
0010
,
1000
0000
0100
0010
0001
0000
0100
0010
1000
0001
0100
0000
0010
0000
1000
0000
,
0001
0000
0001
0000
0001
0010
0100
2000
,
0000
0000
3010
0000
1000
0000
0001
0000
0100
0010
0100
0000
0001
0000
2000
0000
,
0000
3100
0010
0001
1000
0100
0010
0011
,
0000
0000
1100
0000
0010
0000
0101
0000
0000
0000
1000
0000
0010
0000
0001
0100
,
0001
0000
0000
0000
0110
0000
0000
1000
0001
0000
0100
0000
0010
0000
1000
0000
,
0100
0000
0001
0000
0100
0000
1000
0000
0010
0100
0001
0000
1000
0000
0010
0000
,
0100
1000
0100
0010
1000
0100
1000
0001
,
0010
0001
0010
0100
1000
0010
0100
0000
0001
1000
0100
1000
0010
0100
0001
0000
,
0020
0000
0200
0000
,
0000
0000
0000
0000
0330
0000
0000
0000
1000
0100
1000
0100
1000
0000
0001
0000
,
0100
0000
0010
1000
0001
0100
1000
0000
,
0001
0010
0100
1000
0000
1000
0001
0100
,
0010
0000
1000
0100
1000
0001
0010
0100
,
1000
0010
0100
0001
0000
0001
0010
0000
,
0100
0000
1000
0010
0001
0100
0010
0000
,
1000
0001
1000
0010
0000
0100
0010
1000
,
0001
0000
0010
0001
0010
1000
0010
0100
,
1000
0000
0010
0000
0100
0000
0001
0000
1000
0100
1000
0100
0010
0001
0010
0001
,
1000
0001
0000
0000
0100
0000
0010
0000
1000
0000
0100
0000
0001
0000
0000
0000
,
0010
0001
0100
1000
0100
0001
1000
0100
,
0000
0010
0001
1000
0001
0100
0001
1000
,
0010
0100
0010
1000
0100
0010
0001
0000
,
0100
0000
0001
0010
1000
0100
0010
0000
,
0001
1000
0001
0010
0100
0001
0100
1000
,
0010
0000
1000
0100
1000
0000
0001
0100
0001
0000
1000
0010
1000
0000
0001
0010
,
0001
0000
0100
0000
0010
0000
1000
0000
0100
0010
0100
0000
1000
0001
1000
0000
,
0010
1000
0100
0002
0000
2000
3003
0000
,
1001
0000
0000
0000
0110
0000
0000
0001
1000
0000
0100
0000
0010
0000
0001
0000
,
0100
0000
1000
0000
0100
0000
0001
0000
0010
0100
1000
0000
0001
0000
0100
0000
,
0010
0000
0001
0000
0010
0000
1000
0000
0100
0000
0010
0001
1000
0000
0010
0000
,
0100
1000
0100
0001
0010
0100
0001
0100
,
1000
0000
0000
0000
1000
0000
0010
0100
0001
0000
0010
0000
0001
0000
1000
0000
,
0100
0000
0010
0000
0100
0000
0001
0000
0100
1000
0001
0000
0100
0000
0010
0000
,
1000
0000
0001
0000
0010
0000
1000
0000
0010
0000
0001
0100
0001
0000
1000
0000
,
0010
0000
0100
0000
0010
0000
1000
0000
0001
0010
0100
1000
0100
0010
0001
0000
,
1100
0000
0000
0000
0000
0000
0000
1001
,
0000
0000
0011
0000
0110
0000
1100
0000
0000
0000
0001
0100
0010
0000
2000
0000
,
0000
0000
3100
0000
1000
0000
0010
0000
0001
0000
1000
0100
1000
0000
0101
0000
,
0000
0000
0011
0000
1000
0000
1010
0000
0000
0000
0100
0000
0001
1000
0010
0100
,
0001
0000
0000
0000
0010
0000
0001
1000
0100
0000
1000
0000
0010
0000
0100
0000
,
0001
0000
0010
0000
1000
0000
0100
0000
0010
0001
1000
0000
0001
0000
0100
0000
,
0010
0000
1000
0000
0100
0000
0010
0001
1000
0000
0001
0100
0010
0000
1000
0000
,
0100
0010
0001
0000
1000
0000
0010
0100
0001
1000
0001
0010
0100
1000
0001
0100
,
0020
0000
0000
0000
,
0000
0000
0000
0000
,
0000
0000
0000
0000
,
0030
0000
0000
0000
;
