#TITLE:Hey Mama;
#SUBTITLE:;
#ARTIST:David Guetta ft. Nicki Minaj, Afrojack & Bebe Rexha;
#TITLETRANSLIT:;
#SUBTITLETRANSLIT:;
#ARTISTTRANSLIT:;
#GENRE:;
#CREDIT:;
#BANNER:Hey Mama-bn.png;
#BACKGROUND:Hey Mama-bg.png;
#LYRICSPATH:;
#CDTITLE:;
#MUSIC:Hey Mama.ogg;
#OFFSET:0.000000;
#SAMPLESTART:55.813999;
#SAMPLELENGTH:20.000000;
#SELECTABLE:YES;
#DISPLAYBPM:172.000000;
#BPMS:0.000000=171.979996
;
#STOPS:
;
#BGCHANGES:;
#KEYSOUNDS:;
#ATTACKS:;

//---------------dance-single - ----------------
#NOTES:
     dance-single:
     :
     Hard:
     13:
     0.531140,0.608799,0.177047,0.531140,0.088523,462.000000,440.000000,22.000000,66.000000,0.000000,0.000000,0.531140,0.608799,0.177047,0.531140,0.088523,462.000000,440.000000,22.000000,66.000000,0.000000,0.000000:
0000
0000
0000
0000
,
0000
0000
0000
0000
,
0000
0000
0000
0000
,
0000
0000
0000
0000
,
0000
0000
0000
0000
,
0000
0000
0000
0000
,
0000
0000
0000
0000
,
0000
0000
0000
0000
,
0002
0010
1000
0013
,
2000
0100
0001
3100
,
0020
0001
0100
1030
,
0200
0010
1000
0301
,
0200
0000
0001
0000
1000
0000
0301
0100
,
2000
0000
0010
0000
0100
0000
3001
1000
,
0020
0100
0100
0130
,
0002
0000
0000
0000
1000
0000
0000
0000
0013
0000
0001
1000
0001
0000
0100
0000
,
0110
2000
3002
0103
,
0020
0000
2030
0000
3200
0000
1300
0001
,
0100
0002
2003
3100
,
2100
0001
0001
3001
,
0110
0002
0023
0130
,
2000
0000
3002
0000
0023
0000
0130
1000
,
0010
0200
0302
1003
,
0102
0000
0100
0000
1000
1000
1000
1000
,
1003
0010
0001
1000
0100
0001
0000
0010
,
0000
0001
0100
0010
1000
0100
0000
0000
,
0010
0000
0010
0001
0000
0001
1000
0000
1000
0010
0000
0010
,
0100
0000
0000
0000
0100
0000
0001
0000
0000
0000
0001
0000
0010
0000
0000
0000
0100
0000
1000
0000
0000
1000
0000
0000
,
1000
0010
0100
0001
1000
0000
0000
0001
,
0010
1000
0010
0001
0100
0000
0001
1000
,
0001
0010
1000
0010
0001
1000
0000
0010
,
0100
0000
0000
0001
1000
0000
0100
0000
0010
0000
0010
0000
0010
0000
0010
0000
,
0001
0101
0000
1000
0010
0100
0001
0000
,
1000
1100
0000
0001
0010
0100
1000
0000
,
0001
0011
0000
0100
0010
1000
0001
0000
,
1000
0000
1000
0010
0000
0010
0100
0000
0100
0001
0000
0001
,
1000
1100
0000
0010
0001
0100
1000
0000
,
0001
0101
0000
0010
1000
0100
0001
0000
,
0010
0110
0000
0100
0010
0001
1000
0000
,
0001
0000
0100
0000
1000
0000
0100
0000
0001
0000
1000
0100
1000
0000
0001
0000
,
0100
0010
0000
1000
1000
0000
0001
0010
,
0000
0001
0100
0000
2020
0000
3000
0000
,
0130
0010
0000
0100
0001
0000
1000
0001
,
0000
1000
0010
0000
0202
0000
0300
0000
,
0013
0100
0000
0100
1000
0000
0010
1000
,
0000
0001
0001
0000
1000
0000
0010
0000
,
1002
0100
0000
1000
0000
1000
0000
1003
,
2001
0100
0000
0001
0000
3001
0100
0000
,
0010
1000
0000
0100
0010
0000
0001
1000
,
0000
0001
0100
0000
2010
0000
0001
0000
,
3100
0000
0000
0010
0000
0000
0001
0000
0001
0000
0000
0000
1000
0000
0001
0000
,
0000
1000
0010
0000
0102
0000
1000
0000
,
0103
0001
0000
0010
0100
0000
1000
0010
,
0000
1000
0001
0000
0100
0000
0010
0000
,
1002
0100
0000
1000
0000
1000
0000
1003
,
2001
0000
0100
0000
0000
0000
0001
0000
3001
0000
1000
0010
1000
0000
0100
0000
,
0110
0002
0203
0310
,
2000
0000
3002
0000
2003
0000
3100
0010
,
0001
0200
0320
1030
,
2100
0010
0010
3010
,
0110
0200
0320
1030
,
0002
0000
0023
0000
0230
0000
1300
0010
,
0100
0020
2030
3001
,
0012
0000
0000
0000
0100
0000
0000
0000
1003
0000
0001
0100
0001
0000
0010
0000
,
0200
0000
1300
0001
0001
0000
0100
0010
,
0000
0000
1000
0000
0000
0000
0001
0000
0010
0000
0100
1000
0200
0000
0000
0000
,
0320
0000
0031
0100
0100
0000
0010
1000
,
0000
0001
0000
1000
0020
0100
0130
0000
,
0002
0000
0013
0100
0100
0000
1000
0001
,
0000
0000
0010
0000
0000
0000
0001
0000
0100
0000
0010
1000
0020
0000
0000
0000
,
2030
0000
3100
0010
0010
0000
0001
1000
,
0000
0000
0001
0000
0000
0000
1000
0000
0010
0000
0100
0001
0100
0000
0010
0000
,
0200
0000
0301
0010
1000
0001
0100
1000
,
0010
0100
0010
1000
0002
0100
0103
0010
,
0200
0000
0301
0100
1000
0001
0010
1000
,
0100
0001
0100
1000
0020
0000
0230
0000
,
0302
0000
1003
0100
0100
0000
1000
0010
,
0000
0000
0100
0000
0000
0000
0001
0000
1000
0000
0010
0100
0020
0000
0000
0000
,
2030
0000
3001
0010
0010
0000
0001
1000
,
0000
0000
0100
0000
0000
0000
0010
0000
0001
0000
1000
0100
1000
0000
0001
0000
,
0100
0100
0010
0010
,
0100
0000
0010
0000
0100
0001
0000
1000
,
1000
0000
0001
0000
1000
0000
0001
0010
,
0100
0000
0100
0000
1000
0001
0000
0100
,
0100
0001
0100
0001
,
1000
0000
1000
0000
1000
0001
0000
0010
,
0010
0000
0001
0100
1000
0000
1000
0000
,
0010
0000
0100
0000
0001
0001
0001
0002
,
0000
0000
0000
0000
,
0003
0000
0000
0000
;

//---------------dance-single - ----------------
#NOTES:
     dance-single:
     :
     Medium:
     10:
     0.432270,0.459668,0.112666,0.402379,0.000000,376.000000,362.000000,14.000000,50.000000,0.000000,0.000000,0.432270,0.459668,0.112666,0.402379,0.000000,376.000000,362.000000,14.000000,50.000000,0.000000,0.000000:
0000
0000
0000
0000
,
0000
0000
0000
0000
,
0000
0000
0000
0000
,
0000
0000
0000
0000
,
0000
0000
0000
0000
,
0000
0000
0000
0000
,
0000
0000
0000
0000
,
0000
0000
0000
0000
,
0002
0010
0010
0013
,
2000
0100
0100
3100
,
0020
1000
1000
1030
,
0200
0001
0001
0301
,
1000
0010
0100
0001
,
1000
0100
0010
0001
,
0100
0010
1000
0001
,
0010
0000
0010
0000
0001
1000
0001
1000
,
0001
0200
0020
0330
,
1000
0000
0001
0000
0010
0000
0001
0100
,
0000
0002
2003
3020
,
0230
0000
0000
0300
,
0001
2000
0200
3300
,
0010
0000
0001
0000
0100
0000
0010
1000
,
0000
0002
0023
0230
,
2300
0000
3010
0000
1000
0001
1000
0001
,
1000
0000
0010
0000
1000
0001
0000
0100
,
0000
0001
0010
0000
0001
1000
0000
0000
,
0010
1000
0100
0000
0010
0001
0100
0000
,
0010
1000
0001
0000
1000
0100
0000
0000
,
0010
0001
0100
0000
1001
0000
0000
0000
,
0010
0000
1000
0001
0000
0000
1000
0100
,
0010
0000
0001
1000
0001
0000
0000
0010
,
0100
0000
1000
0001
0100
0000
0110
0000
,
0000
1001
0000
0010
1000
0000
0001
0000
,
0000
0011
0000
0001
0100
0000
0010
0000
,
0000
1010
0000
1000
0100
0000
0010
0000
,
0001
0100
0001
0100
0001
0000
1000
0000
,
0000
1100
0000
1000
0010
0000
0100
0000
,
0000
0110
0000
0001
1000
0000
0100
0000
,
0000
0011
0000
0001
0100
0000
0010
0000
,
1000
0100
1000
0100
1000
0000
0001
0000
,
0100
0010
0000
0100
0010
0000
0100
0010
,
0000
0100
0010
0000
0220
0000
0030
0000
,
0301
1000
0000
0001
1000
0000
0001
1000
,
0000
0001
1000
0000
2002
0000
3000
0000
,
0013
0001
0000
1000
0100
0000
1000
0010
,
0000
0100
0001
0000
1000
0000
0100
0000
,
2000
0010
0000
0010
0000
3010
0000
0100
,
0002
0010
0000
0010
0000
0013
0000
0000
,
0001
0010
0000
0001
0010
0000
0100
1000
,
0000
0100
1000
0000
2020
0000
3000
0000
,
0130
0001
0000
0100
0001
0000
1000
0010
,
0000
1000
0010
0000
0202
0000
0003
0000
,
0310
0100
0000
0001
1000
0000
0001
0010
,
0000
0100
1000
0000
0001
0000
0100
0000
,
0002
0010
0000
0010
0000
0013
0000
0100
,
2000
0010
0000
0010
0000
3010
0000
0000
,
1001
0020
0200
0330
,
0001
0000
0010
0000
0001
0000
1000
0010
,
0000
0200
0302
2003
,
3020
0000
0000
0030
,
0110
2000
0002
3003
,
1000
0000
0100
0000
0010
0000
0001
0100
,
0000
0002
0023
0230
,
2300
0000
0000
0000
3001
0100
0001
0100
,
0001
0000
0010
0100
1000
0000
0010
0100
,
0000
0100
0000
0100
0002
0000
2003
0000
,
3100
0000
1000
0001
1000
0000
0010
0100
,
0000
0001
0000
1000
0002
0000
0023
0000
,
0130
0000
1000
0010
1000
0000
0001
0010
,
0000
0010
0000
0001
0200
0000
0320
0000
,
1030
0000
0100
1000
0001
0000
0100
0010
,
0000
0010
0000
0100
0001
1000
0001
1000
,
0100
0000
1000
0010
1000
0000
0001
0010
,
0000
0001
0100
0000
0020
0000
2030
0000
,
3100
0000
0010
0001
1000
0000
0001
0100
,
0000
0010
1000
0000
0002
0000
0203
0000
,
0301
0000
0010
0001
0100
0000
0010
1000
,
0000
1000
0000
1000
0100
0010
0001
0000
,
0100
0000
0010
1000
0010
0000
0100
0001
,
0000
0001
0000
0010
0001
1000
0001
1000
,
0100
0100
0010
0010
,
0001
0000
1000
0000
0001
0100
0000
0010
,
1000
1000
0001
0001
,
1000
0000
0100
0000
1000
0010
0000
0100
,
0001
0010
0001
0010
,
0001
0000
1000
0000
0001
0100
0000
0010
,
1000
0100
1000
0100
,
0010
0000
0001
0000
1000
0100
1000
0001
;

//---------------dance-single - ----------------
#NOTES:
     dance-single:
     :
     Easy:
     7:
     0.294311,0.423705,0.064381,0.193142,0.000000,256.000000,248.000000,8.000000,24.000000,0.000000,0.000000,0.294311,0.423705,0.064381,0.193142,0.000000,256.000000,248.000000,8.000000,24.000000,0.000000,0.000000:
0000
0000
0000
0000
,
0000
0000
0000
0000
,
0000
0000
0000
0000
,
0000
0000
0000
0000
,
0000
0000
0000
0000
,
0000
0000
0000
0000
,
0000
0000
0000
0000
,
0000
0000
0000
0000
,
0002
0000
0000
0003
,
2000
0000
0000
3000
,
0020
0000
0000
0030
,
0200
0000
0000
0300
,
0002
0000
0000
0003
,
0020
0000
0000
0030
,
0200
0000
0000
0300
,
2000
0000
3010
0100
,
1001
0100
0010
0000
,
0001
0001
1000
1000
,
0010
0100
0002
0003
,
2000
0000
0000
3000
,
0110
1000
0001
0000
,
0010
0001
0010
0100
,
1000
0010
0200
0300
,
0002
0010
1000
1003
,
0001
1000
0100
0000
,
1000
0010
0100
0000
,
0001
0001
1000
1000
,
0001
0100
0010
0000
,
1000
0100
1000
0000
,
0010
0100
0001
1000
,
0100
0010
0001
0000
,
0100
0010
0100
0001
,
0000
0010
0001
0100
,
0000
0010
1000
0100
,
0000
1000
0001
1000
,
0010
0010
0100
0100
,
0000
0001
0010
0100
,
0000
1000
0001
1000
,
0000
0100
0010
0001
,
1000
1000
0001
0001
,
0010
0001
0010
0100
,
1000
1000
2000
0000
,
3010
1000
0010
0100
,
0001
1000
0002
0000
,
0013
0001
0010
0100
,
1000
0010
0100
0001
,
1002
0100
0100
0103
,
2001
0100
0100
3100
,
1000
0010
1000
0001
,
0010
0001
0200
0000
,
0310
0100
0010
1000
,
0001
0010
0200
0000
,
1300
0010
1000
0100
,
0010
0001
0100
0010
,
0120
1000
1000
1030
,
0210
0001
0001
0301
,
1001
0100
0010
0000
,
1000
0100
1000
0001
,
0010
0100
2000
3000
,
0002
0000
0000
0003
,
0110
0001
1000
0000
,
0010
1000
0100
0010
,
0001
0100
0020
0030
,
2000
0000
0001
3100
,
1000
0010
1000
0001
,
0100
0000
0010
0010
,
1000
0001
1000
0100
,
0010
0000
0010
0001
,
0100
0010
0100
0001
,
1000
0000
0001
0010
,
0100
0100
0010
0001
,
0100
0000
0010
1000
,
0001
0010
0001
0100
,
0010
1000
0100
0000
,
0010
0001
0010
0100
,
1000
0010
1000
0000
,
0001
1000
0001
0010
,
0100
0000
1000
1000
,
0100
1000
0010
0100
,
0001
0000
1000
1000
,
0010
0000
0010
0000
,
0010
0100
0001
0000
,
0010
0000
0010
0000
,
0001
1000
0001
0000
,
0100
0000
0100
0000
,
0100
0010
1000
0000
,
0100
0000
0100
0000
,
1000
0000
0001
0001
;

//---------------dance-single - ----------------
#NOTES:
     dance-single:
     :
     Beginner:
     3:
     0.139108,0.211852,0.000000,0.032190,0.000000,121.000000,121.000000,0.000000,4.000000,0.000000,0.000000,0.139108,0.211852,0.000000,0.032190,0.000000,121.000000,121.000000,0.000000,4.000000,0.000000,0.000000:
0000
0000
0000
0000
,
0000
0000
0000
0000
,
0000
0000
0000
0000
,
0000
0000
0000
0000
,
0000
0000
0000
0000
,
0000
0000
0000
0000
,
0000
0000
0000
0000
,
0000
0000
0000
0000
,
0001
0000
0000
0000
,
1000
0000
0000
0000
,
0010
0000
0000
0000
,
0100
0000
0000
0000
,
0001
0000
0000
0000
,
0010
0000
0000
0000
,
0100
0000
0000
0000
,
1000
0000
0000
0000
,
0010
0000
0000
0000
,
0100
0000
0000
0000
,
0001
0000
0000
0000
,
1000
0000
0000
0000
,
0100
0000
0000
0000
,
1000
0000
0000
0000
,
0001
0000
0000
0000
,
0010
0000
0000
0000
,
0001
0000
0001
0000
,
0001
0000
0000
0000
,
1000
0000
1000
0000
,
1000
0000
0000
0000
,
0010
0000
0010
0000
,
0010
0000
0000
0000
,
0100
0000
0100
0000
,
0100
0000
0000
0000
,
0001
0000
0000
0000
,
1000
0000
0000
0000
,
0001
0000
0000
0000
,
0100
0100
0100
0000
,
0010
0000
0000
0000
,
1000
0000
0000
0000
,
0001
0000
0000
0000
,
1000
1000
1000
0000
,
0001
0000
0001
0000
,
0001
0000
0000
0000
,
0010
0000
0010
0000
,
0010
0000
0000
0000
,
0100
0000
0100
0000
,
0100
0000
0000
0000
,
2000
0000
3000
0000
,
0002
0000
0003
0000
,
1000
0000
1000
0000
,
1000
0000
0010
0000
,
0100
0000
0100
0000
,
0001
0000
0010
0000
,
0100
0000
0100
0000
,
1000
0000
0001
0000
,
0200
0000
0300
0000
,
0020
0000
0030
0000
,
1000
0000
0000
0000
,
0001
0000
0000
0000
,
1000
0000
0000
0000
,
0001
0000
0000
0000
,
0100
0000
0000
0000
,
0010
0000
0000
0000
,
0100
0000
0000
0000
,
0010
0000
0000
0000
,
1000
0000
1000
0000
,
1000
0000
1000
0000
,
0001
0000
0001
0000
,
0001
0000
0100
0000
,
0010
0000
0100
0000
,
0100
0000
0001
0000
,
0010
0000
0100
0000
,
1000
0000
0001
0001
,
0001
0000
0100
0000
,
0001
0000
1000
0000
,
0010
0000
1000
0000
,
0100
0000
0010
0000
,
0001
0000
0100
0000
,
0100
0000
0100
0000
,
0001
0000
1000
0000
,
0100
0000
0010
0010
,
0010
0000
0001
0000
,
0100
0000
0000
0000
,
0010
0000
1000
0000
,
0100
0000
0000
0000
,
1000
0000
0010
0000
,
1000
0000
0000
0000
,
0100
0000
0100
0000
,
1000
0000
0001
0001
;

//---------------dance-single - ----------------
#NOTES:
     dance-single:
     :
     Challenge:
     15:
     0.754173,1.110163,0.193142,0.225332,0.450664,656.000000,632.000000,24.000000,28.000000,0.000000,0.000000,0.754173,1.110163,0.193142,0.225332,0.450664,656.000000,632.000000,24.000000,28.000000,0.000000,0.000000:
// measure 0
0000
0000
0000
0000
,  // measure 1
0000
0000
0000
0000
,  // measure 2
0000
0000
0000
0000
,  // measure 3
0000
0000
0000
0000
,  // measure 4
0000
0000
0000
0000
,  // measure 5
0000
0000
0000
0000
,  // measure 6
0000
0000
0000
0000
,  // measure 7
0000
0000
0000
0000
,  // measure 8
0001
0010
0001
0100
0010
1000
0100
0000
,  // measure 9
1000
0010
0100
0010
1000
0100
0001
0000
,  // measure 10
0010
0001
0100
0010
1000
0100
1000
0000
,  // measure 11
0001
0010
0001
1000
0100
0010
0001
0000
,  // measure 12
0100
0010
0100
0001
0010
0100
1000
0010
,  // measure 13
1000
0001
1000
0100
0010
0001
0100
0010
,  // measure 14
1000
0100
1000
0100
0010
0001
0010
0001
0100
0010
0100
0010
1000
0001
1000
0001
,  // measure 15
0100
0001
0100
0001
1000
0010
1000
0010
0100
0000
0001
1000
0001
0000
0100
0000
,  // measure 16
0110
0000
0000
0000
0001
0000
0000
0001
1000
0000
0000
1000
0100
0000
0000
0100
,  // measure 17
0010
0000
0000
0010
0001
0000
0000
0001
0100
0000
0000
0100
0010
0000
0000
0010
,  // measure 18
1000
0000
0000
1000
0100
0000
0000
0100
0010
0000
0000
0010
0001
0000
0000
0001
,  // measure 19
1000
0000
0000
1000
0010
0000
0000
0010
1000
0000
0000
1000
0001
0000
0000
0000
,  // measure 20
1001
0000
0000
0000
0010
0000
0000
0010
0001
0000
0000
0001
1000
0000
0000
1000
,  // measure 21
0001
0000
0000
0001
0100
0000
0000
0100
0010
0000
0000
0010
1000
0000
0000
1000
,  // measure 22
0100
0000
0000
0100
0010
0000
0000
0010
0001
0000
0000
0001
1000
0000
0000
1000
,  // measure 23
0020
0000
0230
0000
0301
0001
0001
0001
,  // measure 24
1000
0010
0001
1000
0100
0010
0001
0100
,  // measure 25
0000
0010
0100
0010
1000
0100
0001
0000
,  // measure 26
0010
0001
0100
0010
1000
0010
0100
0001
,  // measure 27
0010
0001
1000
0001
0100
0010
1000
1000
,  // measure 28
1000
0100
1000
0010
0100
0001
0010
0100
,  // measure 29
0100
1000
0010
1000
0001
0000
0100
0010
,  // measure 30
0100
0001
0010
0100
1000
0001
1000
0010
,  // measure 31
0100
0000
0001
0010
0001
0000
1000
0000
0010
0000
0010
0000
0010
0000
0010
0000
,  // measure 32
1000
0100
0010
0001
0100
0010
1000
1000
,  // measure 33
0001
0010
0001
0100
0010
1000
0001
0100
,  // measure 34
0100
0010
0100
0001
0010
0100
1000
0001
,  // measure 35
0001
0010
1000
0010
0100
0010
0001
1000
,  // measure 36
1000
0010
1000
0100
0010
0001
0100
0010
,  // measure 37
0010
1000
0001
1000
0100
0010
0001
0100
,  // measure 38
0100
0010
0100
0001
1000
0100
0010
0001
,  // measure 39
0001
0000
1000
0000
0010
0000
1000
0000
0100
0000
1000
0001
1000
0000
0010
0000
,  // measure 40
0110
0001
0000
0010
0100
0000
1000
0001
,  // measure 41
1000
0100
0010
0000
0002
0000
1003
0001
,  // measure 42
0100
0010
0000
0100
0001
0000
0010
0100
,  // measure 43
1000
0001
1000
0000
0020
0100
0130
0001
,  // measure 44
1000
0100
0000
0010
0001
0000
0100
0010
,  // measure 45
0100
0001
1000
0000
0001
0010
0100
0000
,  // measure 46
1100
0110
0000
0011
0000
0101
0000
0110
,  // measure 47
1001
1010
0000
1100
0000
0011
0101
0000
,  // measure 48
1001
1000
0010
0100
0010
1000
0100
0010
,  // measure 49
0001
0100
1000
0000
0002
0100
0103
0000
,  // measure 50
0010
1000
0100
0010
0001
0100
0001
1000
,  // measure 51
0001
0010
0100
0000
2000
0001
3001
0000
,  // measure 52
0100
0001
0010
0100
1000
0010
1000
0001
,  // measure 53
0100
0010
1000
0000
0001
0100
1000
0000
,  // measure 54
0010
1000
0010
1000
0010
0100
0010
0100
0001
0010
0001
0010
0001
1000
0001
1000
,  // measure 55
0100
1000
0100
1000
0001
0100
0001
0100
0010
0000
1000
0001
1000
0000
0010
0000
,  // measure 56
0110
0000
0000
0000
0100
0000
0000
0100
0001
0000
0000
0001
0010
0000
0000
0010
,  // measure 57
0100
0000
0000
0100
1000
0000
0000
1000
0001
0000
0000
0001
1000
0000
0000
1000
,  // measure 58
0010
0000
0000
0010
1000
0000
0000
1000
0100
0000
0000
0100
0010
0000
0000
0010
,  // measure 59
0001
0000
0000
0001
0100
0000
0000
0100
0010
0000
0000
0010
1000
0000
0000
0000
,  // measure 60
1001
0000
0000
0000
0100
0000
0000
0100
0001
0000
0000
0001
0010
0000
0000
0010
,  // measure 61
0001
0000
0000
0001
1000
0000
0000
1000
0100
0000
0000
0100
0010
0000
0000
0010
,  // measure 62
0100
0000
0000
0100
0010
0000
0000
0010
0001
0000
0000
0001
1000
0000
0000
1000
,  // measure 63
0010
0100
0010
0100
0001
1000
0001
1000
0100
0000
1000
0010
1000
0000
0001
0000
,  // measure 64
0200
0000
0301
0001
0001
0010
0100
0100
,  // measure 65
0000
0000
1000
0000
0000
0000
0010
0000
1000
0000
0100
0010
0002
0000
0000
0000
,  // measure 66
2003
0000
3001
0001
0001
0100
0010
0010
,  // measure 67
0000
0000
1000
0000
0000
0000
0001
0000
0010
0100
1000
0010
0200
0000
0000
0000
,  // measure 68
0302
0000
0013
0010
0010
0001
1000
1000
,  // measure 69
0000
0000
0010
0000
0000
0000
1000
0000
0001
0000
1000
0100
0020
0000
0000
0000
,  // measure 70
0032
0000
0103
0100
0100
0010
1000
0001
,  // measure 71
1000
0100
1000
0100
0010
0001
0010
0001
0100
0000
0010
1000
0001
0000
0001
0000
,  // measure 72
0011
0000
0000
0000
0100
0000
1000
0000
0010
0000
1000
0100
0010
0000
0001
0000
,  // measure 73
0100
0000
0100
0000
0001
1000
0100
0000
0010
0001
0100
0000
0010
0000
1000
0000
,  // measure 74
1100
0000
0000
0000
1000
0001
0100
0000
0010
0000
1000
0000
1000
0000
0100
0000
,  // measure 75
0010
0000
0010
0000
0001
0000
0001
0000
0100
0010
1000
0100
0020
0000
0000
0000
,  // measure 76
0032
0000
0103
0100
0100
0010
1000
1000
,  // measure 77
0000
0000
0001
0000
0000
0000
1000
0000
0010
0000
1000
0001
0200
0000
0010
0000
,  // measure 78
0320
0000
0130
0100
0100
0010
1000
0001
,  // measure 79
0010
0100
1000
0010
0100
0001
1000
0001
0100
0000
0001
0010
0100
0000
1000
0000
,  // measure 80
0002
0100
0103
0000
0020
1000
1030
0000
,  // measure 81
0200
0010
0310
0000
0001
0101
0000
1100
,  // measure 82
0002
1000
1003
0000
0020
0100
0130
0001
,  // measure 83
0020
0100
0130
0000
1000
1010
0000
0011
,  // measure 84
0200
0001
0301
0000
2000
0100
3100
0000
,  // measure 85
0002
0010
0013
0000
1000
1100
0000
0011
,  // measure 86
0100
0001
0100
0001
0010
0001
0010
0001
1000
0100
1000
0100
1000
0010
1000
0010
,  // measure 87
0200
0010
0310
0000
0001
0001
0001
0002
,  // measure 88
0000
0000
0000
0000
,  // measure 89
0003
0000
0000
0000
;
