#TITLE:Henry Henry;
#SUBTITLE:;
#ARTIST:Bunmei;
#TITLETRANSLIT:;
#SUBTITLETRANSLIT:;
#ARTISTTRANSLIT:;
#GENRE:;
#CREDIT:;
#BANNER:Henry Henry-bn.png;
#BACKGROUND:Henry Henry-bg.png;
#LYRICSPATH:;
#CDTITLE:;
#MUSIC:Henry Henry.ogg;
#OFFSET:0.000000;
#SAMPLESTART:21.000000;
#SAMPLELENGTH:20.000000;
#SELECTABLE:YES;
#DISPLAYBPM:45.000000:203.000000;
#BPMS:0.000000=45.000000
,12.000000=90.000000
,19.500000=101.500000
,20.000000=203.490005
,135.000000=67.830002
,143.000000=203.490005
,239.000000=67.830002
;
#STOPS:
;
#BGCHANGES:;
#KEYSOUNDS:;
#ATTACKS:;

//---------------dance-single - ----------------
#NOTES:
     dance-single:
     :
     Hard:
     16:
     0.717241,0.789355,0.311844,0.457371,0.514542,483.000000,453.000000,30.000000,44.000000,0.000000,0.000000,0.717241,0.789355,0.311844,0.457371,0.514542,483.000000,453.000000,30.000000,44.000000,0.000000,0.000000:
0000
0000
0000
0000
,
0000
0000
0000
0000
,
2000
3002
0203
0000
,
0302
0000
0000
0000
,
2003
0000
0000
0000
0000
0000
0000
0000
0000
0000
0000
0000
0000
0000
3010
0100
,
0102
0000
0010
0000
0010
0000
1003
0001
,
2100
0000
0010
0000
0010
0000
3001
1000
,
0010
0000
0100
0000
0001
0010
0100
0010
0001
0000
1000
0000
0010
1000
0100
0000
,
0010
0000
0011
0000
1100
0000
0001
0100
,
1020
0000
0100
0000
0100
0000
1030
0001
,
1200
0000
0001
0000
0001
0000
1300
0010
,
0100
0000
0001
0000
1000
0010
0100
0010
1000
0000
0001
0000
0010
0000
0100
0000
,
1000
0000
1010
0000
0101
0000
0010
0100
,
2010
0000
0001
0000
0001
0000
3100
0010
,
0021
0000
1000
0000
1000
0000
0031
0010
,
0100
0000
1000
0000
0010
0100
0001
0100
0010
0000
1000
0001
1000
0000
0100
0000
,
0010
0000
1001
0000
0110
0000
0100
0001
,
0021
0000
0100
0000
0100
0000
0031
1000
,
0201
0000
0010
0000
0010
0000
1300
0100
,
0001
0000
0010
0100
1000
0010
0100
0000
0001
0000
0010
0000
0001
0000
1000
0000
,
0100
0110
1001
0000
,
0002
0000
1003
0100
0010
0000
0002
0000
1003
0010
0100
0000
0002
0000
0003
0000
,
0010
0000
0100
1000
0010
0100
0001
0000
1000
0000
0001
0000
0010
0000
0100
0000
,
2000
0000
3010
0100
0001
0000
2000
0000
3100
0010
0001
0000
2000
0000
3000
0000
,
0001
0100
0010
0100
0010
0100
0001
0000
1000
0000
0010
0000
1000
0000
0100
0000
,
0020
0000
0031
1000
0100
0000
0020
0000
0130
1000
0001
0000
0200
0000
0300
0000
,
0000
0000
0001
0000
1000
0000
0100
0010
0100
1000
0001
0000
0100
0000
0010
0000
,
0200
0000
1300
0001
0010
0000
0200
0000
0310
0001
1000
0000
0001
0000
0100
0000
,
0010
0000
1000
0000
0100
0010
0001
1000
0010
0000
0100
0000
0001
0000
1000
0000
,
0001
1000
0100
0010
0100
0000
1000
0000
0010
0000
0100
0000
0001
0010
0100
1000
,
0010
0000
1000
0000
0001
0000
0010
0000
0100
0010
0001
1000
0010
0000
1000
0000
,
0100
1000
0001
0010
0001
0000
0100
0000
0010
0000
0100
0000
0010
1000
0001
0100
,
0010
0000
1000
0000
0100
0000
0010
0000
0001
1000
0010
0100
0001
0000
0010
0000
,
0100
0000
0000
0000
0000
0000
0010
0000
0000
0000
0000
0000
0001
0000
0000
0000
0000
0000
0100
0000
0000
0000
0000
0000
0010
0000
0000
1000
0000
0000
0001
0000
0000
0000
0000
0000
2100
0000
0000
0000
0000
0000
0000
0000
0001
0000
0000
0000
,
0001
0000
0001
0001
0000
0001
3001
1000
0010
0102
0000
1000
,
1000
0000
0000
0000
1000
0000
1000
0000
0000
0000
1000
0000
1003
0000
0001
0000
0010
0100
1000
0000
0000
0001
0000
0000
,
0010
0100
0001
1000
0100
0000
1010
0000
,
0001
0010
0100
0001
1000
0000
0010
1000
,
0100
0010
0001
0100
1000
0000
0101
0000
,
0010
1000
0100
0001
1000
0000
0001
0010
,
1000
0010
0001
0100
1000
0100
0001
0010
,
1000
0000
0000
0010
0000
0000
0001
0000
0000
0100
0000
0000
1000
0000
0000
0100
0000
0000
0001
0000
0010
0000
0100
0000
,
1000
0100
0010
0001
0010
0100
1000
0100
0010
0001
0100
0010
,
1000
0010
0100
0001
0100
0010
1000
0010
0100
0001
0010
0100
,
1000
0100
0010
0001
0100
0010
1000
0010
0100
0001
0010
0001
,
1000
0000
0010
0000
1000
0000
0100
0000
0000
0000
0000
0000
1000
0000
0000
0001
0000
0000
0210
0000
0000
0000
0000
0000
,
1000
0000
0001
0000
0310
1000
0102
0000
,
0010
0000
1000
0000
0103
0001
0010
0100
,
1000
0001
0010
0001
1000
0000
0100
0000
0010
0001
1000
0000
0010
0000
0000
0000
,
0110
0000
1001
0000
0100
0001
1020
0000
,
0100
0000
0001
0000
1030
0010
1200
0000
,
0010
0000
0001
0000
1300
0100
0010
0001
,
0100
0000
0001
1000
0010
0000
0100
0000
0001
0010
0100
0000
1000
0000
0000
0000
,
0011
0000
0000
0000
0101
0000
0000
0000
1001
0000
0000
0000
0020
0000
0130
0001
,
1000
0000
0020
0000
0130
0001
1000
0000
0200
0000
0300
0000
0010
0000
0001
0000
,
1000
0010
0100
0001
1000
0000
0010
0000
1000
0000
0100
0000
0002
0000
0013
0100
,
1000
0000
0002
0000
0103
0010
1000
0000
0002
0000
0003
0000
1000
0000
0010
0100
,
0010
1000
0100
0010
0001
0000
0100
0000
0001
0000
1000
0000
0020
0000
1030
0100
,
0010
0000
0002
0000
0103
0001
1000
0000
0020
0000
0130
0010
1000
0000
0200
0000
,
0310
0000
0000
0001
0000
0000
1000
0000
0000
0000
0000
0000
0020
0000
0000
0000
0000
0000
0130
0000
0000
0001
0000
0000
1000
0000
0000
0000
0000
0000
0202
0000
0000
0000
0000
0000
0000
0000
0000
0000
0000
0000
0000
0000
0300
0000
0000
0000
,
0010
2000
0000
3003
;

//---------------dance-single - ----------------
#NOTES:
     dance-single:
     :
     Medium:
     12:
     0.503405,0.536761,0.166317,0.582108,0.031184,339.000000,323.000000,16.000000,56.000000,0.000000,0.000000,0.503405,0.536761,0.166317,0.582108,0.031184,339.000000,323.000000,16.000000,56.000000,0.000000,0.000000:
0000
0000
0000
0000
,
0000
0000
0000
0000
,
2000
3002
0203
0000
,
0320
0000
0000
0000
,
2030
0000
0000
0000
0000
0000
0000
0000
0000
0000
0000
0000
0000
0000
3010
0100
,
0002
0000
1000
0000
1000
0000
0013
0100
,
2000
0000
0010
0000
0010
0000
3001
0100
,
0001
0010
0001
0010
0001
1000
0010
0100
,
0001
0000
0011
0000
1100
0000
0010
1000
,
0200
0000
0010
0000
0010
0000
1300
0100
,
0020
0000
0001
0000
0001
0000
0130
1000
,
0010
1000
0010
1000
0010
0100
0001
1000
,
0100
0000
1010
0000
0101
0000
0001
0100
,
0002
0000
0010
0000
0010
0000
1003
0001
,
0200
0000
1000
0000
1000
0000
0301
0100
,
0010
0100
0010
0100
0001
0010
0100
1000
,
0010
0000
0101
0000
1100
0000
0001
1000
,
0020
0000
0001
0000
0001
0000
1030
0010
,
2000
0000
0100
0000
0100
0000
3010
1000
,
0001
1000
0001
1000
0100
0010
0001
1000
,
0010
1010
0011
0000
,
0200
0000
1300
0002
0000
1003
0200
0000
,
0310
0001
0100
0001
0100
0010
0100
0001
,
2000
0000
3100
0020
0000
0031
2000
0000
,
3001
1000
0010
1000
0010
0100
0010
1000
,
0200
0000
1300
0002
0000
0103
0020
0000
,
0030
1000
0001
1000
0001
0010
0100
1000
,
0002
0000
1003
0020
0000
1030
0100
0000
,
1000
0010
0100
0001
0010
0000
0001
1000
,
0001
0100
0010
0000
1000
0100
0010
0001
,
0100
0000
0001
0010
0001
1000
0001
0000
,
0100
0010
0100
0001
1000
0000
0100
0010
,
0100
1000
0010
0000
0100
0001
1000
0001
,
0010
0000
0100
0010
0001
1000
0020
0000
,
0100
0000
0000
0100
0000
0000
0130
0001
1000
0200
0000
0000
,
0010
0000
0000
0000
0000
0000
0010
0000
0000
0000
0000
0000
0310
0000
0001
0000
1000
0001
1000
0000
0000
0000
0000
0000
,
0010
0100
0001
1010
,
0100
0001
1000
0100
,
0010
0001
1000
0101
,
0010
1000
0100
0001
,
0010
0100
1000
0000
1000
0010
0100
0000
,
0100
0001
1000
0000
0010
0100
0002
0000
,
0023
0230
2300
3020
,
2030
3200
0320
0032
,
2003
0000
3002
0000
0203
0000
0301
0010
,
1000
0010
0001
0000
0100
0010
2000
0000
,
0001
0000
0010
0000
3001
1000
0200
0000
,
0010
0000
0001
0000
0310
0100
1000
0010
,
1000
0010
0100
0010
1000
0001
0010
0000
,
1001
0000
0110
0000
0100
0001
0200
0000
,
1000
0000
0010
0000
0301
0100
0002
0000
,
0010
0000
1000
0000
0103
0001
0010
0100
,
0010
0100
0010
0001
1000
0100
0010
0000
,
0110
1001
0110
2000
,
3010
0200
0000
0301
2000
0000
3100
0010
,
0001
0010
0001
0010
0001
1000
0020
0000
,
1030
0200
0000
0310
0002
0000
0103
0010
,
0100
0001
1000
0100
0010
0001
0200
0000
,
0310
2000
0000
3010
0200
0000
0301
0020
,
0000
0000
0000
0130
0000
0000
2000
0000
0000
0000
0000
0000
3010
0000
0000
0202
0000
0000
0000
0000
0300
0000
0000
0000
,
0010
2000
0000
3003
;

//---------------dance-single - ----------------
#NOTES:
     dance-single:
     :
     Easy:
     8:
     0.285114,0.378890,0.187106,0.478161,0.005197,192.000000,174.000000,18.000000,46.000000,0.000000,0.000000,0.285114,0.378890,0.187106,0.478161,0.005197,192.000000,174.000000,18.000000,46.000000,0.000000,0.000000:
0000
0000
0000
0000
,
0000
0000
0000
0000
,
2000
3002
0203
0000
,
0320
0000
0000
0000
,
2030
0000
0000
0000
0000
0000
0000
0000
0000
0000
0000
0000
0000
0000
3010
0100
,
0002
0000
0000
0000
0003
0000
0010
0100
,
2000
0000
0000
0000
3000
0000
0001
1000
,
0010
0000
0000
1000
0000
0000
0100
0000
,
0010
0000
1001
0000
1001
0000
0100
0001
,
0020
0000
0000
0000
0030
0000
0001
1000
,
0200
0000
0000
0000
0300
0000
1000
0010
,
1000
0000
0000
0100
0000
0000
0010
0000
,
0001
0000
0110
0000
0110
0000
1000
0100
,
2000
0000
0000
0000
3000
0000
0001
1000
,
0020
0000
0000
0000
0030
0000
0100
0001
,
0010
0000
0000
0100
0000
0000
1000
0000
,
0001
0000
0011
0000
0011
0000
0100
1000
,
0200
0000
0000
0000
0300
0000
0100
0010
,
0002
0000
0000
0000
0003
0000
1000
0001
,
0010
0000
0000
0001
0000
0000
0100
0000
,
1000
1010
1010
0000
,
0002
0000
0000
2003
0000
0000
3002
0000
,
0000
0000
0000
0003
,
0200
0000
0000
0320
0000
0000
0230
0000
,
0000
0000
0000
0300
,
0020
0000
0000
2030
0000
0000
3002
0000
,
0000
0000
0000
0003
,
2000
0000
0000
3200
0000
0000
0310
0000
,
0001
1000
0001
0100
,
0010
1000
0100
0010
,
0001
0100
0001
0010
,
0100
0010
0001
0100
,
0010
1000
0100
1000
,
0100
1000
0001
0102
,
1000
1000
1003
2100
,
0001
0001
3001
0010
,
0000
1000
0000
1010
,
0000
0001
0000
0100
,
0000
0010
0000
0101
,
0000
1000
0000
0001
,
0000
0010
0000
1100
,
0000
1000
0000
0010
,
0010
1000
1000
0001
,
0001
0100
0100
0010
,
1000
0001
0100
0002
,
2003
0000
3002
0000
0013
0100
2000
0000
,
0000
0000
0000
0000
3010
1000
0200
0000
,
0000
0000
0300
0000
1000
0001
0010
0000
,
0000
0100
0000
0000
1000
0000
0010
0000
,
0101
0000
0101
0000
0001
1000
0002
0000
,
0000
0000
0000
0000
1003
0100
0020
0000
,
0000
0000
0030
0000
0001
0100
0001
0000
,
0000
1000
0000
0000
0010
0000
0100
0000
,
0110
1001
0110
2000
,
0000
3020
0000
0000
0230
0000
0000
0000
,
0000
0000
0300
0002
,
0000
2003
0000
0000
3020
0000
0000
0000
,
0000
0000
0030
2000
,
0000
3200
0000
0000
0320
0000
0000
0032
,
0000
0000
2003
0000
0000
3002
0000
0000
,
0010
2000
0000
3003
;

//---------------dance-single - ----------------
#NOTES:
     dance-single:
     :
     Beginner:
     3:
     0.149982,0.187886,0.083158,0.020790,0.000000,101.000000,93.000000,8.000000,2.000000,0.000000,0.000000,0.149982,0.187886,0.083158,0.020790,0.000000,101.000000,93.000000,8.000000,2.000000,0.000000,0.000000:
// measure 0
0000
0000
0000
0000
,  // measure 1
0000
0000
0000
0000
,  // measure 2
1000
0000
0100
0000
,  // measure 3
0010
0000
0000
0000
,  // measure 4
0001
0000
0000
0000
,  // measure 5
0000
0100
0100
0000
,  // measure 6
0000
0010
0010
0000
,  // measure 7
1000
0000
0001
0000
,  // measure 8
0100
0100
0000
0000
,  // measure 9
0000
0001
0001
0000
,  // measure 10
0000
1000
1000
0000
,  // measure 11
0010
0000
1000
0000
,  // measure 12
0001
0001
0000
0000
,  // measure 13
0000
0010
0010
0000
,  // measure 14
0000
0001
0001
0000
,  // measure 15
0100
0000
0010
0000
,  // measure 16
1000
1000
0000
0000
,  // measure 17
0000
0100
0100
0000
,  // measure 18
0000
1000
1000
0000
,  // measure 19
0010
0000
1000
0000
,  // measure 20
0100
0100
0000
0000
,  // measure 21
1000
0000
0000
0000
,  // measure 22
1001
0000
0000
0000
,  // measure 23
0001
0000
0000
0000
,  // measure 24
1001
0000
0000
0000
,  // measure 25
1000
0000
0000
0000
,  // measure 26
1001
0000
0000
0000
,  // measure 27
0010
0000
0000
0100
,  // measure 28
0000
0000
0100
0000
,  // measure 29
0000
0100
0000
0000
,  // measure 30
0100
0000
0000
0010
,  // measure 31
0000
0000
0010
0000
,  // measure 32
0000
0010
0000
0000
,  // measure 33
0010
0000
0000
2000
,  // measure 34
0000
0000
3000
0002
,  // measure 35
0000
0000
0003
0010
,  // measure 36
0000
0000
0000
0110
,  // measure 37
0000
0000
0000
0100
,  // measure 38
0000
0000
0000
0110
,  // measure 39
0000
0000
0000
0001
,  // measure 40
0000
0000
0000
0110
,  // measure 41
0000
0000
0000
1000
,  // measure 42
0000
1000
0000
1000
,  // measure 43
0000
1000
0000
0001
,  // measure 44
0000
0001
0000
0100
,  // measure 45
0100
0100
0000
0000
,  // measure 46
0010
0010
0000
0000
,  // measure 47
1000
1000
0000
0001
,  // measure 48
0000
0100
0000
0001
,  // measure 49
0001
0000
0000
0000
,  // measure 50
0100
0100
0000
0000
,  // measure 51
0001
0001
0000
0010
,  // measure 52
0000
0100
0000
1000
,  // measure 53
1000
0000
0000
0010
,  // measure 54
0000
0000
0000
1001
,  // measure 55
0000
0000
0000
0100
,  // measure 56
0000
0000
0000
0110
,  // measure 57
0000
0000
0000
0001
,  // measure 58
0000
0000
1000
0000
,  // measure 59
0000
0010
0000
0000
,  // measure 60
0010
1000
0000
0000
;
