#TITLE:HYENA;
#SUBTITLE:(Original Length);
#ARTIST:Hommarju;
#BANNER:HYENA (Original Length)-bn.png;
#BACKGROUND:HYENA (Original Length)-bg.png;
#JACKET:HYENA (Original Length)-jacket.png;
#MUSIC:HYENA (Original Length).ogg;
#SAMPLESTART:183.369;
#SAMPLELENGTH:20;
#DISPLAYBPM:178;
#BPMS:0=178;
#BGCHANGES:;

//---------------dance-single - ----------------
#NOTES:
     dance-single:
     :
     Beginner:
     6:
     :
0000
0000
0000
0000
,
0000
0000
0000
0000
,
0000
0000
0000
0000
,
0000
0000
0000
0000
,
0000
0000
0000
0000
,
0000
0000
0000
0000
,
0000
0000
0000
0000
,
0000
0000
0000
0000
,
0000
0000
0000
0000
,
0000
0000
0000
0000
,
0110
0000
0000
0000
,
0000
0000
0000
0000
,
0110
0000
0000
0000
,
0000
0000
0000
0000
,
1001
0000
0000
0000
,
0000
0000
0000
0000
,
1001
0000
0000
0000
,
0000
0000
0100
0000
,
0010
0000
0000
1000
,
1000
1000
1000
0000
,
0001
0000
0000
0010
,
0010
0010
0010
0000
,
0100
0000
0000
1000
,
1000
1000
1000
0000
,
0001
0000
0000
0100
,
0100
0100
0100
0000
,
0110
0000
0000
0001
,
0001
0001
0001
0000
,
1001
0000
0000
1000
,
1000
1000
1000
0000
,
0110
0000
0000
0010
,
0010
0010
0010
0000
,
1001
0000
0000
0100
,
0100
0100
0100
0000
,
0001
0000
0000
0000
,
0000
0000
0000
0000
,
0010
0010
0000
0001
,
0001
0001
0001
0000
,
1000
1000
0000
0010
,
0010
0010
0010
0000
,
1000
1000
0000
0100
,
0100
0100
0100
0000
,
0010
0010
0000
0001
,
0001
0001
0001
0000
,
1001
0000
0000
0100
,
0010
0100
0010
0000
,
0110
0000
0000
0001
,
1000
0001
1000
0000
,
0110
0000
0000
0010
,
1000
0010
1000
0000
,
1001
0000
0000
0001
,
0100
0001
0100
0000
,
0110
0000
0000
0000
,
0000
0000
0000
0000
,
1001
0000
0000
0000
,
0000
0000
0000
0000
,
0110
0000
0000
0000
,
0000
0000
0000
0000
,
1001
0000
0000
0000
,
0000
0000
0000
0000
,
1000
0000
0001
0000
,
1000
1000
1000
0000
,
0010
0000
0001
0000
,
0100
0100
0100
0000
,
0001
0000
0010
0000
,
1000
0000
0100
0000
,
1000
0000
0001
0000
,
1000
1000
1000
0000
,
0010
0000
0000
0000
,
0000
0000
0000
0000
,
1001
0000
0010
0000
,
1000
0001
1000
0001
,
0000
0100
0000
0010
,
0000
1000
0100
1000
,
0000
0001
0010
0001
,
1000
0000
0110
0000
,
0001
0000
0001
0000
,
0001
0100
1000
0000
,
0010
0010
1000
0000
,
0001
0000
0010
0100
,
1000
0000
0001
0001
,
0100
0000
0010
0000
,
0100
0000
0001
0000
,
1000
1000
1000
0000
,
0001
0000
0010
0000
,
1000
0000
0100
0000
,
1000
0000
0000
0000
,
0001
0000
0000
0000
,
1000
0000
0000
0000
,
0010
0000
0000
0000
,
0100
0000
0000
0000
,
0001
0000
0001
0000
,
1000
0000
1000
0000
,
0001
0000
1000
0000
,
0100
0000
0000
0000
,
0010
0000
0000
0000
,
0100
0000
0000
0000
,
1000
0000
0000
0000
,
0001
0000
0000
0000
,
1000
0000
0000
0000
,
0010
0000
1000
0000
,
1000
1000
1000
0000
,
0110
0000
0000
0000
,
0000
0000
0000
0000
,
0110
0000
0000
0000
,
0000
0000
0000
0000
,
1001
0000
0000
0000
,
0000
0000
0000
0000
,
1001
0000
0000
0000
,
0000
0000
0000
0000
,
0110
0000
0000
0000
,
0001
0000
0000
0000
,
0110
0000
0000
0000
,
1000
0000
0000
0000
,
1001
0000
0000
0000
,
0010
0000
0000
0000
,
1001
0000
0000
0000
,
0100
0000
0000
0000
,
0001
0000
0010
0000
,
1000
0100
1000
0000
,
0001
0000
1000
0000
,
0010
0100
0001
0000
,
0010
0010
0010
0000
,
1000
0100
1000
0000
,
0001
0000
0010
0000
,
0001
0100
0100
0000
,
1000
0000
0010
0100
,
1000
0001
0100
0000
,
0001
0000
0010
0100
,
1000
0010
1000
0001
,
0100
0000
0001
0000
,
0010
0000
0001
0000
,
1000
0000
0100
0000
,
1000
0010
0001
0000
,
0100
0000
0000
0000
,
0000
0000
0000
0000
,
0000
0010
1000
0001
,
1000
0100
0010
0001
,
0000
0100
0001
1000
,
0010
0001
1000
0000
,
0000
0100
0010
0100
,
1000
0010
0001
0000
,
1000
0010
1000
0010
,
0001
0001
0001
0000
,
0010
0100
0010
0000
,
0001
0100
1000
1000
,
0010
0000
1000
0000
,
0100
0100
0001
0000
,
0010
0000
0001
0000
,
0100
0001
1000
0000
,
0001
0001
0001
0001
,
1000
1000
1000
0000
,
0010
0000
1000
0100
,
0001
0000
0010
0010
,
0001
0000
1000
0100
,
1000
0000
0001
0000
,
0010
0001
0100
1000
,
0001
1000
1000
0000
,
0010
0000
0010
0000
,
1000
0001
1000
0000
,
0010
1000
0010
0100
,
0001
0000
0010
1000
,
0001
0000
1000
0100
,
0001
0010
0010
0000
,
0010
1000
0100
0010
,
0001
0100
0100
0010
,
1000
0000
0000
0000
,
0001
0001
0001
0000
,
0110
0000
0000
0000
,
1000
0000
0001
0000
,
0100
0000
0000
0000
,
0010
0010
0010
0000
,
1001
0000
0000
0000
,
1000
0000
0100
0000
,
0001
0000
0000
0000
,
1001
0000
0110
0000
,
1001
0000
0000
0000
,
0010
0000
0001
0000
,
0100
0000
0000
0000
,
1000
1000
1000
0000
,
0110
0000
0000
0000
,
1000
0000
0010
0000
,
0001
0000
0000
0000
,
0100
0100
0100
0000
,
1001
0000
0000
0000
,
1000
0000
1000
0000
,
1000
0000
0000
0000
,
0001
0000
0000
0000
,
1001
0000
0000
0000
,
0010
0000
0000
0000
,
0100
0000
0000
0000
,
0001
0000
1000
0000
,
0110
0000
0000
0000
,
0001
0000
0001
0000
,
0001
0000
0000
0000
,
1000
0000
0000
0000
,
0110
0000
0000
0000
,
1000
0000
0000
0000
,
0001
0000
0000
0000
,
0100
0000
0000
0000
;

//---------------dance-single - ----------------
#NOTES:
     dance-single:
     :
     Easy:
     9:
     :
0000
0000
0000
0000
,
0000
0000
0000
0000
,
0000
0000
0000
0000
,
0000
0000
0000
0000
,
0000
0000
0000
0000
,
0000
0000
0000
0000
,
0000
0000
0000
0000
,
0000
0000
0000
0000
,
0000
0000
0000
0000
,
0000
0000
0000
0000
,
0220
0000
0000
0000
,
0330
0001
1000
0001
,
0220
0000
0000
0000
,
0330
1000
0001
0000
,
1001
0000
0000
0000
,
0000
0020
0000
0030
,
1001
0000
0000
0000
,
0000
0000
0200
0300
,
0110
0001
0000
1000
,
0100
1000
0010
0001
,
1001
0100
0000
0001
,
0010
0001
1000
0010
,
0110
0001
0000
0010
,
0001
0100
1000
0010
,
1001
1000
0000
0001
,
0010
1000
0100
0010
,
0011
0100
0000
1000
,
0010
1000
0001
0100
,
1010
0001
0000
0010
,
1000
0001
1000
0100
,
1100
0010
0000
1000
,
0001
0010
1000
0100
,
0101
0010
0000
0100
,
0001
0000
0010
0000
1000
0001
0000
0000
,
0022
0000
0000
0000
,
0033
1000
0001
0000
,
1001
0110
0000
1000
,
0010
0000
1000
0000
0001
0100
0001
0000
,
0011
1100
0000
0010
,
1000
0000
0001
0000
0100
0010
0100
0000
,
0101
1100
0000
0010
,
1000
0000
0100
0000
1000
0001
0000
0000
,
0011
0101
0000
0001
,
0010
0000
1000
0000
0100
0010
0000
0000
,
0011
1000
0001
0010
,
0100
1000
0100
0000
1000
0001
1000
0000
,
0010
1000
0100
0001
,
0010
0100
0010
0000
0001
1000
0001
0000
,
1000
0010
0001
0100
,
0001
0010
0001
0000
0100
1000
0100
0000
,
1001
0101
1000
0001
,
1000
0010
1000
0010
1000
0010
0000
0000
,
0110
1000
0001
0001
,
1000
0000
1000
0000
0001
0100
0010
1000
,
0000
1100
0100
1000
,
0001
0000
1000
0000
0100
0010
1000
0001
,
0000
0011
0010
0001
,
1000
0000
0100
0000
1000
0001
0100
0010
,
0000
1001
1000
0100
,
0001
0000
0001
0000
0001
0100
0010
1000
,
0001
0000
1000
0100
0010
0000
0001
0000
,
0100
0000
0010
0000
1000
0100
0010
0001
,
1000
0000
0001
0100
0010
0000
1000
0000
,
0100
0000
0010
0000
0100
0010
0001
1000
,
0010
0000
1000
0000
0100
0010
0001
0000
,
2000
3002
2003
3002
,
0013
0001
0100
1000
,
0001
0000
0100
0000
0001
0010
0100
0000
,
2200
0000
0000
0000
,
3300
0001
1000
0000
,
1001
0000
0010
0000
1000
0100
0001
0000
,
0010
0000
0100
0000
0001
0010
0100
1000
,
0000
0000
0001
0000
0010
0001
1000
0000
,
0001
0000
0010
0000
1000
0100
0010
0001
,
0000
0000
0100
0000
0001
0010
1000
0000
,
0200
0320
0230
0320
,
0031
0001
1000
1000
,
0001
0100
0001
0100
0001
0000
0000
0000
,
0010
0000
1000
0000
0100
0000
1000
0001
,
1000
0000
0010
0000
0100
0001
0010
0001
,
0000
1000
0001
0010
,
0001
0000
0100
0000
1000
0001
0000
0000
,
1010
0000
0010
0000
0001
0100
1000
0000
,
0110
1001
0110
1001
,
0001
0100
1000
0000
0001
0010
1000
0000
,
0200
0000
0320
0000
0031
1000
0001
1000
,
0010
1000
0100
0001
,
0010
0100
1001
0000
,
1000
0010
1000
0001
,
0010
0100
0110
0000
,
1000
0010
0101
0000
,
0001
0010
2000
3000
,
0200
0300
0020
0030
,
0002
0003
2000
3000
,
0000
0001
0100
0001
,
0010
0100
1000
0001
,
0100
0010
0100
0001
,
0010
1000
0100
0001
,
1000
0001
0001
0100
,
0001
0000
0010
0000
1000
0001
0000
0000
,
0101
1100
0101
1100
,
0001
1000
0001
1000
0001
1000
0001
0000
,
0220
0000
0000
0330
,
1000
0000
0100
0000
0001
0010
1000
0000
,
0220
0000
0000
0330
,
0010
0000
0001
0000
0100
0010
1000
0000
,
2002
0000
0000
3003
,
0010
0000
1000
0000
0001
0010
0100
0000
,
2002
0000
0000
3003
,
0100
0000
0001
0000
0010
0100
1000
0000
,
0022
0000
0000
0033
,
1000
0000
0010
0000
1000
0001
0100
0000
,
2020
0000
0000
3030
,
0100
0000
0001
0000
1000
0100
0010
0000
,
0202
0000
0000
0303
,
0001
0000
0010
0000
0001
0100
1000
0000
,
2200
0000
0000
3300
,
0001
0000
0010
0000
0001
0100
1000
0000
,
0101
0010
0001
0100
,
1000
0000
0010
0000
1000
0001
0000
0000
,
0100
0000
0010
0000
1000
0100
0010
0001
,
0100
0000
0010
0000
1000
0001
0000
0000
,
0010
0000
0001
0000
1000
0010
0100
0001
,
0010
0000
0100
0000
1000
0001
0000
0000
,
0100
0000
1001
0000
1000
0010
0001
0000
,
1000
0100
1000
0100
1000
0100
0000
0000
,
1001
0010
1000
0001
,
1000
0010
1000
0001
0010
0100
0000
0000
,
1100
0001
1000
0100
,
0010
0001
0010
0001
0010
0100
1000
0000
,
0001
0000
0100
0010
1000
0000
0001
0000
,
1000
0100
0010
0000
0001
0100
0000
0000
,
0110
0000
0010
0000
0001
0100
1000
0000
,
0001
0010
0001
0000
1000
0100
0000
0000
,
0202
0000
0000
0000
,
0303
1000
0001
0000
,
0110
0000
0001
0000
0010
0000
1000
0001
,
0000
0100
0000
0010
1000
0000
1000
0000
,
0000
0000
0001
0000
0010
0000
1000
0100
,
0000
1000
0000
0001
0100
0000
0000
0000
,
1010
0000
0001
0000
1000
0000
0100
0010
,
0000
0100
0000
1000
0001
0100
0000
0000
,
0110
0000
1000
0010
1000
0000
0001
0000
,
1000
0010
1000
0010
1000
0010
0000
0000
,
0101
0000
0001
0010
1000
0000
0100
0010
,
0000
0010
0000
0001
0100
0000
1000
0000
,
0000
0000
0001
0010
0001
0000
1000
0100
,
0000
1000
0000
0010
0001
0100
0000
0000
,
0101
0000
1000
0100
1000
0000
0001
0010
,
0000
0001
0000
0100
1000
0001
0000
0000
,
2000
3020
0230
0302
,
1003
0010
0100
0010
1000
0010
0000
0000
,
1100
0000
0001
0000
0010
0000
0001
0100
,
1000
0000
0001
0100
0001
0100
0001
0000
,
0011
0000
1000
0000
0010
0000
1000
0001
,
0100
0000
0010
1000
0010
0100
0001
0000
,
1001
0000
1000
0100
0001
0000
0010
0100
,
1000
0000
0001
0100
0001
0000
1000
0100
,
1000
0010
0001
0100
,
1000
0001
1000
0001
1000
0000
0000
0000
,
0011
0000
0001
0100
0010
1000
0100
1000
,
0001
0000
0010
0001
0010
0100
1000
0000
,
1010
0000
0001
0100
0001
0000
0010
0100
,
1000
0000
0010
1000
0010
0100
0001
0000
,
0011
0000
2000
0000
3002
0000
0013
0001
,
0100
0000
0001
0010
1000
0000
0100
1000
,
0002
0023
2030
3200
,
0310
0000
0001
0100
1000
0001
0000
0000
,
0110
0001
0010
1000
,
0100
0010
0001
0100
,
1001
0001
0010
1000
,
0100
1000
0010
0001
,
0011
0100
0001
0010
,
1000
0001
1000
0100
,
1100
0010
1000
0100
,
1000
0010
0001
1000
,
0011
0100
0000
1000
,
0010
1000
0100
0001
,
1001
0010
0000
0001
,
0010
1000
0100
0000
,
1100
0001
0010
0001
,
1000
0100
1000
0001
,
1001
0100
0000
0110
,
0000
0000
1000
0100
1000
0001
0000
0000
,
1100
0000
0000
0000
,
0001
0000
1000
0000
,
0101
0000
0000
0000
,
0010
0100
1000
0001
,
0110
0000
0000
0000
,
1000
0000
0000
0000
0000
0001
0000
0000
,
0011
0000
0000
0000
,
1000
0000
0100
0000
1000
0001
0000
0000
,
1010
0000
0000
0000
,
0100
0000
1000
0000
,
1100
0000
0000
0000
,
0010
0001
0100
1000
,
1001
0000
0000
0000
,
0010
0000
0000
0000
0000
1000
0000
0000
,
0101
0000
0000
0000
,
0020
0000
0100
0130
;

//---------------dance-single - ----------------
#NOTES:
     dance-single:
     :
     Medium:
     13:
     :
0000
0000
0000
0000
,
0000
0000
0000
0000
,
0000
0000
0000
0000
,
0000
0000
0000
0000
,
0000
0000
0000
0000
,
0000
0000
0000
0000
,
0000
0000
0000
0000
,
0000
0000
0000
0000
,
0000
0000
0000
0000
,
0000
0000
0000
0000
,
0220
0000
0000
0000
,
0330
0000
0001
0000
1000
0100
1000
0000
,
0220
0000
0000
0000
,
0330
0001
1000
0000
,
1001
0000
0000
0000
,
0000
0000
0001
0100
1000
0000
0000
0000
,
1001
0000
0000
0000
,
0000
0000
0200
0300
,
0110
0000
0001
0000
1000
0000
0001
0100
,
0001
0100
0001
0100
0001
1000
1000
0000
,
1100
0000
0010
0000
1000
0000
0001
0010
,
0001
0010
0001
0010
0001
0100
0100
0000
,
0101
0000
0010
0000
0100
0000
0010
1000
,
0010
1000
0010
1000
0010
0100
0100
0000
,
0101
0000
0001
0000
0010
0000
0100
1000
,
0100
1000
0100
1000
0100
1000
1000
0000
,
0011
0000
0100
0000
0001
0000
0010
0100
,
0010
0100
0010
0100
0010
0100
0100
0000
,
1100
0000
0010
0000
1000
0000
0001
0100
,
0001
0100
0001
0100
0001
0100
0100
0000
,
0110
0000
0001
0000
0010
0000
1000
0100
,
1000
0100
1000
0100
1000
0001
0001
0000
,
1010
0000
0001
0000
1000
0000
0100
0010
,
0100
0010
0100
0010
0100
2000
0000
3000
,
0022
0000
0000
0000
,
0033
1000
0001
0000
,
1001
0000
0010
1000
0001
0000
1000
0100
,
0010
0100
1000
0100
0010
0001
0001
0000
,
0101
0000
0001
0010
1000
0000
0100
0010
,
0100
1000
0100
0010
0100
1000
1000
0000
,
0011
0000
0010
0001
0100
0000
0001
1000
,
0100
1000
0001
1000
0100
0010
0010
0000
,
1001
0000
0001
0010
1000
0000
0001
0010
,
0100
0010
0001
0010
0100
2000
0000
3000
,
1010
0000
0010
1000
0001
0000
1000
0100
,
0010
0001
0010
0100
1000
0010
0100
0001
,
0010
0000
0001
0100
1000
0000
0010
1000
,
0001
1000
0100
0010
0100
1000
0001
0000
,
0110
0000
0001
0010
1000
0000
0100
0010
,
0001
0100
0001
0010
0100
1000
0001
1000
,
0010
0000
1000
0100
0001
0000
0010
0001
,
0010
0100
1000
0001
1000
0020
0000
0030
,
0110
0000
0001
0100
1000
0010
1000
0010
,
1000
0010
1000
0010
0001
1000
0010
0100
,
0000
0000
0001
1000
0010
0100
0010
0100
,
0010
0100
0010
0100
0010
1000
0100
0001
,
0000
0000
1000
0100
0001
0010
0001
0010
,
0001
0010
0001
0010
0100
1000
0010
0001
,
0000
0000
1000
0001
0010
0100
0010
0100
,
0010
0100
0010
0100
0010
1000
0001
0100
,
0000
1000
0010
0100
0010
1000
0100
0010
,
0001
0100
0010
1000
0100
0010
0001
0100
,
0000
0001
0010
1000
0100
0010
0001
0100
,
0001
0010
1000
0001
1000
0010
0001
0100
,
0000
0001
0010
0100
1000
0010
1000
0001
,
0010
0100
0010
0001
0100
0010
1000
0001
,
1000
0010
1000
0010
0100
0001
0100
0001
,
0010
0100
1000
0010
1000
0100
0010
0001
,
2200
0000
0000
0000
,
3300
1000
0001
0000
,
0101
0010
1000
0100
1000
0010
0100
0001
,
0010
0100
1000
0010
0001
0100
0010
0100
,
0000
0001
0010
1000
0100
0010
0100
1000
,
0001
0010
1000
0100
0010
0100
1000
0001
,
0000
1000
0001
0010
0001
0100
0010
1000
,
0100
0010
0001
0100
0001
0010
0001
0100
,
0010
1000
0010
1000
0001
0010
0001
0010
,
0100
1000
0010
0100
0001
0010
0100
1000
,
0000
0000
0010
1000
0010
0000
1000
0000
0001
0000
0010
0000
0100
0000
1000
0000
,
0001
0100
0001
0010
1000
0100
1000
0001
,
0000
0000
0100
0001
0100
0000
0010
0000
1000
0000
0100
0000
0001
0000
0010
0000
,
0100
0010
0001
0100
1000
0002
0000
0003
,
0100
0000
0010
1000
0010
0000
0100
0000
0001
0000
0010
0000
0001
0000
0100
0000
,
1000
0001
0010
0100
0010
0001
0100
1000
,
0001
0010
0001
0010
1000
0100
1000
0100
,
0001
1000
0010
0100
0001
0010
0100
1000
,
1010
0000
0101
0000
1100
0000
0001
0100
,
0010
1000
0001
0000
2020
0000
3030
0000
,
0001
0100
1000
0000
1001
0000
0100
0000
,
1010
0101
0022
0033
,
0110
0000
1001
0000
0100
0001
0000
1000
,
0100
0010
0001
0000
2000
0010
3010
0000
,
0200
0001
0301
0000
0020
0100
0130
0000
,
2000
0001
3001
0100
0020
1000
1030
0000
,
0101
0000
0010
0001
0000
0001
1000
0010
,
0000
1000
0100
0010
0001
1000
0002
0000
,
0013
0000
1001
0000
0100
0001
1000
0000
,
0010
1000
0010
0100
0001
0010
0100
1000
,
0001
0000
0011
0000
1100
0000
0010
1000
,
0000
0100
0001
0010
1000
0001
0000
0010
,
1000
0100
0010
0001
0010
0100
1000
0001
,
0010
0001
0100
0001
1000
0100
1000
0010
,
0110
0000
1000
0001
1000
0100
0000
0000
,
0000
0000
0010
0001
1000
0000
0000
0000
,
0110
0000
1000
0010
0100
0001
0000
0000
,
0000
0000
0010
0100
1000
0000
0000
0000
,
1001
0000
0001
0010
1000
0001
0000
0000
,
0000
0000
1000
0100
1000
0000
0000
0000
,
1001
0000
0010
0100
0010
1000
0000
0000
,
0000
0000
0100
0010
0001
0000
0000
0000
,
0011
2000
3020
0230
,
0301
0010
0001
0010
1000
0010
0001
0000
,
1100
0002
0203
0320
,
1030
0001
0010
0001
0010
0100
1000
0000
,
1010
0200
0302
2003
,
3010
0001
0010
1000
0100
0010
0001
0000
,
0011
0200
0320
2030
,
3100
0010
0100
0010
0100
1000
0001
0000
,
1001
0000
0010
0001
0010
0100
1000
0001
,
1000
0010
0100
0001
1000
0001
1000
0100
,
0110
0000
0001
0010
0001
0100
0010
1000
,
0100
0010
0100
1000
0010
0100
0001
0000
,
0011
0000
0100
1000
0100
1000
0010
0001
,
0010
0100
0001
0010
1000
0100
0001
0000
,
1010
0000
0100
0001
0010
1000
0001
1000
,
0100
0010
0001
0100
1000
0010
0001
0000
,
0110
0000
0001
0010
0100
0010
0001
1000
,
0010
0001
0010
0100
0010
1000
0010
0000
,
1001
0000
0010
0001
1000
0001
0010
0100
,
1000
0010
0001
1000
0100
0010
0001
0000
,
0110
0000
0001
0010
1000
0100
1000
0001
,
1000
0010
0001
1000
0001
1000
0100
0000
,
0011
0000
0100
0001
0010
0001
1000
0100
,
0001
0010
0100
0010
0100
2000
0000
3000
,
0202
0000
0000
0000
,
0303
1000
0001
0100
,
0110
0000
0001
0010
1000
0100
0010
0001
,
0000
1000
0000
0001
0100
0000
0010
0000
,
1000
0000
0100
0010
0001
0100
0001
1000
,
0000
0000
0001
0000
0000
0000
1000
0100
1000
0000
0001
0000
0001
0000
0000
0000
,
0011
0000
0001
0100
0001
1000
0100
0010
,
0000
0000
0001
0000
0000
0000
1000
0000
0010
0000
1001
0000
0000
0000
0100
0010
,
0100
0000
0001
0010
0001
0100
0010
1000
,
0100
0100
0100
0100
0100
0020
0000
0030
,
0110
0000
1000
0100
0001
0010
0100
1000
,
0000
0000
0001
0000
0000
0000
1000
0010
1000
0000
0001
0000
0100
0000
0000
0000
,
0101
0000
0010
1000
0100
0010
0001
1000
,
0000
0010
0000
1000
0001
0200
0000
0300
,
1010
0000
0001
0010
1000
0010
0100
1000
,
0000
0000
0001
0000
0000
0000
1000
0000
0100
0000
1001
0000
0000
0000
0001
1000
,
0001
0000
0010
0010
0100
0100
1000
1000
,
0010
0010
1000
0001
0001
0200
0000
0300
,
0010
1000
0010
0100
0001
0010
0001
0100
,
2000
0000
3001
0100
1000
1000
1000
0010
,
0100
0000
0000
0000
0001
0000
0010
0000
0001
0000
0100
0000
0010
1000
0010
1000
,
0020
0000
0130
0100
0100
0001
1000
0000
,
1100
0000
0010
0000
0001
0000
0100
0000
1000
0000
0010
0000
0100
0001
0100
0001
,
0200
0000
0000
0000
0301
0000
0010
0000
1000
0000
0100
0000
1000
0000
0001
0100
,
0001
0010
0001
0010
0100
1000
0100
1000
,
0001
0001
0001
0001
0001
2000
0000
3000
,
1001
0000
0010
0000
1000
0000
0100
0000
1000
0000
0001
0000
0100
0010
0100
0010
,
0200
0000
0000
0000
0301
0010
0001
0010
0001
0000
1000
0000
1000
0000
0010
0000
,
0100
0000
0000
0000
0001
1000
0001
1000
0001
0000
0100
0000
0010
0000
0010
0000
,
0020
0000
0000
0000
1030
0100
1000
0100
1000
0000
0001
0000
0001
0000
0000
0000
,
0011
0000
0100
0000
1000
0000
0010
0000
1000
0000
0001
0000
0100
0010
0100
0010
,
0200
0000
0000
0000
0301
0000
1000
0100
1000
0000
0010
0000
0100
0000
0001
0000
,
0110
0000
1000
1000
0001
0001
0010
0010
,
0001
0001
1000
1000
0010
0200
0000
0300
,
0110
0000
0001
0010
1000
0100
0001
0000
,
0010
0001
0100
0000
1000
0010
0001
0000
,
1001
0000
0100
0010
1000
0001
0010
0000
,
0100
1000
0001
1000
0100
0000
0010
0000
,
0011
0000
0100
1000
0010
1000
0001
0000
,
1000
0100
0010
0001
0010
0100
1000
0000
,
1010
0000
0100
0001
0010
1000
0001
0000
,
1000
0000
0001
0100
1000
0010
0100
0000
,
0110
0000
0001
1000
0000
0010
0100
0000
,
0101
0000
0010
0000
1000
0100
0001
0000
,
1100
0000
0001
0000
1000
0100
0010
0000
,
0001
0100
0010
1000
0100
0010
0001
0000
,
0011
0000
1000
0000
0001
0010
0100
0000
,
1100
0010
1000
0001
0000
0011
0000
1000
,
0001
0000
0010
0001
0000
0100
1000
0000
,
0001
0010
0100
1000
0010
0200
0000
0300
,
0110
0200
0302
2003
,
3010
0000
1000
0000
,
1010
0000
0000
0000
,
0001
0010
0100
1000
0001
0010
0100
1000
,
1001
0020
2030
3200
,
0301
0000
0000
0000
0000
0010
0000
0000
,
0101
0000
0000
0000
,
1000
0001
0010
1000
0100
0002
0000
0003
,
0011
0200
2300
3002
,
0103
0000
0010
0000
,
0110
0000
0000
0000
,
0001
0010
0100
1000
0001
0010
0100
1000
,
1001
2000
3200
0302
,
0013
0000
0000
0000
0000
0100
0000
0000
,
1100
0000
0000
0000
,
0020
0000
0230
0000
0310
0100
0010
0100
;

//---------------dance-single - ----------------
#NOTES:
     dance-single:
     :
     Hard:
     17:
     :
0000
0000
0000
0000
,
0000
0000
0000
0000
,
0000
0000
0000
0000
,
0000
0000
0000
0000
,
0000
0000
0000
0000
,
0000
0000
0000
0000
,
0000
0000
0000
0000
,
0000
0000
0000
0000
,
0000
0000
0000
0000
,
0000
0000
0000
0000
,
0220
0000
0000
0000
,
0330
0000
0000
0000
0001
0000
0000
0000
1000
0100
1000
0000
0001
0000
0000
0000
,
0220
0000
0000
0000
,
0330
1000
0001
0000
,
1001
0000
0000
0000
,
0000
0000
0000
0000
0010
1000
0010
1000
0010
1000
0010
1000
0010
1000
0010
0000
,
1001
0000
0000
0000
,
0000
0000
0000
0000
0000
0000
0000
0000
0100
0002
0000
0000
0000
0000
0000
0003
,
0011
0000
0000
0000
1000
0000
0100
0000
0001
0000
0000
0000
1000
0010
1000
0000
,
0001
0010
0001
0000
1000
0010
0100
0010
1000
0000
0001
0000
0001
0000
0000
0000
,
1100
0000
0000
0000
0001
0000
0100
0000
1000
0000
0000
0000
0001
0010
0001
0000
,
1000
0010
1000
0000
0001
0100
0010
0100
0001
0000
1000
0000
1000
0000
0000
0000
,
1010
0000
0000
0000
0100
0000
0010
0000
0001
0000
0000
0000
1000
0100
1000
0000
,
0001
0100
0001
0000
1000
0010
0100
0010
1000
0000
0001
0000
0001
0000
0000
0000
,
0101
0000
0000
0000
0001
0000
0010
0000
0100
0000
0000
0000
0001
1000
0001
0000
,
0100
0010
0100
0000
0001
1000
0100
1000
0001
0000
0010
0000
0010
0000
0000
0000
,
0110
0000
0000
0000
1000
0000
0001
0000
0100
0000
0000
0000
0010
1000
0010
0000
,
1000
0001
1000
0000
0001
0010
0100
0010
0001
0000
1000
0000
1000
0000
0000
0000
,
1010
0000
0000
0000
0100
0000
0001
0000
0010
0000
0000
0000
0100
1000
0100
0000
,
0010
0001
0010
0000
0001
1000
0010
1000
0001
0000
0100
0000
0100
0000
0000
0000
,
0101
0000
0000
0000
0010
0000
1000
0000
0001
0000
0000
0000
0010
0001
0010
0000
,
0001
0100
0001
0000
1000
0100
0010
0100
1000
0000
0001
0000
0001
0000
0000
0000
,
0011
0000
0000
0000
1000
0000
0010
0000
0001
0000
0000
0000
0100
0001
0100
0000
,
0010
1000
0010
0000
1000
0001
0100
0001
1000
0000
0200
0000
0000
0000
0300
0000
,
0022
0000
0000
0000
,
0033
1000
0001
0000
,
1001
0000
0010
0000
1000
0100
1000
0000
0001
0000
0000
0000
0010
0001
0010
0100
,
1000
0000
0010
0000
1000
0001
0100
0010
1000
0000
0001
0000
0100
0000
0000
0000
,
0010
0000
1000
0000
0010
0000
0100
0000
0001
0000
1000
0000
0100
0010
0001
0010
,
0100
0000
1000
0000
0001
0100
0010
0100
0001
0000
1000
0000
0100
0000
0000
0000
,
0001
0000
0010
0000
0100
1000
0100
0000
0001
0000
1000
0000
0010
0100
0001
1000
,
0100
0000
0010
0000
0100
1000
0010
1000
0001
0000
0100
0000
1000
0000
0000
0000
,
0001
0000
0010
0000
1000
0100
1000
0000
0001
0000
0010
0000
0001
1000
0100
1000
,
0010
0000
0100
0000
0010
1000
0100
0010
0001
0000
2000
0000
0000
0000
3000
0000
,
1001
0000
0000
0000
0010
1000
0010
0000
0100
0000
0001
0000
0010
0100
1000
0100
,
0010
0000
0001
0000
1000
0001
0010
0001
0100
0000
0010
0000
1000
0000
0001
0000
,
0110
0000
0000
0000
1000
0100
0010
0000
0001
0000
0100
0000
0001
1000
0100
0010
,
0100
0000
1000
0000
0001
0010
0001
0010
0100
0000
1000
0000
0001
0000
0000
0000
,
0011
0000
0000
0000
1000
0001
0010
0000
0001
0000
0100
0000
1000
0010
1000
0000
,
0001
0100
0010
0000
1000
0001
0010
0001
0100
0000
0010
0000
1000
0000
0100
0000
,
1100
0000
0001
0000
1000
0010
1000
0000
0100
0000
0001
0000
0010
0100
1000
0010
,
1000
0000
0001
0000
1000
0010
0100
0001
1000
0000
0020
0000
0000
0000
0030
0000
,
0000
0000
0100
0001
0100
0000
0010
1000
0000
1000
0000
1000
0000
1000
0000
0001
,
0000
0001
0000
1000
0000
0001
0000
1000
0001
0000
0100
0000
0010
0000
1000
0000
,
0000
0000
0100
0010
0100
0000
1000
0001
0000
0001
0000
0001
0000
0001
0000
0100
,
0000
0100
0000
0010
0000
0010
0000
1000
0001
0000
0010
0000
0100
0000
1000
0000
,
0000
0000
0001
0100
0001
0000
1000
0001
0000
0001
0000
0001
0000
0001
0000
1000
,
0000
1000
0000
0100
0000
0100
0000
1000
0010
0000
0100
0000
0001
0000
1000
0000
,
0000
0000
0001
0010
0001
0000
1000
0100
0000
0100
0000
0100
0000
0100
0000
1000
,
0000
1000
0000
0001
0000
0001
0000
0010
0001
0000
0100
0000
0010
0000
1000
0000
,
1010
0000
0000
0100
0001
0000
0010
0100
0000
1000
0000
1000
0000
1000
0000
0001
,
0000
0010
0000
0001
0000
0100
0000
0010
1000
0000
0100
0000
1000
0000
0001
0000
,
0011
0000
0000
0010
0100
0000
1000
0010
0000
0100
0000
0100
0000
0100
0000
0001
,
0000
0010
0000
0001
0000
1000
0000
0100
0001
0000
0010
0000
0001
0000
1000
0000
,
0110
0000
0000
1000
0100
0000
1000
0001
0000
0010
0000
0010
0000
0010
0000
0001
,
0000
0100
0000
1000
0000
0010
0000
1000
0001
0100
0000
0000
0010
1000
0000
1000
,
0001
0000
0010
0000
0001
0000
0100
0000
0010
1000
0100
1000
0010
1000
0000
0001
,
1000
0000
0100
0010
0001
0000
0100
0010
1000
0000
0001
0000
1000
0000
0100
0000
,
2020
0000
0000
0000
,
3030
0001
1000
0000
,
0010
0000
1000
0100
1000
0000
0001
0100
0000
0010
0000
0100
0000
0001
0000
0010
,
0000
0100
0000
1000
0010
0100
0001
1000
0001
0000
0010
0000
0100
0000
1000
0000
,
0001
0000
0100
0010
0100
0000
0001
1000
0000
0010
0000
1000
0000
0100
0000
0010
,
0000
0001
0000
0100
0001
0010
0001
1000
0100
0000
1000
0000
0010
0000
0001
0000
,
0100
0000
0010
1000
0010
0000
1000
0100
0000
0001
0000
0010
0000
0100
0000
0010
,
0000
0001
0000
1000
0010
0100
0000
0000
0001
1000
0000
0000
0010
1000
0000
0001
,
0100
0000
0010
1000
0010
0000
0100
0001
0100
0000
0001
0010
0001
0000
1000
0100
,
1000
0000
0010
0100
0010
0000
1000
0001
1000
0000
0100
0000
0010
0000
0001
0000
,
0100
0000
0001
0010
0100
0000
1000
0010
0000
1000
0000
0100
0000
0001
0000
0010
,
0000
0001
0000
1000
0000
0010
1000
0001
0010
0000
0100
0000
1000
0000
0001
0000
,
0100
0000
0001
1000
0100
0000
1000
0010
0000
0100
0000
0001
0000
0010
0000
0100
,
0000
1000
0000
0010
1000
0100
0010
0001
0010
0000
0200
0000
0000
0000
0300
0000
,
1100
0000
0010
1000
0001
0000
1000
0100
0000
0010
0000
0001
0000
0100
0000
0001
,
0000
0010
0000
0000
0100
1000
0100
0010
0001
1000
0000
0000
0001
0100
0000
0010
,
1000
0000
0001
0010
0001
0000
1000
0010
1000
0000
0001
0100
0001
0000
1000
0100
,
1000
0000
0001
1000
0001
0000
0100
0010
0100
0000
0001
0000
0010
0000
1000
0000
,
1100
0000
0101
0000
1100
0000
0001
0010
,
1000
0100
0010
0001
0100
0010
1000
0000
,
0001
0010
1000
0000
0100
1000
0001
0000
,
0010
0000
0001
0000
0100
0000
0010
0000
1000
0000
0100
0000
0001
0000
1000
0100
,
1000
0000
0001
0000
0010
0100
1000
0001
,
0100
0000
0010
0000
1000
0100
0000
0010
0001
2000
0000
0000
3010
0000
0000
0000
,
0001
0200
0000
0000
0310
0000
0000
0000
1000
0002
0000
0000
0103
0000
0000
0000
,
0001
0020
0000
0000
0130
0000
1000
0000
0010
0200
0000
0000
0301
0000
0000
0000
,
0011
0000
0100
1000
0010
1000
0100
0010
,
0001
0000
0100
0000
0001
0000
0010
0000
0100
0000
1000
0000
0001
0200
0000
0000
,
0310
0000
1000
0001
0010
0001
1000
0000
,
0100
0000
0010
0000
0001
0000
0100
0000
0010
0000
1000
0000
0001
0000
0010
0100
,
1000
0000
0001
0010
0001
0100
1000
0000
,
0010
0000
0000
1000
0000
0001
0000
1000
0010
0100
0001
0000
0000
0000
0001
0000
,
0110
0000
0010
1000
0100
0000
0010
0001
0100
0000
0010
1000
0100
0000
0001
0000
,
0010
0001
0000
0001
0100
0010
0000
0010
1000
0000
0100
1000
0001
0000
0100
0000
,
0110
0000
1000
0100
0001
0100
1000
0100
,
0001
0000
0100
0000
0010
0000
0100
0000
0001
0100
1000
0010
0000
0000
0000
0000
,
0110
0000
0001
0010
1000
0010
0100
0010
,
1000
0000
0010
0000
0001
0000
0010
0000
1000
0010
0001
0100
0000
0000
0000
0000
,
1001
0000
0100
0010
0001
0010
1000
0010
,
0100
0000
1000
0000
0100
0000
0001
0000
0010
0100
1000
0001
0000
0000
0000
0000
,
1001
0000
0010
0001
0100
1000
0100
0010
,
0001
0000
0010
0000
1000
0000
0001
0000
0100
0010
1000
0001
0000
0000
0000
0000
,
0011
0000
1000
0100
0001
0010
1000
0001
,
0100
0000
0010
0000
1000
0000
0100
0000
0010
0001
0010
0001
0010
0000
0000
0000
,
1100
0000
0010
1000
0100
0001
1000
0010
,
0001
0000
0100
0000
0001
0000
0010
0000
0100
1000
0100
1000
0100
0000
0000
0000
,
1010
0000
0100
0001
0010
0001
1000
0100
,
0001
0000
1000
0000
0010
0000
0100
0000
0001
1000
0001
1000
0001
0000
0000
0000
,
0101
0000
0010
1000
0100
0001
1000
0100
,
1000
0000
0010
0000
0001
0000
0100
0000
1000
0010
1000
0010
1000
0000
0000
0000
,
1001
0000
0000
0000
0100
0010
1000
0000
0100
0010
0001
0000
0100
0001
1000
0000
,
0010
0000
0100
0000
0001
0010
0000
0100
1000
0000
0001
0000
1000
0000
0100
0000
,
0110
0000
0000
0000
0001
0010
0001
0000
1000
0100
1000
0000
0010
0100
0001
0000
,
1000
0000
0100
0000
0010
0001
0100
0001
1000
0000
0010
0000
0100
0000
0001
0000
,
0011
0000
0000
0000
1000
0100
1000
0000
0001
0010
0001
0000
0100
0010
1000
0001
,
0010
0000
0100
0000
0010
0000
0001
1000
0001
0000
0100
0000
0010
0000
1000
0000
,
0101
0000
0000
0000
1000
0100
0010
0000
0001
0100
0010
0000
1000
0001
0100
0010
,
1000
0000
0001
0000
0010
0100
1000
0001
0100
0000
0020
0000
0000
0000
0030
0000
,
1000
0000
0010
0100
0001
0000
0010
0000
0100
0000
1000
0000
0001
0000
1000
0000
,
0010
0100
0010
0100
0010
1000
0010
1000
0010
0100
0010
1000
0001
0000
0000
0000
,
0101
0000
0000
0000
0001
0000
0010
0100
1000
0000
0001
0000
1000
0000
0100
0000
,
0010
0001
0010
0001
1000
0001
1000
0001
0010
0001
1000
0001
0100
0020
0000
0000
,
1030
0000
0010
0000
0100
0001
0100
0001
1000
0000
0100
0000
0010
0000
0001
0000
,
0100
0010
1000
0000
0001
0010
0001
0100
1000
0000
0010
0000
0100
0000
0000
0000
,
1010
0000
0000
0000
0001
0010
0001
0000
0010
0100
1000
0000
0010
1000
0010
1000
,
0001
0100
0001
0100
0001
0010
0100
1000
0001
0000
0200
0000
0000
0000
0300
0000
,
0202
0000
0000
0000
,
0303
1000
0001
0100
,
0110
0000
0000
0000
0010
1000
0001
0000
1000
0000
0100
0000
0010
0000
0001
0000
,
0000
0000
0100
0000
0000
0000
0001
0010
1000
0000
0001
0000
0100
0000
0010
0000
,
1000
0000
0000
0000
0100
0010
0001
0000
1000
0000
0010
0100
0001
0000
1000
0000
,
0000
0000
0001
0000
0000
0000
0010
0100
1000
0000
0001
0100
0001
0000
0000
0000
,
0011
0000
0000
0000
0100
1000
0001
0000
0100
0000
0001
0000
1000
0100
0010
0000
,
0000
0000
0001
0000
0000
0000
1000
0010
1000
0000
0110
0000
0000
0000
0001
1000
,
0001
0000
0000
0000
0010
0100
1000
0000
0001
0000
0100
0001
0010
0000
1000
0000
,
0001
0100
0001
0100
1000
0100
1000
0100
0001
0000
2000
0000
0000
0000
3000
0000
,
1001
0000
0000
0000
0010
1000
0100
0000
0001
0000
0010
0000
0001
0100
1000
0000
,
0000
0000
0001
0000
0000
0000
0010
0001
0100
0000
0010
1000
0100
0000
0001
0000
,
0011
0000
0000
0000
0100
1000
0010
1000
0001
0000
0100
0000
0001
0010
1000
0000
,
0000
0000
0100
0000
0000
0000
0010
0001
1000
0000
0020
0000
0000
0000
0030
0000
,
1100
0000
0000
0000
0001
0010
0100
0000
0001
0000
1000
0000
0010
0100
0010
0000
,
0000
0000
1000
0100
1000
0000
0001
0100
0001
0000
0011
0000
0000
0000
1000
0100
,
0010
0000
0000
0001
0100
0010
1000
0000
0100
1000
0001
0000
0010
0100
1000
0000
,
0001
0010
1000
0010
0001
0100
1000
0100
0001
0000
0020
0000
0000
0000
0030
0000
,
1001
0000
0000
0010
1000
0100
0010
0000
0001
0100
0001
0000
1000
0100
0010
0001
,
1000
0000
0010
0000
0100
0001
0010
0001
1000
0100
0010
0100
1000
0000
0001
0000
,
1010
0000
0000
0001
0100
0001
0010
0100
1000
0001
1000
0000
0010
0100
0010
0100
,
0001
0000
1000
0000
0100
0010
0100
1000
0001
0100
0001
0000
0010
0000
0000
0000
,
1100
0000
0000
0010
1000
0100
0010
0001
0100
0010
1000
0000
0001
0100
0001
1000
,
0100
0000
0010
0001
0010
0001
0010
0100
1000
0001
1000
0000
0110
0000
0110
0000
,
0001
0001
1000
1000
0010
0010
0100
0100
,
0001
0010
0100
1000
0001
0100
0010
1000
0100
0000
0002
0000
0000
0000
0003
0000
,
0011
0000
0000
0100
1000
0010
1000
0010
0100
0001
1000
0000
0001
0010
0001
0010
,
0200
0000
0000
0000
1300
0010
1000
0010
0100
0001
1000
0000
0001
0000
0100
0000
,
1001
0000
0000
0001
0010
0100
0010
0001
0100
0010
1000
0000
0001
1000
0100
0010
,
0001
0000
0100
0010
1000
0001
1000
0100
0010
0000
0001
0000
0100
0000
0010
1000
,
0100
0000
0010
0001
0010
0100
1000
0001
1000
0010
0100
0001
1000
0100
1000
0001
,
0020
0000
0000
0000
0130
1000
0100
1000
0001
0000
1100
0000
0010
0000
0010
0000
,
0100
0001
1000
0100
1000
0001
0100
0001
1000
0100
1000
0001
,
0100
0000
0010
1000
0010
0100
0001
1000
0100
0000
0020
0000
0000
0000
0030
0000
,
0011
0000
0100
1000
0010
1000
0100
0010
,
0001
0100
0010
0100
0001
0010
1000
0000
,
1100
0000
0010
1000
0001
0010
0001
0100
,
0010
1000
0100
0001
1000
0100
0010
0000
,
1001
0000
0001
0010
1000
0100
0010
0100
,
1000
0010
0001
1000
0001
0010
0100
0000
,
1100
0000
0010
1000
0010
0100
0010
1000
,
0100
0010
0001
0100
0001
0010
1000
0000
,
0101
0000
0001
0010
0001
0010
1000
0001
,
0010
1000
0100
0010
0100
1000
0001
0000
,
0110
0000
0001
0010
1000
0100
0001
1000
,
0001
0010
1000
0100
1000
0010
0001
0000
,
1001
0000
0010
0001
0010
1000
0100
0010
,
0100
1000
0010
0001
0010
1000
0100
0000
,
0011
0000
0010
0001
0100
1000
0010
0000
,
0100
0001
0010
0001
1000
0002
0000
0003
,
1001
0000
0010
0100
0010
0100
0010
0100
,
0001
0000
1000
0000
,
0101
0000
0000
0000
,
0010
1000
0010
1000
0010
1000
0010
1000
0010
1000
0010
1000
0010
1000
0010
1000
,
0001
0000
0010
0100
0010
0100
0010
0100
,
1000
0000
0000
0000
0000
0011
0000
0000
,
1010
0000
0000
0000
,
0100
0001
0100
0001
0100
0001
0100
0001
0100
0000
0020
0000
0000
0000
0030
0000
,
1001
0000
1000
0100
0010
0100
1000
0100
,
0010
0000
0001
0000
,
0011
0000
0000
0000
,
1000
0100
1000
0100
1000
0100
1000
0100
1000
0100
1000
0100
1000
0100
1000
0100
,
0010
0000
0001
1000
0001
1000
0001
1000
,
0100
0000
0000
0000
0000
1100
0000
0000
,
0101
0000
0000
0000
,
0010
0100
0010
0100
0010
0100
0010
0100
;
