#VERSION:0.83;
#TITLE:HUMBLE.;
#SUBTITLE:;
#ARTIST:Kendrick Lamar;
#TITLETRANSLIT:;
#SUBTITLETRANSLIT:;
#ARTISTTRANSLIT:;
#GENRE:;
#ORIGIN:;
#CREDIT:;
#BANNER:HUMBLE.-bn.png;
#BACKGROUND:HUMBLE.-bg.png;
#PREVIEWVID:;
#JACKET:HUMBLE.-jacket.png;
#CDIMAGE:;
#DISCIMAGE:;
#LYRICSPATH:;
#CDTITLE:;
#MUSIC:HUMBLE..ogg;
#OFFSET:0.000000;
#SAMPLESTART:0.000000;
#SAMPLELENGTH:20.000000;
#SELECTABLE:YES;
#DISPLAYBPM:150.000000;
#BPMS:0.000=150.000;
#STOPS:;
#DELAYS:;
#WARPS:;
#TIMESIGNATURES:0.000=4=4;
#TICKCOUNTS:0.000=4;
#COMBOS:0.000=1;
#SPEEDS:0.000=1.000=0.000=0;
#SCROLLS:0.000=1.000;
#FAKES:;
#LABELS:0.000=Song Start;
#BGCHANGES:;
#KEYSOUNDS:;
#ATTACKS:
;

//---------------dance-single - ----------------
#NOTEDATA:;
#CHARTNAME:;
#STEPSTYPE:dance-single;
#DESCRIPTION:;
#CHARTSTYLE:;
#DIFFICULTY:Hard;
#METER:13;
#RADARVALUES:0.584884,0.548994,0.314302,0.148880,0.169557,495.000000,457.000000,38.000000,18.000000,0.000000,0.000000,0.000000,0.000000,0.000000,0.584884,0.548994,0.314302,0.148880,0.169557,495.000000,457.000000,38.000000,18.000000,0.000000,0.000000,0.000000,0.000000,0.000000;
#CREDIT:;
#DISPLAYBPM:150.000000;
#NOTES:
0000
0000
0000
0000
,
0000
0000
0000
0000
,
0000
0000
0000
0000
,
0000
0000
0000
0000
,
1100
0000
0101
0000
0010
0001
0010
0100
,
1000
0010
1000
0010
0100
0001
1000
0001
,
0010
0100
1000
0001
0001
0100
0001
0010
,
0100
1000
0010
1000
0100
0010
0001
1000
,
0001
0100
0001
0000
1000
0010
0100
0001
,
0010
0100
0010
0001
0100
0010
1000
0001
,
0100
0001
0010
0000
0100
1000
0010
1000
,
0001
0010
0001
0100
0010
1000
0100
0010
,
0001
1000
0001
0000
0110
0000
0001
1000
,
0010
0100
0010
1000
0001
0000
0010
0001
,
0100
0000
1010
0000
0001
0100
0001
1000
,
0200
0000
1300
0010
1000
0100
0010
0001
,
0100
0000
0110
0000
1000
0010
1000
0001
,
0020
0031
0100
0010
0020
1030
0001
0000
,
0102
0003
1000
0100
0200
0310
0001
0100
,
0002
1003
0010
1000
2000
3100
0010
0001
,
1001
0000
0101
0000
1000
0010
1000
0100
,
0010
0001
0100
0010
1000
0100
0010
0001
,
0011
0000
1100
0000
0001
0100
0001
1000
,
0010
0000
0100
0001
0100
0010
1000
0100
,
0001
0000
0011
0000
1000
0010
0100
0001
,
0020
0030
0001
1000
0001
0100
0010
1000
,
0100
0000
0110
0000
0001
0100
0001
0100
,
0010
1000
0100
0010
0001
1000
0010
1000
,
0100
0000
0000
1000
1000
0000
0001
0000
,
0011
0110
1100
1010
,
0100
0000
0001
0000
1001
0000
0010
1000
,
0100
0010
0001
0100
0001
0000
1000
0000
,
0010
0100
0100
0010
1000
0100
1000
0001
,
1000
0010
0100
0010
1000
0000
0001
0000
,
0110
0001
1000
0001
0100
0010
1000
0100
,
1000
0000
0001
0000
1010
0000
0001
1000
,
0100
0000
0000
0000
1000
0001
0000
0000
0110
0000
0000
0000
0001
0000
0100
0000
,
0010
1000
0000
0000
0100
0010
0000
0000
0001
1000
0000
0000
0001
0000
0100
0000
,
1001
0000
0000
0000
1000
0100
0000
0000
1010
0000
0000
0000
0010
0000
0100
0000
,
0001
0010
1000
0000
0100
1000
0001
0001
,
0100
0000
0000
0000
0001
1000
0000
0000
0001
1000
0000
0000
0001
0000
0100
0000
,
0010
1000
0000
0000
0010
1000
0000
0000
0100
0000
0000
0000
1000
0000
0001
0000
,
0200
0300
0010
1000
2000
3000
0001
0100
,
0020
1000
0030
0000
0100
0000
0001
0000
0002
0000
0003
0000
0010
0000
0100
0000
,
1000
0000
0000
0000
0001
0100
0000
0000
0001
1000
0000
0000
0001
0000
0100
0000
,
0010
1000
0000
0000
0100
0000
0000
0000
1000
0001
0000
0000
0100
0000
0010
0000
,
1000
0000
0000
0000
0001
0010
0000
0000
0110
0000
0000
0000
1000
0000
0100
0000
,
0001
0100
1000
0000
0010
1000
0001
0001
,
0011
0000
0000
0000
1000
0001
0000
0000
1000
0001
0000
0000
1000
0000
0100
0000
,
0010
0001
0000
0000
0100
0001
0000
0000
1000
0000
0000
0000
0010
0000
0100
0000
,
0001
0000
0000
0000
0010
0001
0000
0000
1001
0000
0000
0000
1000
0000
0100
0000
,
0010
0001
0000
0000
0100
0000
0000
0000
0010
1000
0000
0000
0100
0000
1000
0000
,
0001
0000
0000
0000
0100
0001
0000
0000
1010
0000
0000
0000
1000
0000
0100
0000
,
0010
0001
0100
0000
0001
0010
0100
1000
,
0010
0000
0000
0000
0100
0001
0000
0000
0100
0001
0000
0000
1000
0000
0100
0000
,
0010
0001
0000
0000
0010
0100
0000
0000
1000
0000
0000
0000
0001
0000
1000
0000
,
0020
0030
1000
0100
0200
0300
0010
0100
,
0020
0001
0030
0000
1000
0000
0001
0000
0002
0000
0003
0000
0100
0000
0010
0000
,
1000
0000
0000
0000
0001
0100
0000
0000
0001
0100
0000
0000
0010
0000
0100
0000
,
0001
1000
0000
0000
0101
0000
0000
0000
1000
0100
0000
0000
0010
0000
0001
0000
,
0110
0000
0000
0000
0001
1000
0000
0000
1100
0000
0000
0000
0001
0000
0100
0000
,
0010
1000
0100
0000
1000
0010
0100
0001
,
1001
0000
0000
0000
0100
0010
0000
0000
0100
0010
0000
0000
1000
0000
0100
0000
,
0010
0001
0000
0000
0001
1000
0000
0000
0100
0000
0000
0000
1000
0000
0001
0000
,
0200
0300
0001
1000
2000
3000
0001
0100
,
0001
0010
0000
0000
0001
0010
0000
0000
0100
1000
0000
0000
0100
1000
0000
0000
,
1001
0110
1000
0001
,
0010
0000
0001
1000
0001
0100
0100
0000
,
1010
0101
1000
0100
,
0001
0000
0010
0001
1000
0100
0100
0000
,
1100
0011
0100
0010
,
1000
0000
0001
0010
0001
1000
1000
0000
,
1100
0101
0010
1000
,
0001
0000
0010
0001
1000
0100
0100
0000
;

//---------------dance-single - ----------------
#NOTEDATA:;
#CHARTNAME:;
#STEPSTYPE:dance-single;
#DESCRIPTION:;
#CHARTSTYLE:;
#DIFFICULTY:Medium;
#METER:9;
#RADARVALUES:0.441913,0.457495,0.397012,0.148880,0.000000,374.000000,326.000000,48.000000,18.000000,0.000000,0.000000,0.000000,0.000000,0.000000,0.441913,0.457495,0.397012,0.148880,0.000000,374.000000,326.000000,48.000000,18.000000,0.000000,0.000000,0.000000,0.000000,0.000000;
#CREDIT:;
#DISPLAYBPM:150.000000;
#NOTES:
0000
0000
0000
0000
,
0000
0000
0000
0000
,
0000
0000
0000
0000
,
0000
0000
0000
0000
,
1100
0101
0010
1000
,
0100
0000
1000
0001
0000
1000
0001
0000
,
0011
1100
0001
0100
,
0010
0000
1000
0001
0000
1000
0001
0000
,
0101
1010
0100
0001
,
0010
0000
0100
1000
0000
0100
1000
0000
,
1010
0011
0100
0010
,
0100
0000
0001
1000
0000
0001
1000
0000
,
1001
0110
0010
1000
,
0100
0000
0010
0001
0000
0010
0001
0000
,
0110
1001
0100
0010
,
1000
0000
0001
0100
0000
0001
0100
0000
,
1010
0000
1100
0000
0001
0100
0001
0000
,
0020
0030
0000
0001
2000
3000
0000
0000
,
0200
0300
0000
1000
0002
0003
0000
0000
,
0020
0030
0000
0001
0200
0300
0000
0000
,
1001
0000
0011
0000
1000
0100
1000
0000
,
0001
0000
0010
0100
0000
0100
1000
0000
,
1010
0000
0101
0000
0001
0010
0001
0000
,
0100
0000
0010
1000
0000
1000
0001
0000
,
0110
0000
0101
0000
0100
0010
0100
0000
,
0001
0000
0010
0100
0000
0100
1000
0000
,
1100
0000
0101
0000
0010
1000
0010
0000
,
0100
0000
0001
1000
0000
1000
0010
0000
,
0100
0000
0000
0001
1000
0000
0001
0000
,
1001
0110
1001
0110
,
1000
0000
0001
0000
0010
0000
0100
1000
,
0001
0000
0100
0010
1000
0000
0001
0000
,
0000
0001
1000
0000
0010
0000
0100
0001
,
1000
0000
1000
0100
0010
0000
0001
0000
,
0000
0100
0010
0000
0100
0000
0001
1000
,
0001
0000
1010
0000
0101
0000
1000
0001
,
0100
0000
0100
0000
0001
0000
1000
0100
,
0010
0000
0001
1000
0000
0001
0010
0000
,
0011
0000
1010
0000
0100
0000
0001
0100
,
0010
0000
1010
0000
0001
0000
1000
0100
,
0010
0000
0010
0000
0010
0000
0001
0100
,
0010
0000
0010
0000
0010
0000
1000
0001
,
0200
0300
0000
0001
2000
3000
0010
0100
,
0020
0030
0000
1000
0200
0300
1000
0001
,
0010
0000
1001
0000
0100
0000
0001
0100
,
0001
0000
1000
0000
0001
0000
0010
0100
,
1000
0000
1000
0000
0001
0000
1000
0100
,
0010
0000
0010
0001
0000
1000
0001
0000
,
0100
0000
0100
0000
0100
0000
0001
0100
,
0010
0000
0010
0000
0010
0000
1000
0001
,
0010
0000
0010
0000
0001
0000
1000
0100
,
0010
0000
0011
0000
0001
0100
1000
0000
,
1001
0000
0110
0000
1001
0000
0010
0100
,
0001
0000
1000
0010
0000
1000
0100
0000
,
0010
0000
0010
0000
0010
0000
0010
0100
,
1000
0000
0001
0000
1000
0000
0001
0100
,
0020
0030
0000
1000
0002
0003
0010
0100
,
2000
3000
0000
0001
0200
0300
0010
0100
,
0001
0000
0011
0000
1010
0000
1000
0100
,
0010
0000
0001
1000
0000
0001
1000
0000
,
1010
0000
1100
0000
0001
0000
0010
0100
,
1000
0000
0001
1000
0000
0001
0100
0000
,
0010
0000
0010
0000
0010
0000
0010
0100
,
0001
0000
1000
0000
0001
0000
1000
0100
,
0020
0030
0000
0001
2000
3000
0001
0100
,
0020
0030
0000
1000
0002
0003
0000
0000
,
0011
1100
0000
0001
,
0100
0000
0010
1000
0000
1000
0001
0000
,
0101
1010
0000
0100
,
0010
0000
0001
0100
0000
0001
1000
0000
,
0110
1001
0000
0010
,
1000
0000
0100
0010
0000
0010
0001
0000
,
1001
0110
0000
1000
,
0010
0000
1000
0001
0000
1000
0100
0000
;

//---------------dance-single - ----------------
#NOTEDATA:;
#CHARTNAME:;
#STEPSTYPE:dance-single;
#DESCRIPTION:;
#CHARTSTYLE:;
#DIFFICULTY:Easy;
#METER:7;
#RADARVALUES:0.333207,0.426995,0.231591,0.099253,0.000000,282.000000,254.000000,28.000000,12.000000,0.000000,0.000000,0.000000,0.000000,0.000000,0.333207,0.426995,0.231591,0.099253,0.000000,282.000000,254.000000,28.000000,12.000000,0.000000,0.000000,0.000000,0.000000,0.000000;
#CREDIT:;
#DISPLAYBPM:150.000000;
#NOTES:
0000
0000
0000
0000
,
0000
0000
0000
0000
,
0000
0000
0000
0000
,
0000
0000
0000
0000
,
1000
1000
0001
0001
,
0010
0001
0100
0100
,
0010
0010
0100
0001
,
0010
0100
1000
1000
,
0001
1000
0001
0100
,
0001
0010
0100
1000
,
0010
0010
0100
0010
,
0100
0100
0001
0010
,
1000
0100
1000
0001
,
0010
0001
0100
0100
,
0010
1000
0100
0100
,
0001
0010
0001
1000
,
0100
0100
1000
0001
,
0010
0001
0100
0010
,
0100
0001
1000
1000
,
0100
0001
0100
0001
,
1000
0010
0001
0100
,
0001
0001
1000
1000
,
0010
0000
0010
1000
,
0100
0010
0001
0100
,
0001
0000
0001
0100
,
0010
1000
1000
0100
,
1000
0000
0001
0010
,
0001
0100
0010
1000
,
0100
0000
1000
0001
,
1001
0110
1001
0110
,
0000
0001
0001
0100
,
0001
0010
0100
1000
,
0000
0010
0100
0010
,
1000
0100
0010
0001
,
0000
0100
0010
0100
,
0001
0001
1000
0001
,
0100
1010
0101
1000
,
0100
0011
0100
1010
,
0001
0011
1100
0010
,
0100
1001
0100
1001
,
0010
0010
0010
0010
,
0010
0010
0010
0100
,
0002
0003
0000
0000
2000
3000
0000
0000
,
0002
0003
0000
0000
0200
0300
0000
0000
,
0010
0101
1100
0001
,
0100
0110
0100
0110
,
1000
1100
0011
0001
,
0100
1001
0010
0101
,
1000
1000
1000
1000
,
1000
1000
1000
0001
,
0011
1100
0000
0001
,
0100
0100
0010
1000
,
1100
0101
0000
0010
,
0100
0100
0001
1000
,
0010
0010
0010
0010
,
0010
0010
0010
0100
,
0020
0030
0000
0000
2000
3000
0000
0000
,
0200
0300
0000
0000
2000
3000
0000
0000
,
1001
0110
0000
0100
,
0001
0001
1000
1000
,
0010
0010
1000
0100
,
1000
0001
0100
0100
,
0001
0001
0001
0001
,
0001
0001
0001
1000
,
0002
0003
0000
0000
0020
0030
0000
0000
,
0200
0300
0000
0000
2000
3000
0000
0000
,
0010
0010
0000
1000
,
0100
0010
0100
1000
,
0001
0001
0000
0010
,
0001
0100
1000
1000
,
0010
1000
0000
0001
,
1000
0001
0010
0100
,
1100
0101
0000
0010
,
1000
0001
1000
0100
;

//---------------dance-single - ----------------
#NOTEDATA:;
#CHARTNAME:;
#STEPSTYPE:dance-single;
#DESCRIPTION:;
#CHARTSTYLE:;
#DIFFICULTY:Beginner;
#METER:4;
#RADARVALUES:0.181964,0.213498,0.016542,0.000000,0.000000,154.000000,152.000000,2.000000,0.000000,0.000000,0.000000,0.000000,0.000000,0.000000,0.181964,0.213498,0.016542,0.000000,0.000000,154.000000,152.000000,2.000000,0.000000,0.000000,0.000000,0.000000,0.000000,0.000000;
#CREDIT:;
#DISPLAYBPM:150.000000;
#NOTES:
// measure 0
0000
0000
0000
0000
,  // measure 1
0000
0000
0000
0000
,  // measure 2
0000
0000
0000
0000
,  // measure 3
0000
0000
0000
0000
,  // measure 4
1000
1000
0000
0000
,  // measure 5
0001
0000
0100
0000
,  // measure 6
0001
0001
0000
0000
,  // measure 7
0010
0000
0100
0000
,  // measure 8
1000
1000
0000
0000
,  // measure 9
0010
0000
1000
0000
,  // measure 10
0100
0100
0000
0000
,  // measure 11
0010
0000
0001
0000
,  // measure 12
1000
1000
0000
0000
,  // measure 13
0001
0000
0100
0000
,  // measure 14
0001
0001
0000
0000
,  // measure 15
1000
0000
0100
0000
,  // measure 16
0010
0010
0000
0000
,  // measure 17
0001
0000
1000
0000
,  // measure 18
0001
0000
1000
0000
,  // measure 19
0100
0000
0100
0000
,  // measure 20
0110
0000
0000
0001
,  // measure 21
0001
0000
1000
0000
,  // measure 22
0010
0010
0000
1000
,  // measure 23
1000
0000
0100
0000
,  // measure 24
1000
1000
0000
0001
,  // measure 25
0001
0000
0100
0000
,  // measure 26
0010
0010
0000
0100
,  // measure 27
0100
0000
0001
0000
,  // measure 28
1001
0000
0000
0000
,  // measure 29
0000
0000
0000
0000
,  // measure 30
0001
0001
0000
1000
,  // measure 31
1000
0000
0010
0000
,  // measure 32
1000
1000
0000
0100
,  // measure 33
0100
0000
0010
0000
,  // measure 34
0001
0001
0000
0100
,  // measure 35
0100
0000
0010
0000
,  // measure 36
1000
1000
1000
0000
,  // measure 37
0100
0000
0010
0000
,  // measure 38
0001
0000
1000
0000
,  // measure 39
0100
0000
0100
0000
,  // measure 40
0010
0000
0000
0000
,  // measure 41
0001
0001
0001
0000
,  // measure 42
1000
0000
1000
0000
,  // measure 43
0001
0000
0001
0000
,  // measure 44
0100
0100
0000
0010
,  // measure 45
0010
0000
1000
0000
,  // measure 46
0001
0001
0001
0000
,  // measure 47
1000
0000
0001
0000
,  // measure 48
0010
0000
0000
0000
,  // measure 49
0100
0100
0100
0000
,  // measure 50
1000
1000
0000
0000
,  // measure 51
0001
0000
0100
0000
,  // measure 52
0010
0000
1000
0000
,  // measure 53
0100
0000
0010
0000
,  // measure 54
0001
0000
1000
0000
,  // measure 55
0010
0010
0010
0000
,  // measure 56
0100
0000
0100
0000
,  // measure 57
0001
0000
0001
0000
,  // measure 58
0010
0010
0000
0001
,  // measure 59
0001
0000
1000
0000
,  // measure 60
0100
0100
0000
1000
,  // measure 61
1000
0000
0010
0000
,  // measure 62
0100
0000
0001
0000
,  // measure 63
0010
0010
0010
0000
,  // measure 64
0001
0000
1000
0000
,  // measure 65
0001
0000
0100
0000
,  // measure 66
0010
0010
0000
0000
,  // measure 67
1000
0000
0001
0000
,  // measure 68
1000
1000
0000
0000
,  // measure 69
0100
0000
0010
0000
,  // measure 70
0001
0001
0000
0000
,  // measure 71
0100
0000
0010
0000
,  // measure 72
1000
1000
0000
0001
,  // measure 73
0001
0000
0100
0100
;
