#TITLE:HERO;
#ARTIST:PAPAYA;
#BANNER:HERO-bn.png;
#BACKGROUND:HERO-bg.png;
#JACKET:HERO-jacket.png;
#CDIMAGE:HERO-cd.png;
#CDTITLE:cdtitle.png;
#MUSIC:HERO.ogg;
#SAMPLESTART:42.825;
#SAMPLELENGTH:20;
#DISPLAYBPM:138;
#BPMS:0=138.003;
#BGCHANGES:0=HERO.mp4=1=0=0=0,
;

//---------------dance-single - ----------------
#NOTES:
     dance-single:
     :
     Beginner:
     3:
     :
0000
0000
0000
0000
,
0000
0000
0000
0000
,
0000
0000
0000
0000
,
0000
0000
0000
0000
,
0000
0000
0000
0000
,
0000
0000
0000
0000
,
0000
0000
0000
0000
,
0010
0000
0010
0000
,
1000
1000
1000
0000
,
0001
0000
0100
0000
,
0001
0000
1000
1000
,
0000
0000
0010
0000
,
0100
0100
0100
0000
,
0000
0001
0001
0000
,
0010
0000
0001
0000
,
1000
1000
1000
0000
,
0010
0000
0100
0000
,
0000
0001
0000
0001
,
0000
0100
0100
0000
,
0000
0010
0000
0010
,
0000
1000
1000
0000
,
0000
0100
0000
0010
,
0000
0001
0001
0000
,
0110
0000
0000
0000
,
1001
0000
0000
0000
,
1000
1000
1000
0000
,
1001
0000
0000
0000
,
0001
0000
0100
0000
,
0010
0000
1000
0000
,
0100
0100
0100
0000
,
0110
0000
0000
0000
,
0001
0000
0100
0000
,
0010
0010
0010
0000
,
0000
0000
1000
1000
,
0000
0000
0001
0001
,
0000
0000
0100
0000
,
0010
0010
0010
0000
,
0000
0100
0100
0000
,
0000
0001
0001
0000
,
0000
0010
0010
0000
,
0001
0001
0001
0000
,
0000
1000
1000
0000
,
0000
0001
0001
0000
,
0000
0100
0100
0000
,
1001
0000
0000
0000
;

//---------------dance-single - ----------------
#NOTES:
     dance-single:
     :
     Easy:
     6:
     :
0000
0000
0000
0000
,
0000
0000
0000
0000
,
0000
0000
0000
0000
,
0000
0000
0000
0000
,
0000
0000
0000
0000
,
0000
0000
0000
0000
,
0000
0000
0000
0000
,
0010
0010
0100
0100
,
0001
1000
0001
0000
,
0000
0001
0000
0001
,
0000
1000
0000
1000
,
0010
0100
0010
0100
,
1001
0110
1001
0000
,
0000
1000
0000
1000
,
0000
0001
0000
0001
,
0010
0100
0010
0100
,
1001
0110
1001
0110
,
0001
0100
1000
0100
,
0011
1100
0101
0000
,
0010
0100
1000
0001
,
1010
0101
1100
0000
,
0010
0100
0001
1000
,
1100
0011
0101
0010
,
1000
0100
0001
0010
,
1000
1000
1000
0000
,
0100
0100
1001
0000
,
0010
0010
1001
0000
,
0100
1001
0010
1001
,
0100
0010
1001
0000
,
0001
0001
1100
0000
,
0010
0010
0101
0000
,
1000
0011
0100
1010
,
0101
0011
1100
0000
,
1000
0010
0010
0000
,
0001
0010
0010
0000
,
1100
0101
1010
0011
,
1000
1000
1000
0000
,
0001
0010
0010
0000
,
1000
0010
0010
0000
,
0101
1100
0011
1010
,
0001
0001
0001
0000
,
0010
0010
0010
1001
,
0010
0010
0101
1100
,
0001
0010
1000
0100
,
1001
0000
0000
0000
;

//---------------dance-single - ----------------
#NOTES:
     dance-single:
     :
     Medium:
     8:
     :
0000
0000
0000
0000
,
0000
0000
0000
0000
,
0000
0000
0000
0000
,
0000
0000
0000
0000
,
0000
0000
0000
0000
,
0000
0000
0000
0000
,
0000
0000
0000
0000
,
0010
0100
0010
0100
,
1000
0001
1001
0000
,
0000
0001
1000
0100
,
0000
1000
0001
0100
,
0010
0100
0010
0100
,
0011
1100
0101
0000
,
0000
0001
1000
0100
,
0000
1000
0001
0100
,
0010
0100
0010
0100
,
0011
1100
0101
1010
,
0001
1000
0001
0001
,
1010
0101
0101
0000
,
1000
0001
1000
1000
,
0011
1100
1100
0000
,
0010
0100
0001
0001
,
1100
1100
0101
0010
,
0100
1000
1000
0010
,
1000
0100
0001
0100
1000
0000
0000
0000
,
0100
0100
0100
0000
1001
0000
0000
0000
,
0010
0010
0010
0000
1001
0000
0000
0000
,
1000
1000
1000
0000
0001
0001
0001
0000
,
1100
0101
1001
0000
,
0101
0100
0100
0000
1001
0000
0000
0000
,
1010
0010
0010
0000
1001
0000
0000
0000
,
0011
0001
0001
0000
1100
1000
1000
0000
,
0101
1100
1001
0000
,
0000
0001
1000
0100
0010
0000
0010
0000
,
0000
1000
0001
0100
0010
0000
0010
0000
,
0000
0001
1000
0100
0010
0000
0010
0000
,
1100
0101
1001
0000
,
0000
1000
0001
0100
0010
0000
0010
0000
,
0000
0001
1000
0100
0010
0000
0010
0000
,
0000
1000
0001
0100
0010
0000
0010
0000
,
0101
1100
1001
0000
,
0000
0010
0100
0010
1000
0000
0001
0000
,
0000
0010
0100
0010
0001
0000
1000
0000
,
0000
0001
1000
0100
0010
0000
0010
0000
,
1001
0000
0000
0000
;

//---------------dance-single - ----------------
#NOTES:
     dance-single:
     :
     Hard:
     9:
     :
0000
0000
0000
0000
,
0000
0000
0000
0000
,
0000
0000
0000
0000
,
0000
0000
0000
0000
,
0000
0000
0000
0000
,
0000
0000
0000
0000
,
0000
0000
0000
0000
,
0010
0101
0100
1010
,
1001
0110
1001
0000
,
0000
0000
0001
0001
0000
0000
1000
1000
,
0000
0000
0001
0001
0000
0000
1000
1000
,
0100
0000
0000
0100
0010
0000
0000
0010
0100
0000
0000
0100
0010
0000
0000
0000
,
0011
1000
0101
0000
,
0000
0000
1000
1000
0000
0000
0001
0001
,
0000
0000
1000
1000
0000
0000
0001
0001
,
0100
0000
0000
0100
0010
0000
0000
0010
0100
0000
0000
0100
0010
0000
0000
0000
,
1010
0001
1100
0101
,
0001
1000
0101
0101
,
1010
0000
0000
0000
0101
0000
0000
0000
0100
0001
0000
0000
0000
0000
0000
0000
,
1000
0001
1100
1100
,
0011
0000
0000
0000
1100
0000
0000
0000
0100
1000
0000
0000
0000
0000
0000
0000
,
0010
0000
0000
0000
0100
0000
0000
0000
0001
0000
0000
0001
0100
0000
0000
0100
,
1000
0000
1000
0000
0100
0000
0000
0100
0001
0000
0000
0001
0010
0000
0000
0000
,
0100
1000
1000
1010
,
1000
0100
0001
0100
1000
0000
0000
0000
,
0010
0000
0000
0010
0100
0000
0000
0000
1001
0000
0000
0000
0000
0000
0000
0000
,
0100
0000
0000
0100
0010
0000
0000
0000
1001
0000
0000
0000
0000
0000
0000
0000
,
1000
0000
0000
1000
0001
0000
0000
0000
0001
0000
0000
0001
1000
0000
0000
0000
,
1100
0101
0110
0000
,
0101
0000
0000
0001
0100
0000
0000
0000
1001
0000
0000
0000
0000
0000
0000
0000
,
1010
0000
0000
1000
0010
0000
0000
0000
1001
0000
0000
0000
0000
0000
0000
0000
,
0011
0011
1100
1100
,
0101
1100
1001
0000
,
0000
0000
0001
0000
1000
0000
0100
0000
0010
0000
0000
0010
0100
0000
0000
0000
,
0000
0000
1000
0000
0001
0000
0100
0000
0010
0000
0000
0010
0100
0000
0000
0000
,
0000
0000
0001
0000
1000
0000
0100
0000
0010
0000
0000
0010
0100
0000
0000
0100
,
1000
0000
0000
1000
0100
0000
0000
0100
0001
0000
0000
0000
0000
0000
0000
0000
,
0000
0000
1000
0000
0001
0000
0100
0000
0010
0000
0000
0010
0100
0000
0000
0000
,
0000
0000
0001
0000
1000
0000
0100
0000
0010
0000
0000
0010
0100
0000
0000
0000
,
0000
0000
1000
0000
0001
0000
0100
0000
0010
0000
0000
0010
0100
0000
0000
0100
,
0001
0000
0000
0001
0100
0000
0000
0100
1000
0000
0000
0000
0000
0000
0000
0000
,
0000
0000
0010
0000
0100
0000
0010
0000
1000
0000
0000
1000
0001
0000
0000
0000
,
0000
0000
0010
0000
0100
0000
0010
0000
0001
0000
0000
0001
1000
0000
0000
0000
,
0000
0000
0001
0000
1000
0000
0100
0000
0010
0000
0000
0010
0100
0000
0000
0000
,
1001
0000
0000
0000
;

//---------------dance-single - ----------------
#NOTES:
     dance-single:
     :
     Challenge:
     12:
     :
0000
0000
0000
0000
,
0000
0000
0000
0000
,
0000
0000
0000
0000
,
0000
0000
0000
0000
,
0000
0000
0000
0000
,
0000
0000
0000
0000
,
0000
0000
0000
0000
,
0010
0000
1000
0100
0000
1000
0100
0000
0001
0000
0000
0000
0010
0000
0100
0000
,
1000
0000
0010
0100
0000
0010
0100
0000
0001
0000
0000
0000
0001
0000
1000
0000
,
0001
0100
0010
0100
1000
0100
0001
0010
,
0100
0001
0100
0010
0001
1000
0001
0100
,
0010
1000
0010
0100
0010
1000
0010
0100
,
0001
0001
1000
1000
0010
1000
0100
0000
,
0010
0001
1000
0001
0100
1000
0100
0001
,
1000
1000
0001
0001
0010
0001
0100
0000
,
0101
0000
1100
0000
0101
1000
0100
0000
,
0010
0000
0001
1000
0000
1000
0100
0000
0010
0000
0001
0000
0001
0000
0000
0000
,
1001
0100
0100
0001
0001
1000
1000
0010
,
1000
0100
0001
0100
2000
0010
3010
0000
,
0100
0001
0001
1000
1000
0010
0010
1000
,
0001
0100
1000
0100
0002
0010
0013
0000
,
0001
1000
1000
0001
0001
0010
0010
0100
,
1000
0010
0100
0001
1000
0100
0010
0001
,
0100
1000
0100
0010
0100
1000
0100
0001
,
0010
1000
0010
0001
0010
0100
1000
0001
,
0010
0001
1000
0001
0100
0001
0010
0100
,
1000
0010
0100
0001
0000
0010
0010
0001
,
1000
0010
0100
0001
0010
0100
1000
0001
,
0100
0010
1000
1000
0000
0001
0001
0100
,
0010
0001
0010
1000
0010
0001
0010
1000
,
0100
0010
0001
0100
0000
1000
1000
0010
,
1000
0100
0010
0001
1000
0010
0100
0001
,
0011
0000
0000
0000
1100
0000
0000
0000
0011
0000
0000
1000
0001
0000
0100
0000
,
0010
1000
1000
0001
0001
0100
0010
0000
,
1000
0001
0001
0010
0010
0001
0100
0000
,
0010
1000
1000
0001
0001
1000
0100
0000
,
0002
0100
2003
0100
3002
0100
0103
0000
,
0010
0100
0100
0001
0001
1000
0100
0000
,
1000
0010
0010
0001
0001
1000
0100
0000
,
1000
0001
0001
0100
0100
0001
0010
0000
,
0002
0100
2003
0100
3002
0100
0103
0000
,
0010
0100
0100
1000
1000
0001
0100
0000
,
0001
1000
1000
0001
0001
0010
0100
0000
,
0010
0100
0100
0010
0010
0001
1000
0000
,
1001
0000
0000
0000
;

//---------------dance-double - ----------------
#NOTES:
     dance-double:
     :
     Easy:
     6:
     :
00000000
00000000
00000000
00000000
,
00000000
00000000
00000000
00000000
,
00000000
00000000
00000000
00000000
,
00000000
00000000
00000000
00000000
,
00000000
00000000
00000000
00000000
,
00000000
00000000
00000000
00000000
,
00000000
00000000
00000000
00000000
,
10000000
10000000
00010000
00010000
,
00001000
00001000
00000001
00000000
,
00000000
00000010
00000000
00000010
,
00000000
00000001
00000000
00000001
,
00000100
00001000
00010000
01000000
,
10010000
01100000
10010000
00000000
,
00000000
00100000
00000000
00100000
,
00000000
10000000
00000000
10000000
,
01000000
00010000
00001000
00000100
,
00001001
00000110
00001001
00000110
,
00000001
00000100
00001000
00010000
,
11000000
00110000
00011000
00000000
,
10000000
01000000
00010000
00001000
,
00000101
00001010
00011000
00000000
,
00000100
00001000
01000000
00010000
,
00001001
00001001
00001001
00000100
,
00010000
01000000
10000000
00010000
,
00100000
00100000
00100000
00000000
,
10000000
10000000
01100000
00000000
,
00001000
00001000
00000110
00000000
,
00000001
00000110
00001000
00011000
,
00100000
00100000
10010000
00000000
,
10000000
10000000
01010000
00000000
,
00001000
00001000
00000101
00000000
,
00000010
00011000
00100000
00011000
,
00001001
00011000
10010000
00000000
,
00010000
10000000
01000000
00010000
,
00001000
00000100
00000001
00000010
,
00010000
00100000
00010000
10000000
,
00010000
00010000
00010000
00000000
,
10000000
00010000
00010000
00000000
,
00001000
00000001
00000001
00000000
,
00000110
00011000
01100000
10010000
,
00100000
00100000
01000000
00000000
,
00100000
00100000
00100000
10010000
,
00001000
00001000
00001100
00000011
,
00000100
00001000
00010000
01000000
,
10010000
00000000
00000000
00000000
;

//---------------dance-double - ----------------
#NOTES:
     dance-double:
     :
     Medium:
     8:
     :
00000000
00000000
00000000
00000000
,
00000000
00000000
00000000
00000000
,
00000000
00000000
00000000
00000000
,
00000000
00000000
00000000
00000000
,
00000000
00000000
00000000
00000000
,
00000000
00000000
00000000
00000000
,
00000000
00000000
00000000
00000000
,
00000001
00001000
00010000
10000000
,
10010000
00011000
00001001
00000000
,
00000000
00000000
00000010
00000100
00000000
00000000
00001000
00010000
,
00000000
00000000
00100000
10000000
00000000
00000000
10000000
01000000
,
00010000
00001000
00010000
00001000
,
00000101
00001010
00011000
00000000
,
00000000
00000000
00100000
01000000
00000000
00000000
00010000
00001000
,
00000000
00000000
00000010
00000001
00000000
00000000
00000001
00000100
,
00001000
00010000
00001000
00010000
,
11000000
00110000
00011000
00000000
,
00000010
00000001
00000100
00001000
,
01010000
00000000
00100000
10000000
00100000
00000000
00000000
00000000
,
00100000
10000000
01000000
00010000
,
00001100
00000000
00000010
00000001
00000010
00000000
00000000
00000000
,
00000100
00001000
00010000
01000000
,
00110000
00011000
00001010
00000001
,
00000100
00001000
00001000
00010000
,
01000000
10000000
00100000
00010000
00001000
00000000
00000000
00000000
,
00000101
00000100
00001001
00000000
,
00011000
00010000
10010000
00000000
,
10100000
00100000
01010000
00010000
,
00011000
00000110
00001001
00000000
,
00000100
00000100
00000100
00000000
00001001
00000000
00000000
00000000
,
00010000
00010000
00010000
00000000
10010000
00000000
00000000
00000000
,
00100000
00100000
00100000
00000000
00010000
00010000
00010000
00000000
,
00011000
00000110
00001001
00000000
,
00000010
00000010
00000010
00000000
00001000
00000000
01000000
00000000
,
00100000
00100000
00100000
00000000
00010000
00000000
00000100
00000000
,
00000010
00000010
00000010
00000000
00001000
00000000
01000000
00000000
,
10000000
00010000
10000000
00000000
,
10100000
00100000
00100000
00000000
00010000
00000000
00000100
00000000
,
00000011
00000010
00000010
00000000
00001000
00000000
01000000
00000000
,
10100000
00100000
00100000
00000000
00010000
00000000
00000100
00000000
,
00000001
00001000
00000001
00000000
,
00000010
00001000
00000010
00001000
00000010
00010000
00001000
00000000
,
00100000
00010000
00100000
00010000
00100000
00001000
00010000
00000000
,
00000010
00000100
00000001
00001000
,
00011000
00000000
00000000
00000000
;

//---------------dance-double - ----------------
#NOTES:
     dance-double:
     :
     Hard:
     9:
     :
00000000
00000000
00000000
00000000
,
00000000
00000000
00000000
00000000
,
00000000
00000000
00000000
00000000
,
00000000
00000000
00000000
00000000
,
00000000
00000000
00000000
00000000
,
00000000
00000000
00000000
00000000
,
00000000
00000000
00000000
00000000
,
00000001
00000000
00000010
00000000
00000100
00010000
00000010
00000000
,
00001000
00000001
00000110
00000000
00011000
00000000
00000000
00000000
,
00100000
01000000
10000000
00000000
01010000
00000000
00001000
00000000
,
00010000
00000100
00000010
00000000
00001001
00000000
00000100
00000000
,
00010000
00001000
01000000
00000000
00100000
10000000
01000000
00000000
,
00100000
00001000
00010000
00000100
00000010
00000000
00001001
00000000
,
00000010
00000100
00000010
00000000
00001001
00000000
00000100
00000000
,
00010000
00001000
00100000
00000000
10010000
00000000
01000000
00000000
,
00100000
00001000
00010000
00000000
00000100
00000010
00000001
00000000
,
00001000
00000100
00010000
00001000
00100000
00000000
10010000
00000000
,
00000000
01000000
00100000
00001000
00010000
00000100
00001000
00000010
,
00010000
00000100
00001000
00000000
00011000
00000000
00000000
00000000
,
00000000
00000010
00000100
00000001
00001000
00000100
00010000
00000010
,
00001000
00000100
00010000
00000000
00101000
00000000
00000000
00000000
,
00000000
00010000
01000000
00100000
10000000
00010000
01000000
00001000
,
00100000
00010000
10000000
00000000
01100000
00000000
00000000
00000000
,
00010000
01000000
00001000
00000000
00010000
00000100
00001000
00000000
,
00000001
00000100
00000001
00000010
00000001
00000000
00001100
00000000
,
00010000
00010000
00001000
00001000
01000000
00000000
00000000
00000000
,
00010000
00010000
10000000
10000000
00100000
00000000
01000000
00010000
,
00100000
00001000
00010000
00000100
00001000
00000001
00000100
00000000
,
00000010
00001000
00000100
00010000
00001000
00000000
10010000
00000000
,
00100000
00100000
01000000
01000000
00001000
00000000
00000000
00000000
,
00010000
00010000
00000100
00000100
00000010
00000000
00000001
00000100
,
00000010
00010000
00000100
00001000
00000001
00000100
00000010
00000000
,
00010000
00001000
01000000
00100000
10000000
00000000
00011000
00000000
,
00000000
00000100
00000000
00000100
00000010
00000001
00000100
00000000
,
00000000
00000010
00000000
00000010
00010000
00000100
00001000
00000000
,
00000000
00000001
00000000
00000001
00000010
00000100
00010000
00000000
,
00001000
01000000
00100000
10000000
01000000
00000000
00000000
00000000
,
00000000
00100000
00000000
00100000
00001000
01000000
00010000
00000000
,
00000000
10000000
00000000
10000000
01000000
00100000
00001000
00000000
,
00000000
00010000
00000000
00010000
00000100
00000010
00000001
00000000
,
00001000
00000100
00010000
00001000
00100000
00000000
00000000
00000000
,
00000000
00010000
00000000
00010000
10000000
01000000
00100000
00000000
,
00000000
00001000
00000000
00001000
00010000
00000100
00000010
00000000
,
00000000
00000001
00000000
00000001
00001000
00000010
00010000
00000000
,
00011000
00000000
00000000
00000000
;

//---------------dance-couple - ----------------
#NOTES:
     dance-couple:
     :
     Easy:
     4:
     :
00000000
00000000
00000000
00000000
,
00000000
00000000
00000000
00000000
,
00000000
00000000
00000000
00000000
,
00000000
00000000
00000000
00000000
,
00000000
00000000
00000000
00000000
,
00000000
00000000
00000000
00000000
,
00000000
00000000
00000000
00000000
,
00100000
00000010
01000000
00000100
,
00011000
10000001
00011000
00000000
,
00000001
10000000
00000001
10000000
,
00001000
00010000
00001000
00010000
,
00100010
01000100
00100010
01000100
,
10010110
01101001
10010110
00000000
,
00001000
00010000
00001000
00010000
,
00000001
10000000
00000001
10000000
,
00100010
01000100
00100010
01000100
,
01101001
10010110
01101001
10010110
,
00011000
01000100
10000001
01000100
,
00111010
11000101
01011100
00000000
,
00100010
01000100
10000001
00011000
,
10100011
01011100
11000101
00000000
,
00100010
01000100
00011000
10000001
,
11000101
00111010
01011100
00100010
,
00011000
01000100
10000001
00100010
,
00011000
00011000
00011000
00000000
,
01000100
01000100
10011001
00000000
,
00100010
00100010
10011001
00000000
,
01000100
10011001
00100010
10011001
,
01000100
00100010
10011001
00000000
,
00011000
00011000
11000101
00000000
,
00100010
00100010
01011100
00000000
,
10000001
00111010
01000100
10100011
,
01011100
00111010
11000101
00000000
,
00010000
00100001
00100000
00000001
,
00001000
10000010
00000010
10000000
,
00001010
01010000
00000101
10100000
,
00011000
00011000
00011000
00000000
,
10000000
00100010
00100000
00000010
,
00001000
00100010
00000010
00100000
,
00000101
11000000
00001010
00110000
,
10000001
10000001
10000001
00000000
,
00100010
00100010
00100010
10011001
,
00100010
00100010
11000101
01011100
,
10000001
00100010
00011000
01000100
,
10011001
00000000
00000000
00000000
;

//---------------dance-couple - ----------------
#NOTES:
     dance-couple:
     :
     Medium:
     5:
     :
00000000
00000000
00000000
00000000
,
00000000
00000000
00000000
00000000
,
00000000
00000000
00000000
00000000
,
00000000
00000000
00000000
00000000
,
00000000
00000000
00000000
00000000
,
00000000
00000000
00000000
00000000
,
00000000
00000000
00000000
00000000
,
00100100
01000010
00100100
01000010
,
10000001
00011000
10011001
00000000
,
00000000
00010001
10000000
01000001
,
00000000
10001000
00000001
10000100
,
01000010
00100100
01000010
00100100
,
01010011
10101100
01010101
00000000
,
00000000
00010001
00001000
00010100
,
00000000
10001000
00010000
01001000
,
00100100
01000010
00100100
01000010
,
00110101
11001010
01010101
10100011
,
00010000
00000001
10000000
00000001
00010000
00000001
00010000
00000001
,
10100000
01010010
01011001
00000000
,
00001000
10000000
00000001
10000000
00001000
10000000
00001000
10000000
,
00000011
00101100
10011100
00000000
,
00100010
01000100
00011000
00011000
,
11000101
11000101
01011100
00100010
,
01000100
10000001
10000001
00100010
,
10000001
01000100
00011000
01000100
10000001
00000000
00000000
00000000
,
01000000
01000000
01000010
00000000
10010100
00000000
00000000
00000000
,
00000010
00000010
00100010
00000000
01001001
00000000
00000000
00000000
,
10000100
10000000
10000000
00000000
00000001
00000001
00100001
00000000
,
11000101
01011100
10011001
00000000
,
11000000
01000000
01000010
00000100
10010010
00000000
00000000
00000000
,
00000011
00000010
00100010
01000000
00101001
00000000
00000000
00000000
,
00111010
00011000
00011000
00000000
11000101
10000001
10000001
00000000
,
01011100
11000101
10011001
00000000
,
00000000
00010001
10000000
01000001
00100000
00000001
00100001
00000000
,
00000000
10000001
00010000
01000001
00100000
00000001
00100001
00000000
,
00000000
10000001
00001000
10000100
00000010
10000000
10000010
00000000
,
11000101
01011100
10011001
00000000
,
00000000
00010001
00001000
00010100
00000010
00010000
00010010
00000000
,
00000000
00011000
00000001
00010100
00000010
00010000
00010010
00000000
,
00000000
00011000
10000000
01001000
00100000
00001000
00101000
00000000
,
01011100
11000101
10011001
00000000
,
00000000
00100010
01000100
00100010
00011000
00000000
10000001
00000000
,
00000000
00100010
01000100
00100010
10000001
00000000
00011000
00000000
,
00000000
00011000
10000001
01000100
00100010
00000000
00100010
00000000
,
10011001
00000000
00000000
00000000
;

//---------------dance-couple - ----------------
#NOTES:
     dance-couple:
     :
     Hard:
     6:
     :
00000000
00000000
00000000
00000000
,
00000000
00000000
00000000
00000000
,
00000000
00000000
00000000
00000000
,
00000000
00000000
00000000
00000000
,
00000000
00000000
00000000
00000000
,
00000000
00000000
00000000
00000000
,
00000000
00000000
00000000
00000000
,
00100100
01011010
01000010
10100101
,
10011001
01100110
10011001
00000000
,
00000000
00000000
00011000
00011000
00000000
00000000
10000001
10000001
,
00000000
00000000
00011000
00011000
00000000
00000000
10000001
10000001
,
01000010
00000000
00000000
01000010
00100100
00000000
00000000
00100100
01000010
00000000
00000000
01000010
00100100
00000000
00000000
00000000
,
00111100
10000001
01011010
00000000
,
00000000
00000000
10000001
10000001
00000000
00000000
00011000
00011000
,
00000000
00000000
10000001
10000001
00000000
00000000
00011000
00011000
,
01000010
00000000
00000000
01000010
00100100
00000000
00000000
00100100
01000010
00000000
00000000
01000010
00100100
00000000
00000000
00000000
,
10100101
00011000
11000011
01011010
,
00011000
10000001
01011010
01011010
,
10100101
00000000
00000000
00000000
01011010
00000000
00000000
00000000
01000010
00011000
00000000
00000000
00000000
00000000
00000000
00000000
,
10000001
00011000
11000011
11000011
,
00111100
00000000
00000000
00000000
11000011
00000000
00000000
00000000
01000010
10000001
00000000
00000000
00000000
00000000
00000000
00000000
,
00100100
00000000
00000000
00000000
01000010
00000000
00000000
00000000
00011000
00000000
00000000
00011000
01000010
00000000
00000000
01000010
,
10000001
00000000
10000001
00000000
01000010
00000000
00000000
01000010
00011000
00000000
00000000
00011000
00100100
00000000
00000000
00000000
,
01000010
10000001
10000001
10100101
,
10000001
01000010
00011000
01000010
10000001
00000000
00000000
00000000
,
00100100
00000000
00000000
00100100
01000010
00000000
00000000
00000000
10011001
00000000
00000000
00000000
00000000
00000000
00000000
00000000
,
01000010
00000000
00000000
01000010
00100100
00000000
00000000
00000000
10011001
00000000
00000000
00000000
00000000
00000000
00000000
00000000
,
10000001
00000000
00000000
10000001
00011000
00000000
00000000
00000000
00011000
00000000
00000000
00011000
10000001
00000000
00000000
00000000
,
11000011
01011010
01100110
00000000
,
01011010
00000000
00000000
00011000
01000010
00000000
00000000
00000000
10011001
00000000
00000000
00000000
00000000
00000000
00000000
00000000
,
10100101
00000000
00000000
10000001
00100100
00000000
00000000
00000000
10011001
00000000
00000000
00000000
00000000
00000000
00000000
00000000
,
00111100
00111100
11000011
11000011
,
01011010
11000011
10011001
00000000
,
00000000
00000000
00011000
00000000
10000001
00000000
01000010
00000000
00100100
00000000
00000000
00100100
01000010
00000000
00000000
00000000
,
00000000
00000000
10000001
00000000
00011000
00000000
01000010
00000000
00100100
00000000
00000000
00100100
01000010
00000000
00000000
00000000
,
00000000
00000000
00011000
00000000
10000001
00000000
01000010
00000000
00100100
00000000
00000000
00100100
01000010
00000000
00000000
01000010
,
10000001
00000000
00000000
10000001
01000010
00000000
00000000
01000010
00011000
00000000
00000000
00000000
00000000
00000000
00000000
00000000
,
00000000
00000000
10000001
00000000
00011000
00000000
01000010
00000000
00100100
00000000
00000000
00100100
01000010
00000000
00000000
00000000
,
00000000
00000000
00011000
00000000
10000001
00000000
01000010
00000000
00100100
00000000
00000000
00100100
01000010
00000000
00000000
00000000
,
00000000
00000000
10000001
00000000
00011000
00000000
01000010
00000000
00100100
00000000
00000000
00100100
01000010
00000000
00000000
01000010
,
00011000
00000000
00000000
00011000
01000010
00000000
00000000
01000010
10000001
00000000
00000000
00000000
00000000
00000000
00000000
00000000
,
00000000
00000000
00100100
00000000
01000010
00000000
00100100
00000000
10000001
00000000
00000000
10000001
00011000
00000000
00000000
00000000
,
00000000
00000000
00100100
00000000
01000010
00000000
00100100
00000000
00011000
00000000
00000000
00011000
10000001
00000000
00000000
00000000
,
00000000
00000000
00011000
00000000
10000001
00000000
01000010
00000000
00100100
00000000
00000000
00100100
01000010
00000000
00000000
00000000
,
10011001
00000000
00000000
00000000
;

//---------------dance-solo - ----------------
#NOTES:
     dance-solo:
     :
     Easy:
     4:
     :
000000
000000
000000
000000
,
000000
000000
000000
000000
,
000000
000000
000000
000000
,
000000
000000
000000
000000
,
000000
000000
000000
000000
,
000000
000000
000000
000000
,
000000
000000
000000
000000
,
000100
000100
001000
001000
,
000010
100000
000010
000000
,
000000
000001
000000
000001
,
000000
010000
000000
010000
,
000100
001000
000100
001000
,
100001
001100
100001
000000
,
000000
010000
000000
010000
,
000000
000010
000000
000010
,
000100
001000
000100
001000
,
100001
001100
100001
001100
,
000001
001000
100000
001000
,
010001
100010
001100
000000
,
000100
001000
100000
000001
,
010100
000110
010001
000000
,
000100
001000
000001
100000
,
011000
000101
010010
000100
,
100000
001000
000001
000100
,
010000
010000
010000
000000
,
001000
001000
100001
000000
,
000100
000100
100001
000000
,
001000
100001
000100
100001
,
001000
000100
100001
000000
,
000010
000010
010001
000000
,
000100
000100
101000
000000
,
010000
000101
001000
100010
,
001001
000110
010100
000000
,
100000
001000
001000
000000
,
000001
000100
000100
000000
,
010000
000010
000100
001000
,
010001
100010
001100
000000
,
000010
000100
000100
000000
,
010000
000100
000100
000000
,
100000
000001
000100
001000
,
010001
100010
001100
000000
,
000010
000010
000010
100001
,
000100
000100
001010
100100
,
000001
000010
100000
010000
,
100001
000000
000000
000000
;

//---------------dance-solo - ----------------
#NOTES:
     dance-solo:
     :
     Medium:
     5:
     :
000000
000000
000000
000000
,
000000
000000
000000
000000
,
000000
000000
000000
000000
,
000000
000000
000000
000000
,
000000
000000
000000
000000
,
000000
000000
000000
000000
,
000000
000000
000000
000000
,
010000
001000
000010
001000
,
100000
000001
100001
000000
,
000000
000010
010000
001000
,
000000
100000
000001
001000
,
000010
001000
010000
001000
,
000101
011000
100001
000000
,
000000
000010
010000
001000
,
000000
100000
000001
001000
,
000010
001000
010000
001000
,
000101
011000
100001
001010
,
000001
100000
000010
000010
,
001100
110000
110000
000000
,
000010
010000
000001
000001
,
001100
010001
010001
000000
,
000100
001000
000001
000001
,
100100
011000
000101
001000
,
000100
100000
100000
000010
,
010000
001000
000001
001000
100000
000000
000000
000000
,
001000
001000
001000
000000
100001
000000
000000
000000
,
000100
000100
000100
000000
100001
000000
000000
000000
,
010000
010000
010000
000000
000010
000010
000010
000000
,
101000
001001
000011
000000
,
001001
001000
001000
000000
100001
000000
000000
000000
,
100100
000100
000100
000000
100001
000000
000000
000000
,
010001
000001
000001
000000
101000
100000
100000
000000
,
001001
101000
100001
000000
,
000000
000010
100000
001000
000100
000000
000100
000000
,
000000
010000
000001
001000
000100
000000
000100
000000
,
000000
000010
100000
001000
000100
000000
000100
000000
,
010001
100010
001100
000000
,
000000
010000
000001
001000
000100
000000
000100
000000
,
000000
000010
100000
001000
000100
000000
000100
000000
,
000000
010000
000001
001000
000100
000000
000100
000000
,
100010
010001
001100
000000
,
000000
010000
000001
010000
000010
000000
100000
000000
,
000000
000100
001000
000100
000001
000000
100000
000000
,
000000
000010
010000
001000
000100
000000
000100
000000
,
100001
000000
000000
000000
;

//---------------dance-solo - ----------------
#NOTES:
     dance-solo:
     :
     Hard:
     7:
     :
000000
000000
000000
000000
,
000000
000000
000000
000000
,
000000
000000
000000
000000
,
000000
000000
000000
000000
,
000000
000000
000000
000000
,
000000
000000
000000
000000
,
000000
000000
000000
000000
,
000100
000000
001000
000000
000010
100000
000010
000000
,
010000
000000
000001
000100
001000
000000
000000
000000
,
000000
010000
000000
010000
000000
000001
000000
000001
,
000000
001000
000000
001000
000000
000010
000000
000010
,
000000
000100
000000
000100
000000
001000
000000
001000
,
000000
010000
000000
010000
000000
000001
000000
000001
,
000000
100000
000000
100000
000000
000010
000000
000010
,
000000
001000
000000
001000
000000
000100
000000
000100
,
000000
010000
000000
010000
000000
001000
000000
001000
,
000000
000100
000000
000100
000000
000001
000000
000001
,
000000
010000
000001
010000
001000
000100
001000
000100
,
000001
010000
000001
010000
000001
000000
000000
000000
,
000000
100000
000010
100000
000100
001000
000100
001000
,
000010
000001
000010
000001
000010
000000
000000
000000
,
000000
100000
000100
100000
000010
010000
000010
010000
,
000001
000100
000001
000100
000001
000000
010000
001000
,
000000
001000
100000
001000
100000
000000
001000
000100
,
000000
000001
010000
000001
010000
000000
000000
000000
,
100000
000100
100000
000100
100000
000000
010000
000010
,
000000
000100
000001
000100
000001
000000
011000
000000
,
100000
000001
100000
000010
100000
000100
100000
000000
,
010000
001000
010000
001000
010000
000000
100001
000000
,
001000
000010
001000
000010
001000
000000
100000
000100
,
000000
010000
001000
010000
001000
000000
100001
000000
,
001000
000010
001000
000100
001000
000001
001000
000000
,
000100
100000
000100
100000
000100
000000
010001
000000
,
000100
001000
000100
001000
000100
000000
100000
100000
,
000010
001000
000010
001000
000010
000000
100000
100000
,
000001
000100
000001
010000
000001
001000
000001
000000
,
000100
001000
000100
001000
000100
000000
000001
000001
,
010000
000010
010000
000010
010000
000000
000100
000100
,
100000
001000
100000
001000
100000
000000
000001
000001
,
010000
000100
010000
000010
010000
001000
010000
000000
,
000100
100000
000010
001000
000100
000000
000100
100000
,
001000
010000
000001
000100
001000
000000
010000
010000
,
000001
000100
000010
010000
000100
100000
010000
000000
,
100000
000100
001000
000010
100000
000000
000001
010000
,
000010
000000
000000
000000
;
