#VERSION:0.83;
#TITLE:HEAVEN IS A PLACE ON EARTH;
#SUBTITLE:(German Election Mix);
#ARTIST:JULIA;
#TITLETRANSLIT:;
#SUBTITLETRANSLIT:;
#ARTISTTRANSLIT:;
#GENRE:;
#ORIGIN:;
#CREDIT:;
#BANNER:HEAVEN IS A PLACE ON EARTH (German Election Mix)-bn.png;
#BACKGROUND:HEAVEN IS A PLACE ON EARTH (German Election Mix)-bg.png;
#PREVIEWVID:;
#JACKET:HEAVEN IS A PLACE ON EARTH (German Election Mix)-jacket.png;
#CDIMAGE:;
#DISCIMAGE:;
#LYRICSPATH:;
#CDTITLE:;
#MUSIC:HEAVEN IS A PLACE ON EARTH (German Election Mix).ogg;
#OFFSET:0.000000;
#SAMPLESTART:1.591000;
#SAMPLELENGTH:20.000000;
#SELECTABLE:YES;
#DISPLAYBPM:141.000000;
#BPMS:0.000=141.000;
#STOPS:;
#DELAYS:;
#WARPS:;
#TIMESIGNATURES:0.000=4=4;
#TICKCOUNTS:0.000=4;
#COMBOS:0.000=1;
#SPEEDS:0.000=1.000=0.000=0;
#SCROLLS:0.000=1.000;
#FAKES:;
#LABELS:0.000=Song Start;
#BGCHANGES:3.750=HEAVEN IS A PLACE ON EARTH (German Election Mix).avi=1.000=1=0=0=StretchNoLoop==CrossFade==,
99999=-nosongbg-=1.000=0=0=0 // don't automatically add -songbackground-
;
#KEYSOUNDS:;
#ATTACKS:
;

//---------------dance-single - ----------------
#NOTEDATA:;
#CHARTNAME:;
#STEPSTYPE:dance-single;
#DESCRIPTION:;
#CHARTSTYLE:;
#DIFFICULTY:Hard;
#METER:13;
#RADARVALUES:0.551736,0.574535,0.148954,0.085116,0.430901,363.000000,349.000000,14.000000,8.000000,0.000000,0.000000,0.000000,0.000000,0.000000,0.551736,0.574535,0.148954,0.085116,0.430901,363.000000,349.000000,14.000000,8.000000,0.000000,0.000000,0.000000,0.000000,0.000000;
#CREDIT:;
#DISPLAYBPM:141.000000;
#NOTES:
0000
0000
0000
0000
,
0000
0000
0000
0000
,
0000
0000
0000
0000
,
0000
0000
0000
0000
,
0000
0000
0000
0000
,
0000
0000
0000
0000
,
0000
0000
0000
0000
,
0000
0000
0000
0000
,
0000
0000
0000
0000
,
1001
0000
0000
1100
0000
0000
1001
0000
0000
0101
0000
0000
0100
0000
0010
0000
,
1000
0100
0001
0010
0001
1000
0100
0000
,
0011
0000
0000
0101
0000
0000
0011
0000
0000
1100
0000
0000
0010
0000
0100
0000
,
1000
0010
1000
0001
0010
0100
1000
0000
,
0110
0000
0000
0011
0000
0000
0110
0000
0000
1100
0000
0000
0001
0000
1000
0000
,
0001
0100
0010
0100
0001
0010
0100
1000
,
0010
1000
0010
0100
0001
0010
0001
0100
,
1000
0010
1000
0100
0001
0010
1000
0001
,
0100
0000
0000
0100
0000
0000
0100
0000
0000
0100
0000
0000
0100
0000
0100
0000
,
0010
0000
0000
1000
0000
0000
0100
0000
0000
0001
0000
0000
1000
0000
0010
0000
,
0100
0000
0000
0001
0000
0000
0010
0100
0000
0100
0000
0100
1000
0000
0001
0000
,
1000
0000
0000
0010
0000
0000
0001
0000
0000
1000
0000
0000
0001
0000
0100
0000
,
0001
0000
0000
0010
0000
0000
0100
1000
0000
1000
0000
1000
0001
0000
0100
0000
,
0001
0000
0000
0010
0000
0000
1000
0000
0000
0100
0000
0000
0010
0000
0100
0000
,
1000
0000
0000
0001
0000
0000
1000
0010
0000
0010
0000
0010
0100
0000
0001
0000
,
0010
0000
0000
0001
0000
0000
1000
0000
0000
0010
0000
0000
1000
0000
0100
0000
,
0001
0000
0000
1000
0000
0000
0100
0010
0000
0010
0000
0010
0001
0000
1000
0000
,
0001
0010
0001
0100
0001
0010
0001
0100
,
0001
0000
1000
0000
0010
0000
1000
0000
0100
0010
0000
0010
0001
0000
0100
0000
,
0010
1000
0001
1000
0010
1000
0001
1000
,
0010
0000
0100
0000
0010
0000
1000
0000
0001
0100
0000
0100
0010
0000
1000
0000
,
0100
0010
0100
1000
0100
0010
0100
1000
,
0001
0000
0010
0000
0001
0000
0100
0000
0010
1000
0000
1000
0001
0000
0100
0000
,
0001
0010
0100
0010
0001
0010
0100
0010
,
0100
0000
1000
0000
0010
0000
0100
0000
0001
1000
0000
1000
0010
0000
0100
0000
,
0001
0010
0000
0010
0001
0000
0100
0010
0000
0010
1000
0000
0100
0000
1000
0000
,
0001
0000
0100
0000
0010
0000
1000
0001
0000
1000
0000
0010
0100
0000
0001
0000
,
0010
0100
0000
0010
0100
0000
1000
0001
0000
1000
0001
0000
0010
0000
0100
0000
,
1000
0000
0010
0000
0100
0000
0001
0010
0000
0001
0000
1000
0001
0000
0100
0000
,
0010
1000
0000
0001
0100
0000
0001
0010
0000
0100
1000
0000
0010
0000
0100
0000
,
0010
0000
1000
0000
0100
0000
0010
0001
0000
1000
0000
0010
0100
0000
0001
0000
,
0010
0100
0000
0100
1000
0000
0001
1000
0000
1000
0010
0000
0100
0000
0001
0000
,
0010
0000
0001
0000
0100
0000
0010
1000
0000
0100
0000
0010
0001
0000
1000
0000
,
0001
0100
0000
0100
0010
0000
2000
0000
0000
3002
0000
0000
1003
0000
0100
0000
,
0020
0000
0000
0031
0000
0000
2000
0000
0000
3010
0000
0010
0100
0000
0001
0000
,
0020
0000
0000
0130
0000
0000
2000
0000
0000
3001
0000
0001
1000
0000
0010
0000
,
0200
0000
0000
0302
0000
0000
0013
0000
0001
1000
0000
0001
1000
0000
0100
0000
,
0010
0001
0100
0001
0010
0001
0100
1000
,
0000
0001
0010
1000
0000
0100
0010
0100
,
1000
0000
0010
0000
0100
0000
0010
0000
1000
0001
1000
0000
0100
0000
0010
0000
,
0000
0001
0010
0100
0000
1000
0001
1000
,
1010
0100
0001
0010
0000
0100
1000
0001
,
1000
0010
0001
0100
0000
0001
0010
1000
,
0001
1000
0100
0010
0000
0001
0100
0001
,
0000
1000
0100
0001
0000
0010
0001
0100
,
0110
0000
0000
0000
;

//---------------dance-single - ----------------
#NOTEDATA:;
#CHARTNAME:;
#STEPSTYPE:dance-single;
#DESCRIPTION:;
#CHARTSTYLE:;
#DIFFICULTY:Medium;
#METER:9;
#RADARVALUES:0.379984,0.430901,0.106395,0.063837,0.000000,250.000000,240.000000,10.000000,6.000000,0.000000,0.000000,0.000000,0.000000,0.000000,0.379984,0.430901,0.106395,0.063837,0.000000,250.000000,240.000000,10.000000,6.000000,0.000000,0.000000,0.000000,0.000000,0.000000;
#CREDIT:;
#DISPLAYBPM:141.000000;
#NOTES:
0000
0000
0000
0000
,
0000
0000
0000
0000
,
0000
0000
0000
0000
,
0000
0000
0000
0000
,
0000
0000
0000
0000
,
0000
0000
0000
0000
,
0000
0000
0000
0000
,
0000
0000
0000
0000
,
0000
0000
0000
0000
,
2000
0000
0000
3002
0000
1003
0100
0010
,
0001
0100
0001
0000
0011
0000
0000
0000
,
0200
0000
0000
0320
0000
1030
0001
1000
,
0100
0000
0100
0000
1100
0000
0000
1000
,
0002
0000
0000
0023
0000
0130
0000
0000
,
1001
0110
1001
0000
,
1000
0010
1000
0010
0100
0001
1000
0000
,
1010
0101
1010
0000
,
0001
0000
0001
0000
0001
0000
0001
1000
,
0001
0000
0010
0000
0001
0000
0100
0010
,
1000
0000
0001
0000
1000
0100
0010
0100
,
1000
0000
0010
0000
1000
0000
0001
0100
,
0001
0000
0010
0000
0001
0100
0010
1000
,
0100
0000
0010
0000
0100
0000
1000
0001
,
0100
0000
0010
0000
1000
0001
1000
0100
,
0010
0000
0001
0000
1000
0000
0001
0100
,
0010
0000
0100
0000
0001
0010
0100
1000
,
0001
0100
0001
0000
0010
0100
1000
0000
,
0010
1000
0100
0000
0010
0001
0100
0000
,
0001
0010
1000
0000
0100
0010
0001
0000
,
0100
0001
0010
0000
0001
1000
0100
0000
,
1000
0010
0001
0000
1000
0001
0100
0000
,
0010
0100
0010
0000
1000
0001
0100
0000
,
0001
0010
0100
0000
0010
0100
1000
0000
,
0010
1000
0001
0000
1000
0100
0010
0000
,
0001
0010
0001
0100
0001
0010
1000
0000
,
0100
0010
0001
0000
0100
0001
1000
0000
,
0010
1000
0010
1000
0100
0010
0001
0000
,
0100
0010
0100
0000
0001
1000
0001
0000
,
0010
0001
0100
0001
0010
0100
1000
0000
,
0100
0010
0100
0000
1000
0001
1000
0000
,
0001
0100
0010
0000
0001
1000
0100
0000
,
0010
0000
0001
0000
1000
0010
1000
0001
,
0100
0000
0010
0000
1000
0000
0001
1000
,
0100
0000
0010
0000
0001
0000
0100
0010
,
0100
0000
0001
0000
0010
0000
1000
0100
,
1000
0000
0001
0000
1000
0000
0010
0100
,
0000
0001
0000
0010
0000
0001
0000
1000
,
0000
0100
0000
0010
0000
0001
0000
0100
,
1000
0010
1000
0000
0001
0010
0001
0000
,
0100
0000
0010
0000
1000
0100
0001
0000
,
0011
0000
0000
1000
0000
0001
0000
0100
,
0000
0001
0010
1000
0000
0100
0000
0100
,
0000
1000
0000
0001
0000
1000
0000
0001
,
0000
0100
0010
1000
0000
0001
0000
0100
,
0110
0000
0000
0000
;

//---------------dance-single - ----------------
#NOTEDATA:;
#CHARTNAME:;
#STEPSTYPE:dance-single;
#DESCRIPTION:;
#CHARTSTYLE:;
#DIFFICULTY:Easy;
#METER:6;
#RADARVALUES:0.205191,0.258541,0.021279,0.021279,0.000000,135.000000,133.000000,2.000000,2.000000,0.000000,0.000000,0.000000,0.000000,0.000000,0.205191,0.258541,0.021279,0.021279,0.000000,135.000000,133.000000,2.000000,2.000000,0.000000,0.000000,0.000000,0.000000,0.000000;
#CREDIT:;
#DISPLAYBPM:141.000000;
#NOTES:
0000
0000
0000
0000
,
0000
0000
0000
0000
,
0000
0000
0000
0000
,
0000
0000
0000
0000
,
0000
0000
0000
0000
,
0000
0000
0000
0000
,
0000
0000
0000
0000
,
0000
0000
0000
0000
,
0000
0000
0000
0000
,
0001
0000
1000
0000
,
0010
1000
0100
0000
,
0010
0000
0001
0000
,
0100
0010
1000
0000
,
0100
0000
0010
0000
,
0001
1000
0001
0000
,
0010
0010
0001
1000
,
0001
0100
0100
0000
,
0020
0000
0000
0030
,
1000
0000
0001
0000
,
0010
0000
0001
1000
,
0100
0000
0010
0000
,
0001
0000
0100
0010
,
1000
0000
0100
0000
,
1000
0000
0010
0001
,
0100
0000
0001
0000
,
0010
0000
0100
1000
,
0001
0001
0001
0001
,
1000
0000
0010
0100
,
0010
0010
0010
0010
,
0100
0000
0001
1000
,
0100
0100
0100
0100
,
0010
0000
0001
0100
,
1000
1000
1000
1000
,
0001
0000
1000
0010
,
1000
0010
1000
0001
,
0100
0010
0100
0001
,
0010
0100
1000
0001
,
1000
0010
0100
0001
,
0010
0001
0010
0100
,
1000
0001
0100
0010
,
0100
0001
0010
0100
,
1000
0010
1000
0001
,
1000
0000
0100
0010
,
0100
0000
0001
0010
,
1000
0000
0100
0010
,
0001
0000
1000
0001
,
0000
0100
0000
0010
,
0000
0100
0000
0010
,
2000
0000
0000
3000
,
0001
1000
0001
0100
,
1001
0000
0010
0000
,
1000
0000
0100
0000
,
0001
0000
0010
0000
,
0001
0000
1000
0000
,
0110
0000
0000
0000
;

//---------------dance-single - ----------------
#NOTEDATA:;
#CHARTNAME:;
#STEPSTYPE:dance-single;
#DESCRIPTION:;
#CHARTSTYLE:;
#DIFFICULTY:Beginner;
#METER:2;
#RADARVALUES:0.091196,0.143634,0.021279,0.085116,0.000000,60.000000,58.000000,2.000000,8.000000,0.000000,0.000000,0.000000,0.000000,0.000000,0.091196,0.143634,0.021279,0.085116,0.000000,60.000000,58.000000,2.000000,8.000000,0.000000,0.000000,0.000000,0.000000,0.000000;
#CREDIT:;
#DISPLAYBPM:141.000000;
#NOTES:
0000
0000
0000
0000
,
0000
0000
0000
0000
,
0000
0000
0000
0000
,
0000
0000
0000
0000
,
0000
0000
0000
0000
,
0000
0000
0000
0000
,
0000
0000
0000
0000
,
0000
0000
0000
0000
,
0000
0000
0000
0000
,
0020
0000
0000
0000
,
0000
0000
0030
0000
,
0200
0000
0000
0000
,
0000
0000
0300
0000
,
0002
0000
0000
0000
,
0000
0000
0003
0000
,
1000
0000
0001
0000
,
1000
0000
0100
0000
,
2000
0000
3000
0000
,
0010
0000
0000
0000
,
0100
0000
0001
0000
,
0100
0000
0000
0000
,
0001
0000
0010
0000
,
0100
0000
0000
0000
,
1000
0000
0010
0000
,
1000
0000
0000
0000
,
0001
0000
1000
0000
,
0010
0000
0010
0000
,
0010
0000
0000
0000
,
1000
0000
1000
0000
,
1000
0000
0000
0000
,
0100
0000
0100
0000
,
0100
0000
0000
0000
,
0001
0000
0001
0000
,
0001
0000
0000
0000
,
0010
0000
0001
0000
,
0010
0000
0100
0000
,
1000
0000
0010
0000
,
1000
0000
0001
0000
,
0100
0000
0010
0000
,
1000
0000
0100
0000
,
0010
0000
0001
0000
,
0100
0000
0010
0000
,
2000
0000
3000
0000
,
0002
0000
0003
0000
,
0020
0000
0030
0000
,
0200
0000
0300
0000
,
0010
0000
0000
0000
,
0000
0000
0000
0000
,
0100
0000
0000
0000
,
0000
0000
0000
0000
,
1001
0000
0000
0000
,
0000
0000
0000
0000
,
0010
0000
0000
0000
,
0100
0000
0000
0000
,
0110
0000
0000
0000
;

//---------------dance-single - ----------------
#NOTEDATA:;
#CHARTNAME:;
#STEPSTYPE:dance-single;
#DESCRIPTION:;
#CHARTSTYLE:;
#DIFFICULTY:Challenge;
#METER:15;
#RADARVALUES:0.702210,0.947983,0.021279,0.063837,0.755408,462.000000,460.000000,2.000000,6.000000,0.000000,0.000000,0.000000,0.000000,0.000000,0.702210,0.947983,0.021279,0.063837,0.755408,462.000000,460.000000,2.000000,6.000000,0.000000,0.000000,0.000000,0.000000,0.000000;
#CREDIT:;
#DISPLAYBPM:141.000000;
#NOTES:
// measure 0
0000
0000
0000
0000
,  // measure 1
0000
0000
0000
0000
,  // measure 2
0000
0000
0000
0000
,  // measure 3
0000
0000
0000
0000
,  // measure 4
0000
0000
0000
0000
,  // measure 5
0000
0000
0000
0000
,  // measure 6
0000
0000
0000
0000
,  // measure 7
0000
0000
0000
0000
,  // measure 8
0000
0000
0000
0000
,  // measure 9
0100
0001
0000
0100
0001
0000
0100
0000
0000
0000
0010
0000
1000
0000
0001
0000
,  // measure 10
1000
0010
1000
0100
0010
0001
0100
0000
,  // measure 11
0010
1000
0000
0010
1000
0000
0010
0000
0000
0000
0100
0000
0001
0000
1000
0000
,  // measure 12
0001
0010
1000
0001
1000
0100
0010
0000
,  // measure 13
0001
0100
0000
0001
0100
0000
0010
1000
0000
0010
1000
0000
0100
0000
0010
0000
,  // measure 14
0001
1000
0010
0100
0001
0010
0100
1000
,  // measure 15
0001
0100
0001
0100
0001
0100
0001
0100
0010
1000
0010
1000
0010
1000
0010
1000
,  // measure 16
0100
0010
0100
0010
0001
1000
0001
1000
0001
0010
0001
0010
0100
1000
0100
1000
,  // measure 17
0002
0000
0000
2003
0000
0000
3002
0000
0000
0203
0000
0000
0320
0000
2030
0000
,  // measure 18
3100
0010
0000
0010
0001
0000
0100
0010
0000
0010
1000
0000
0001
0000
0100
0000
,  // measure 19
0001
0010
0000
0001
1000
0000
0010
0100
0000
0010
0000
1000
0001
0000
0010
0000
,  // measure 20
0100
0010
0000
0010
0001
0000
1000
0010
0000
0010
0100
0000
0001
0000
1000
0000
,  // measure 21
0010
1000
0000
1000
0100
0000
0010
0001
0000
0100
0000
0001
1000
0000
0010
0000
,  // measure 22
0100
0001
0000
0001
0010
0000
0001
1000
0000
1000
0100
0000
0010
0000
0001
0000
,  // measure 23
0100
0001
0000
0001
1000
0000
0001
0010
0000
0100
0000
1000
0010
0000
0100
0000
,  // measure 24
0001
0010
0000
0010
0100
0000
1000
0001
0000
0001
0010
0000
0100
0000
1000
0000
,  // measure 25
0010
1000
0000
1000
0001
0000
1000
0100
0000
0010
0000
0001
1000
0000
0010
0000
,  // measure 26
0100
0001
1000
0000
0010
0000
0100
0000
0001
0000
0010
0000
1000
0000
0001
0000
,  // measure 27
1000
0100
0010
0000
0001
0000
1000
0000
0001
0100
0010
0000
1000
0000
0001
0000
,  // measure 28
0010
0001
0100
0000
0001
0000
0010
0000
1000
0000
0100
0000
1000
0000
0001
0000
,  // measure 29
0010
0100
1000
0000
0010
0000
0100
0000
0001
1000
0100
0000
0010
0000
0001
0000
,  // measure 30
0100
0010
1000
0000
0001
0000
0010
0000
0100
0000
0010
0000
0001
0000
1000
0000
,  // measure 31
0001
0100
0010
0000
1000
0000
0100
0000
0010
0100
1000
0000
0001
0000
0010
0000
,  // measure 32
0001
0100
0010
0000
1000
0000
0001
0000
0010
0000
0100
0000
1000
0000
0010
0000
,  // measure 33
1000
0001
0010
0000
0100
0000
0010
0000
0001
1000
0100
0000
1000
0000
0010
0000
,  // measure 34
0100
0001
0010
0000
0001
1000
0010
0000
1000
0100
0010
0000
0001
1000
0001
0000
,  // measure 35
0100
0010
0100
0000
0001
0010
0100
0000
1000
0010
1000
0001
1000
0100
0010
0000
,  // measure 36
0100
0010
0100
0000
1000
0010
0100
0000
0001
0010
0100
0000
1000
0001
0010
0000
,  // measure 37
0001
0100
0010
0000
1000
0001
1000
0000
0100
0010
0100
1000
0001
1000
0010
0000
,  // measure 38
0100
0001
0010
0000
0001
1000
0100
0000
1000
0010
0100
0000
0001
1000
0100
0000
,  // measure 39
0010
0100
1000
0000
0001
0010
0001
0000
0100
0010
1000
0001
1000
0100
0010
0000
,  // measure 40
0100
1000
0010
0000
0100
0001
0010
0000
0001
1000
0010
0000
1000
0001
0100
0000
,  // measure 41
0001
0010
0001
0000
1000
0100
0010
0000
0001
0100
0001
0010
0001
1000
0100
0000
,  // measure 42
0010
0001
0000
0001
0100
0000
0010
1000
0000
1000
0100
0000
1000
0000
0001
0000
,  // measure 43
1000
0010
0000
0010
0100
0000
0001
0010
0000
0001
1000
0000
0010
0000
0100
0000
,  // measure 44
0001
1000
0000
1000
0100
0000
0010
0001
0000
0001
1000
0000
0010
0000
0100
0000
,  // measure 45
0010
1000
0000
1000
0001
0000
0010
0100
0000
0100
1000
0000
0001
0000
0100
0000
,  // measure 46
0010
0000
0100
0001
0010
0000
0100
0000
1000
0000
0001
0100
0010
0000
1000
0000
,  // measure 47
0001
0000
1000
0010
1000
0000
0100
0000
0010
0000
0001
0100
0001
0000
1000
0000
,  // measure 48
0010
0100
0001
0000
1000
0000
0100
0000
1000
0010
0100
0010
0100
0001
1000
0100
,  // measure 49
0010
0001
0010
0100
0000
1000
0001
1000
0000
0001
0100
0010
0000
1000
0100
0000
,  // measure 50
1001
0010
0100
0001
0100
0010
1000
0100
,  // measure 51
0001
1000
0001
0010
0001
0100
0010
1000
,  // measure 52
0100
0010
0001
1000
0010
1000
0100
0001
,  // measure 53
0010
0100
1000
0010
1000
0100
0001
1000
,  // measure 54
0110
0000
0000
0000
;
