#TITLE:HEAT-BIT-HIT-BEAT;
#SUBTITLE:;
#ARTIST:V.C.O.;
#TITLETRANSLIT:;
#SUBTITLETRANSLIT:;
#ARTISTTRANSLIT:;
#GENRE:;
#CREDIT:;
#MUSIC:HEAT-BIT-HIT-BEAT.ogg;
#BANNER:HEAT-BIT-HIT-BEAT-bn.png;
#BACKGROUND:HEAT-BIT-HIT-BEAT-bg.png;
#CDTITLE:;
#SAMPLESTART:38.397;
#SAMPLELENGTH:20.000;
#SELECTABLE:YES;
#OFFSET:-0.116;
#BPMS:0.000=180.000;
#STOPS:;
#DISPLAYBPM:180.000;
#JACKET:HEAT-BIT-HIT-BEAT-jacket.png;
#BGCHANGES:;
#FGCHANGES:;

//--------------- dance-single - ----------------
#NOTES:
     dance-single:
     :
     Beginner:
     5:
     0,0,0,0,0:
0000
0000
0000
0000
,
0000
0000
0000
0000
,
0000
0000
0000
0000
,
0000
0000
0000
0000
,
0000
0000
0000
0000
,
0000
0000
0000
0000
,
0000
0000
0000
0000
,
0000
0000
0000
1001
,
0000
0110
0000
0001
,
0001
0000
0110
0000
,
1001
0000
1000
1000
,
0000
1001
0000
0110
,
0000
0100
0100
0000
,
0001
0001
0000
0000
,
1000
1000
0000
0010
,
0000
1000
0000
0010
,
0000
0100
0001
0000
,
0010
0000
0001
0001
,
0000
1001
0000
0110
,
0000
1000
0001
0000
,
1001
0000
0110
0000
,
0100
0010
0000
1000
,
0000
0001
0000
0010
,
0000
0001
0100
0000
,
0010
0000
1000
1000
,
0000
1001
0000
0110
,
0000
1000
0001
0000
,
1001
0000
0110
0000
,
0010
0100
0000
1001
,
0000
0000
0000
0000
,
0000
0000
0110
0000
,
0000
0000
0000
0000
,
0000
1001
0000
0000
,
0000
0000
0000
0000
,
0110
0000
0000
0000
,
0000
0000
0000
1001
,
0000
1000
0000
0010
,
0010
0000
0110
0000
,
0001
0000
1000
1000
,
0000
1001
0000
0100
,
0000
0001
0001
0000
,
0110
0000
1000
0000
,
0010
0010
0000
1000
,
1000
1000
0000
0001
,
0001
0001
0100
0000
,
0010
0000
1000
0100
,
1000
0001
0001
0001
,
0000
1000
1000
1000
,
0010
0000
0100
0000
,
0010
1000
0001
0010
,
0010
0010
0000
0100
,
0100
0100
1000
0000
,
0010
0000
1000
0001
,
1000
0100
0100
0100
,
0000
0010
0010
0010
,
0001
0000
1000
0000
,
0001
0100
0000
1001
,
0000
0010
0000
1000
,
0000
0001
0010
0000
,
0001
0000
0100
0000
,
0010
1000
0000
0100
,
0000
1000
0000
0001
,
0010
0000
0001
0000
,
0100
0000
1000
0001
,
0001
0001
0000
1000
,
0001
0000
0100
0100
,
0100
0000
0010
1000
,
0000
0110
0000
0001
,
0000
0010
0000
0001
,
0100
0000
0010
0000
,
1000
0000
0100
1000
,
0000
0010
0000
1000
,
0000
0001
1000
0000
,
0100
0000
0010
0000
,
0001
0100
0100
0100
,
0000
0010
1000
0000
,
0001
0001
0001
0000
,
1000
0100
0000
1001
,
0000
0010
0000
0110
,
0000
0001
1000
0000
,
1000
0000
0001
0000
,
0100
0010
0000
1000
,
0000
0100
0000
0001
,
0010
0000
0001
0000
,
0100
0000
0010
1000
,
0000
0001
0000
0110
,
0000
1001
0000
0000
;

//--------------- dance-single - ----------------
#NOTES:
     dance-single:
     :
     Easy:
     8:
     0,0,0,0,0:
0000
0000
0000
0000
,
0000
0000
0000
0000
,
0000
0000
0000
0000
,
0000
0000
0000
0000
,
0000
0000
0000
0000
,
0000
0000
0000
0000
,
0000
0000
0000
0000
,
0000
0000
0000
1100
,
1100
0010
0010
1000
,
0100
0001
0101
0101
,
0010
0010
1000
0100
,
0001
1001
1001
0010
,
0010
1000
0100
0001
,
0110
0000
0110
0000
0000
0001
0000
1000
,
0001
0000
0001
0000
0000
0100
0010
0000
,
1000
0100
1000
0001
,
0010
0001
0100
0010
,
0100
0001
0010
1000
,
0100
1100
1100
0101
,
0101
0000
0010
1000
0010
1000
0000
0000
,
1100
1100
0101
0101
,
0010
0001
0010
0001
0000
0000
1000
0000
,
0010
1000
0100
1000
,
0010
0001
0010
0001
,
1000
0010
1000
0100
,
0001
0011
0011
1010
,
1010
0000
0001
0100
0001
0100
0000
0000
,
1010
1010
0011
0011
,
1000
0100
1000
0100
0000
0000
1001
0000
,
0010
1000
0100
0001
,
0010
0100
0110
0010
,
0001
0100
1000
0010
,
1000
1001
0010
1000
,
0001
0010
0001
0100
,
0110
1000
0100
0001
,
1000
0010
0001
0011
,
0100
1000
0010
1000
,
0100
0001
1010
0001
,
0100
0010
1000
0001
,
0100
0101
0010
0001
,
0100
0010
1000
0100
,
1100
0010
1000
0100
,
1000
0010
0100
0101
,
0101
1100
1100
0001
,
0100
0000
1000
0000
0010
0100
0010
0000
,
0100
0010
0100
0000
0001
0000
0010
0000
,
1000
1010
1010
0101
,
0101
0010
0001
0100
,
1000
0010
1000
0000
0001
0100
0001
0000
,
0010
0001
1000
1001
,
1001
0110
0110
1000
,
0100
0000
0001
0000
0010
0001
0100
0000
,
0010
1000
0100
0000
1000
0000
1000
0000
,
1000
1100
1100
0011
,
0011
0100
0001
1000
,
0001
0010
0100
0000
1000
0001
0100
0000
,
0010
1000
0100
1001
,
0010
0001
0100
1000
,
0010
1000
0110
0110
,
1001
1001
0110
1000
,
0100
1010
0001
0100
,
0010
1000
0100
0001
,
0011
0011
1010
1010
,
0011
0100
1000
1001
,
1001
1001
0010
1000
,
0100
0001
0011
0011
,
0011
0100
0010
1000
,
0001
1001
0010
1000
,
0100
0001
0010
1000
,
1100
0011
1100
0011
,
1100
0010
0100
0110
,
0001
0010
0001
1000
,
0010
0100
0101
1100
,
0101
1100
0101
1000
,
0100
1010
0101
0011
,
0100
0010
1000
0001
,
1100
0110
0011
1000
,
0010
1000
0001
0101
,
0010
0001
0100
1000
,
0010
1000
1100
0110
,
0011
0110
1100
0010
,
1000
1001
0100
0010
,
1000
0100
0001
0010
,
0001
0000
0001
0100
0010
0000
1000
0100
,
0010
0000
0001
1000
0001
0000
1100
0000
,
1100
0101
0101
1001
,
0110
1001
0000
0000
;

//--------------- dance-single - ----------------
#NOTES:
     dance-single:
     :
     Medium:
     13:
     0,0,0,0,0:
0000
0000
0000
0000
,
0000
0000
0000
0000
,
0000
0000
0000
0000
,
0000
0000
0000
0000
,
0000
0000
0000
0000
,
0000
0000
0000
0000
,
0000
0000
0000
0000
,
0000
0000
0000
0101
,
1100
0000
0001
1000
0000
0010
0000
1000
,
0001
0100
1010
0011
,
0100
0010
0000
1000
0000
0010
0100
0000
,
0001
0000
1001
0000
0110
0000
0010
1000
,
0000
0100
0000
1000
0001
0000
0010
0000
,
0011
0000
1100
0000
0000
0010
0000
0010
,
1000
0100
1000
0001
0000
0100
0010
0000
,
1000
0100
0001
0000
1000
0100
0001
0000
,
0010
0001
0100
0010
1000
0100
0001
0100
,
1000
0000
0010
1000
0001
0000
1000
0100
,
0001
0100
1000
1000
1000
0000
0001
0001
,
0001
0000
1000
0010
0100
0001
0000
1000
,
0010
0010
0010
0000
0100
0100
0100
0000
,
0001
0010
0100
1000
0000
0010
0100
0000
,
0001
0010
1000
0000
0001
0010
1000
0000
,
0100
1000
0010
0100
0001
0010
1000
0010
,
0001
0000
0100
0010
1000
0000
0001
1000
,
0010
0100
0001
0001
0001
0000
1000
1000
,
1000
0000
0010
1000
0001
0100
0000
0001
,
0100
0100
0100
0000
0010
0010
0010
0000
,
0100
0001
1000
0010
0000
0100
1001
0000
,
0010
0000
1000
0000
0001
0000
1000
0010
,
0001
0010
1000
0010
0110
0000
0001
0010
,
1000
0000
0100
0000
1000
0010
0001
0010
,
1000
0010
0110
0000
0001
0000
0010
0001
,
0100
0000
0001
0010
1000
0010
0001
0010
,
1001
0010
1000
0100
,
1000
0010
0100
0010
1000
0001
0101
0000
,
0010
1000
0001
1000
0100
0000
1000
0010
,
0100
0010
0100
0001
0011
0000
1000
0010
,
1000
0100
0010
0000
0001
0100
0001
0010
,
0001
1000
1100
0000
0010
1000
0001
1000
,
0100
0000
0010
0001
0010
0100
0010
1000
,
0110
0000
0001
0100
0001
0010
0001
0100
,
0010
1000
0010
0100
0001
1000
1100
0000
,
0101
0000
0010
0010
0010
0000
1000
0100
,
1000
0100
1000
0100
0010
0010
0010
0000
,
0001
0001
0001
0000
1000
0010
0001
0010
,
1000
0010
0110
0000
1001
0000
0100
0100
,
0100
0000
1000
0001
1000
0010
0100
0001
,
0010
0010
0010
0000
0100
0100
0100
0000
,
0010
0001
0010
0100
1000
0001
0011
0000
,
1100
0000
0001
0100
1000
0000
0010
0100
,
0010
0100
0001
1000
0100
1000
1100
0000
,
0010
0001
0011
0000
1000
0010
1000
0010
,
1000
0001
0011
0000
0101
0000
0010
0010
,
0010
0000
1000
0100
1000
0100
1000
0100
,
1000
0100
0011
0000
0001
0100
1010
0000
,
0001
0100
0010
1000
0100
0010
1001
0000
,
0010
1000
0100
0000
0100
0000
0100
0000
,
0100
1000
0001
0000
0010
0000
0010
0001
,
1000
0000
1000
0001
0100
0000
0010
1000
,
0001
0100
1001
0000
0001
0100
1000
0000
,
1000
0000
1000
0000
0100
1000
0001
0000
,
1000
0000
1000
0010
0100
0000
0100
0001
,
0010
0000
0001
0100
0010
1000
0100
0000
,
0100
0000
1000
0001
0000
0010
0000
0010
,
0000
0001
0100
0000
0010
0000
0010
0000
,
0100
0001
0000
1000
0000
1000
0000
0001
,
0100
0000
1010
0000
0001
0100
1000
0100
,
0001
0000
0011
0000
1000
0100
0010
0000
,
1001
0000
0100
0010
1001
0000
0001
0100
,
0010
1000
0010
0100
0010
0001
0110
0000
,
0010
1000
0100
1000
0010
0000
0101
0000
,
0001
0010
1000
0000
1001
0000
0010
0100
,
1001
0000
0001
0010
0001
0100
0010
1000
,
0100
0010
0001
0000
0001
0000
1000
0010
,
0000
0100
0000
0100
0000
0010
1000
0000
,
0100
0000
0100
0000
0010
0001
0000
1000
,
0000
0001
0000
1000
0010
0000
0101
0000
,
0010
0001
0010
0100
1000
0000
0010
1000
,
0100
0010
0001
0000
1100
0000
0001
0100
,
1000
0000
0010
1000
0100
0000
1000
0010
,
0100
0001
0011
0000
0001
1000
0010
1000
,
0001
0000
0100
0001
0010
0001
0100
0000
,
1010
0000
0001
0100
0010
0000
1000
0100
,
0001
0000
1000
0100
0010
0001
0101
0000
,
0010
1000
1100
0000
0001
0100
0110
0000
,
0010
1000
1001
0000
0000
0000
0000
0000
;

//--------------- dance-single - ----------------
#NOTES:
     dance-single:
     :
     Hard:
     15:
     0,0,0,0,0:
0000
0000
0000
0000
,
0000
0000
0000
0000
,
0000
0000
0000
0000
,
0000
0000
0000
0000
,
0000
0000
0000
0000
,
0000
0000
0000
0000
,
0000
0000
0000
0000
,
0000
0000
0000
0011
,
0011
0000
1000
0001
0000
0100
0000
0010
,
1010
1010
1100
1100
,
0010
1000
0000
0001
0000
0100
0101
0000
,
0101
0000
1001
0000
1001
0000
0010
1000
,
0000
0001
0000
0100
0110
0000
0110
0000
,
1001
0000
0110
0000
0000
0001
0000
1000
,
0001
0100
0010
1000
0100
0010
0001
0000
0000
0000
1000
0100
1000
0000
0010
0000
,
0100
0010
0100
0001
0010
0100
1000
0001
,
1000
0010
1000
0100
0010
0001
0100
0001
,
0010
0001
1000
0100
0001
0010
0001
1000
,
0010
0100
0001
0001
0101
0000
1000
1000
,
1100
0000
0010
0010
0010
0010
0000
0100
,
0010
0010
1010
0000
0100
0100
0101
0000
,
0010
0010
0010
0010
0000
1000
0001
0010
,
0001
0100
0010
0100
0010
1000
0100
0010
,
0001
0100
0001
0010
0001
0100
1000
0010
,
1000
0100
1000
0010
1000
0100
0010
0001
,
1000
0001
1000
1000
1010
0000
0001
0001
,
0011
0000
0100
0100
0100
0100
0000
0010
,
0100
0100
0101
0000
0010
0010
1010
0000
,
0100
0100
0100
0100
0000
0001
1001
0000
,
0010
1000
0010
0001
0010
1000
0010
0100
,
0010
0000
0001
0000
0010
0000
1000
0000
0001
0100
0001
0000
0010
0000
1000
0000
,
0010
0100
0010
1000
0010
0001
0010
0100
,
0010
0000
0001
0000
1000
0010
1000
0000
0100
0000
0001
0000
0100
0000
0010
0000
,
0100
1000
0100
0001
0100
1000
0100
0010
,
0100
1000
0100
0000
0010
0000
0001
0000
0100
0000
1000
0000
0100
0000
0001
0000
,
0100
0000
1000
0000
0100
0000
0010
0000
1000
0001
0100
0010
1000
0000
0000
0000
,
0100
0010
0001
0100
0010
0100
1000
0100
,
0001
0000
0010
0000
0001
1000
0100
0000
0110
0000
0000
0000
0010
0000
0001
0000
,
1000
0010
0001
0010
1000
0100
0010
1000
,
0010
0000
0001
0000
1000
0010
0100
0000
0001
0000
0010
0000
1000
0000
0010
0000
,
0100
0010
1000
0010
0001
0010
1000
0010
,
0100
0010
0001
0000
1000
0000
0010
0000
1000
0000
0001
0000
0010
0000
1000
0000
,
0010
0000
0100
0000
0010
0000
0001
0000
1000
0010
1000
0010
0100
0000
0000
0000
,
0110
0000
0001
0100
1010
0000
0001
0001
,
1000
1000
0001
0001
0100
0010
1001
0000
,
0100
0010
1001
0000
1000
1000
0010
0010
,
0100
0000
0100
0000
0001
0010
0100
0000
1100
0000
0000
0000
0010
0000
1000
0000
,
0101
0000
0010
0010
0010
1000
1000
1000
,
0001
0100
0011
0000
1000
0100
0011
0000
,
1000
0010
1000
0000
0100
0000
0100
0000
1000
0000
0001
0000
0010
0001
0100
0000
,
0010
1000
0100
0000
1000
0001
0100
0000
1001
0000
0000
0000
1000
0000
1000
0000
,
1000
1000
1000
1000
0100
1000
1100
0000
,
0011
0011
0011
0000
1000
1000
0001
0001
,
0010
0000
0100
0000
1000
0001
0010
0000
0110
0000
0000
0000
1001
0000
1001
0000
,
1001
0000
1010
0010
0110
0100
0101
0001
,
0011
0011
0011
0000
1100
1100
1100
0000
,
0001
0010
0100
0000
1000
0000
1000
0000
0001
0000
0001
0000
1001
0000
0000
0000
,
0010
0000
1000
0000
0100
0000
1000
0000
0001
0000
0000
0000
0010
0001
0100
0000
,
0001
0010
1000
0000
1100
0000
0010
0100
,
0101
0000
0000
0000
0010
0000
1000
0000
0100
0010
0001
0000
1000
0000
0001
0000
,
0110
0000
0000
0000
1000
0100
1000
0000
0001
0000
0010
0000
0001
0000
0100
0000
,
0010
0000
1000
0000
0100
0010
0100
0000
1000
0000
0001
0000
0010
0000
0001
0000
,
0110
0000
0001
1000
0110
0000
0010
0100
,
0001
0010
0100
0000
1000
0000
0010
0000
1000
0000
0001
0000
0100
0000
1000
0000
,
0100
0001
0100
0100
0010
1000
0010
0100
,
1000
0100
0001
0000
0010
1000
0010
0001
,
0010
0010
1000
0010
0100
0010
0001
0100
,
1000
0000
0000
0000
0010
1000
0010
0000
0100
0000
0001
0000
1000
0000
0001
0000
,
1000
0000
0100
0000
1000
0010
1000
0000
0010
0000
0100
0000
0010
0000
1000
0000
,
0001
0010
0001
0100
1000
0010
1000
0100
,
0010
0001
1000
0000
0010
0000
0100
0000
0010
0000
0100
0000
1001
0000
0000
0000
,
0010
0000
1000
0000
0100
0000
0001
0000
0100
0000
0010
0000
0100
1000
0001
0000
,
0100
1000
0100
0001
0010
0001
0100
0100
,
0010
0000
1000
0000
0100
0000
0100
0000
1000
0010
1000
0000
0100
0000
0010
0000
,
0001
0001
0100
1000
0100
0001
0100
0100
,
0010
0001
0010
1000
0010
0100
0001
0000
,
0010
1000
0010
0001
0010
0010
1000
0010
,
0100
0010
1000
0010
0001
0100
1010
0000
,
0001
0000
0100
0000
1000
0000
0100
0000
0001
0000
0100
0000
1000
0100
0010
0000
,
0100
0001
0010
1000
1100
0000
0010
0100
,
0101
0000
0000
0000
0010
0000
0001
0000
1000
0010
0100
0000
0001
0000
1000
0000
,
0010
0010
0101
0000
0010
0001
0101
0100
,
0110
0000
0010
0000
1000
0100
1000
0000
0001
0000
0001
0000
0001
0000
0100
0000
,
0011
0000
0100
1000
0101
0000
0010
1000
,
0100
0010
0001
0000
1000
0000
0001
0000
0100
0000
0010
0000
1010
0000
0000
0000
,
0001
0000
0010
0000
0101
0000
0000
0000
0010
0000
1000
0000
0100
1000
0001
0000
,
1001
0110
1001
0000
0000
0000
0000
0000
;

//--------------- dance-single - ----------------
#NOTES:
     dance-single:
     :
     Challenge:
     17:
     0,0,0,0,0:
0000
0000
0000
0000
,
0000
0000
0000
0000
,
0000
0000
0000
0000
,
0000
0000
0000
0000
,
0000
0000
0000
0000
,
0000
0000
0000
0000
,
0000
0000
0000
0000
,
0000
0000
0000
1010
,
1010
0000
1010
0001
0000
0100
0000
0010
,
0101
1100
0011
0011
,
0011
1000
0000
0010
0000
0100
0101
0000
,
1100
0000
0101
0000
0101
0000
0101
0010
,
0000
1000
0000
0001
0011
0000
1010
0000
,
1100
0000
1100
0000
0000
1001
0000
0010
,
1000
0100
1000
0100
0010
0001
1000
0000
0000
0000
0001
0100
0001
0000
0010
0000
,
1000
0001
0100
1000
0010
0100
0010
1000
,
0100
0010
0001
0100
0001
0010
1000
0100
,
1000
0010
0001
1000
0100
0001
0010
0100
,
1000
0001
0011
0011
0011
0000
1100
1100
,
1100
0000
1001
1001
0110
1001
0000
0010
,
1010
1010
1010
0000
0101
0101
0101
0000
,
1001
1001
0110
1001
0000
0010
1000
0100
,
0010
0001
0100
0001
0010
1000
0010
0100
,
0010
1000
0010
0001
0100
0010
0100
0001
,
0010
0001
0100
0010
1000
0100
1000
0001
,
0010
1000
1100
1100
1100
0000
0011
0011
,
0011
0000
1001
1001
0110
1001
0000
0100
,
0101
0101
0101
0000
1010
1010
1010
0000
,
1001
1001
0110
1001
0000
0100
1001
0000
,
0010
0010
1000
1000
0100
0100
0001
0001
,
0010
0000
0010
0000
1000
0000
1000
0000
0001
0100
0001
0000
0010
0000
0010
0000
,
0001
0001
0100
0100
1000
1000
0010
0010
,
0100
0000
0100
0000
0010
1000
0010
0000
0100
0000
0100
0000
1000
0000
1000
0000
,
0010
0010
0001
0001
1000
1000
0001
0001
,
1000
0100
1000
0000
0010
0000
0010
0000
0001
0000
0001
0000
1000
0000
1000
0000
,
0010
0000
0010
0000
0100
0000
0100
0000
0001
0010
0100
1000
0010
0100
0001
0000
,
1000
1000
0001
0001
0010
0010
1000
1000
,
0100
0000
0100
0000
0010
0000
0010
0000
0001
1000
0010
0000
0100
0000
0100
0000
,
0001
0001
0010
0010
1000
1000
0100
0100
,
0001
0000
0001
0000
1000
0010
0100
0000
0001
0000
0001
0000
0010
0000
0010
0000
,
1000
1000
0001
0001
1000
1000
0100
0100
,
1000
0001
0100
0000
1000
0000
1000
0000
0010
0000
0010
0000
0100
0000
0100
0000
,
0001
0000
0001
0000
0010
0000
0010
0000
0001
0100
0010
1000
0100
1000
0100
0000
,
0010
0001
0010
0000
0100
0001
0100
0000
0010
1000
0010
0000
1100
0000
1100
0000
,
0110
0000
0110
0000
0011
0000
0011
0000
1000
0001
0100
0000
0110
0000
0000
0000
,
1010
0000
1010
0000
0001
1000
0100
0000
1001
0000
1001
0000
0101
0000
0101
0000
,
0011
0000
0011
0000
0001
1000
0010
0000
1000
0100
0010
0000
0100
1000
0001
0000
,
0010
0001
0100
0000
1010
0000
1010
0000
0101
0000
0101
0000
1100
0000
1100
0000
,
0001
0010
0100
0000
1100
0000
0000
0000
1001
0000
0110
0000
1001
0000
0000
0000
,
1000
0010
1000
0000
1100
0000
1100
0000
0011
0000
0101
0000
1000
0010
1000
0000
,
0001
0010
0001
0000
1000
0100
1000
0000
0001
0010
0001
0000
0110
0000
0110
0000
,
1001
1001
0110
1001
0011
1100
0011
0000
,
1010
0000
0101
0000
1010
0000
0000
0000
0001
1000
0001
0000
0100
0000
0100
0000
,
0010
0000
0010
0000
1000
0100
0010
0000
1001
0000
0000
0000
1100
0000
0110
0000
,
0011
0000
0101
0101
0101
0101
0101
0101
,
1000
0010
1000
0000
0001
0100
0001
0000
1001
0000
1010
0000
1100
0000
0000
0000
,
0001
0010
0100
0000
1000
0000
1000
0000
0001
0000
0100
0000
1001
0000
0010
0000
,
1000
0000
0100
0000
1000
0000
0010
0000
1000
0000
0000
0000
0001
1000
0001
0000
,
0100
0010
1000
0000
0101
0000
0010
1000
,
1100
0000
0000
0000
0010
0000
0001
0000
0100
0010
0100
0000
0001
0000
0001
0000
,
0001
0000
1000
0000
0010
1000
0010
0000
0100
0000
0001
0000
0010
0000
0001
0000
,
0100
0000
0001
0000
1000
0001
1000
0000
0010
0000
0100
0000
0001
0000
1000
0000
,
0110
0000
1000
0001
0110
0000
0001
1000
,
0010
0100
0010
0000
1000
0000
1000
0000
0001
0000
0001
0000
0011
0000
0001
0000
,
0101
0100
0110
1010
1000
1100
0000
0101
,
0101
1100
0101
0000
1010
0010
0110
0100
,
0101
1001
0010
0110
0000
1010
1010
0101
,
1010
0000
0000
0000
0001
0010
0100
0000
1000
0000
1000
0000
0010
1000
0010
0000
,
0100
0001
1000
0000
0001
0010
0100
0000
1000
0000
0010
0000
1000
0000
0001
0000
,
0010
0001
0010
0000
0100
0000
1000
0000
0010
0100
0010
0000
1000
0000
0001
0000
,
0010
0001
0010
0000
0001
0000
0100
0000
0010
1000
0001
0100
0010
0000
1000
0000
,
0100
0000
0010
0000
0001
1000
0001
0000
1000
0001
1000
0000
0010
1000
0100
0000
,
0010
0000
0001
0000
0100
0001
0010
0000
0001
1000
0100
0000
1000
0000
0010
0000
,
1000
0100
0010
0000
0001
0000
1000
0000
0010
1000
0001
0000
0100
0000
0010
0000
,
1000
0100
0010
0001
1000
0000
0100
0000
1100
0000
0010
0000
0101
0000
1001
0000
,
0010
1010
0000
0011
0101
0011
0101
0000
,
0110
0001
1001
0010
1100
0011
0100
1010
,
0000
0000
1100
0000
1100
0000
0101
0000
1100
0000
1100
0000
0001
0010
0001
0000
,
0100
0000
0010
0000
1000
0000
0010
0000
0100
0000
0001
0000
1000
0100
0010
0000
,
0001
0000
0100
0000
0001
1000
0001
0000
0010
0000
0001
0100
0001
0000
1000
0000
,
0010
0000
0100
0001
1000
0000
0010
0000
1000
0100
1000
0000
0010
0000
0100
0000
,
0001
0000
1000
0000
0110
0000
0001
0000
0010
0001
0100
0000
0010
1000
0001
0000
,
0100
0010
1000
0000
0001
1000
0100
0000
0010
0000
0001
0000
1000
0000
0001
0000
,
0010
0000
0100
0000
1000
0000
0010
0000
1000
0001
0100
0000
0001
0000
0010
0000
,
0100
1000
0100
0000
0010
0001
0010
0000
0001
0100
0010
1000
0001
0000
0000
0000
,
0011
0000
0110
0000
1100
0000
0000
0000
1010
0000
0101
0000
0010
0001
1000
0001
,
0010
0110
1001
0000
0000
0000
0000
0000
;
