#VERSION:0.83;
#TITLE:HAVE YOU NEVER BEEN MELLOW (MM GROOVIN MIX);
#SUBTITLE:;
#ARTIST:THE OLIVIA PROJECT;
#TITLETRANSLIT:;
#SUBTITLETRANSLIT:;
#ARTISTTRANSLIT:;
#GENRE:;
#ORIGIN:;
#CREDIT:;
#BANNER:HAVE YOU NEVER BEEN MELLOW (MM GROOVIN MIX)-bn.png;
#BACKGROUND:HAVE YOU NEVER BEEN MELLOW (MM GROOVIN MIX)-bg.png;
#PREVIEWVID:;
#JACKET:HAVE YOU NEVER BEEN MELLOW (MM GROOVIN MIX)-jacket.png;
#CDIMAGE:;
#DISCIMAGE:;
#LYRICSPATH:;
#CDTITLE:;
#MUSIC:HAVE YOU NEVER BEEN MELLOW (MM GROOVIN MIX).ogg;
#OFFSET:0.000000;
#SAMPLESTART:55.042000;
#SAMPLELENGTH:20.000000;
#SELECTABLE:YES;
#DISPLAYBPM:170.000000;
#BPMS:0.000=169.990;
#STOPS:;
#DELAYS:;
#WARPS:;
#TIMESIGNATURES:0.000=4=4;
#TICKCOUNTS:0.000=4;
#COMBOS:0.000=1;
#SPEEDS:0.000=1.000=0.000=0;
#SCROLLS:0.000=1.000;
#FAKES:;
#LABELS:0.000=Song Start;
#BGCHANGES:;
#KEYSOUNDS:;
#ATTACKS:
;

//---------------dance-couple - ----------------
#NOTEDATA:;
#CHARTNAME:;
#STEPSTYPE:dance-couple;
#DESCRIPTION:;
#CHARTSTYLE:;
#DIFFICULTY:Challenge;
#METER:8;
#RADARVALUES:0.350255,0.549199,0.130762,0.000000,0.000000,225.000000,213.000000,12.000000,0.000000,0.000000,0.000000,0.000000,0.000000,0.000000,0.350255,0.549199,0.130762,0.000000,0.000000,225.000000,213.000000,12.000000,0.000000,0.000000,0.000000,0.000000,0.000000,0.000000;
#CREDIT:;
#DISPLAYBPM:170.000000;
#NOTES:
00000000
00000000
00000000
00000000
,
00000000
00000000
00000000
00000000
,
00000000
00000000
00000000
00000000
,
00000000
00000000
00000000
00000000
,
00000000
00000000
00000000
00000000
,
00000000
00000000
00000000
00000000
,
00000000
00000000
00000000
00000000
,
00000000
00000000
00000000
00000000
,
00000000
00000000
00000000
00000000
,
10000000
10000000
00000001
00000001
,
00100000
00100000
00000100
00000100
,
10000000
10000000
00000001
00000001
,
01000000
00000010
01000000
00000010
,
00000000
10000000
00000000
10000000
,
00000000
00000001
00000000
00000001
,
00000000
10000000
00000000
10000000
,
00000000
00000001
00000000
00000001
,
00000000
01000000
00000000
00100000
,
00000000
00000100
00000000
00000010
,
00000000
00000000
01000100
00000000
00000000
00000000
01000100
01000100
,
00000000
01000100
00000000
01000100
,
10011001
00000000
00100000
01000000
,
10011001
00000000
00000100
00000010
,
11001100
00000000
00010000
00100000
,
01010101
00000000
00000010
00001000
,
11001100
00000000
00100000
00010000
,
01010101
00000000
00001000
00000010
,
10000100
01000001
00101000
00010100
,
01000010
00100001
10000100
00010010
,
10001000
00000000
10001000
00000000
00010001
01000100
01000100
00000000
,
00100010
00000000
00100010
00000000
10001000
00010001
00010001
00000000
,
00100010
01000100
10001000
00000000
00100010
01000100
00010001
00000000
,
10001000
00100010
01000100
00000000
00010001
00100010
01000100
00000000
,
10001000
00000000
00010001
00000000
10001000
00010001
10001000
00000000
,
01000100
00000000
00100010
00000000
00010001
01000100
00100010
00000000
,
10001000
01000100
00100010
00000000
00010001
01000100
00100010
00000000
,
10001000
00010001
01000100
00000000
00100010
10001000
00010001
00000000
,
00100010
01000100
10001000
00100010
01000100
00010001
10001000
00000000
,
01000100
00100010
00010001
01000100
00100010
10001000
01000100
00000000
,
00000000
00000000
10010001
00000000
10000000
01000000
10000001
00000000
,
00010000
01000000
00010001
00000000
10000000
01000000
10000001
00000000
,
10010000
00000000
01010100
00000000
00100000
10000000
01000100
00000000
,
00100000
00010000
01000100
00000000
00100000
10000000
00010100
00000000
,
11000000
00000000
01010001
00000000
10000000
00100000
01000001
00000000
,
00010000
10000000
01000001
00000000
00100000
00010000
10000001
00000000
,
00100000
10000000
01000100
00100000
00010000
01000000
00100100
00000000
,
10000000
01000000
00100000
00010000
10000000
01000000
00100000
00000000
,
00000000
00000000
10001001
00000000
00001000
00000100
10001000
00000000
,
00000001
00000100
10000001
00000000
00001000
00000100
10001000
00000000
,
00001001
00000000
01000101
00000000
00000010
00001000
01000100
00000000
,
00000010
00000001
01000100
00000000
00000010
00001000
01000001
00000000
,
00001100
00000000
10000101
00000000
00001000
00000010
10000100
00000000
,
00000001
00001000
10000100
00000000
00000010
00000001
10001000
00000000
,
00000010
00001000
01000100
00000010
00000001
00000100
01000010
00000000
,
00001000
00000100
00000010
00000001
00001000
00000100
00000010
00000000
,
01000100
00010001
01000100
00010001
10001000
01000100
01000100
00000000
,
00100010
00010001
00100010
00010001
10001000
00100010
00100010
00000000
,
01000100
00010001
01000100
10001000
01000100
00010001
00100010
01000100
,
10001000
00000000
00010001
00000000
10001000
00010001
00000000
01000100
,
00100010
10001000
00100010
10001000
01000100
00100010
00100010
00000000
,
00010001
01000100
00100010
10001000
01000100
00100010
00100010
00000000
,
00010001
10001000
01000100
00100010
00010001
01000100
00100010
10001000
,
01000100
01000100
01000100
01000100
00000000
00100010
00010001
00000000
,
10011001
00000000
00000000
00000000
;

//---------------dance-single - ----------------
#NOTEDATA:;
#CHARTNAME:;
#STEPSTYPE:dance-single;
#DESCRIPTION:;
#CHARTSTYLE:;
#DIFFICULTY:Challenge;
#METER:14;
#RADARVALUES:0.730086,0.755149,0.348698,0.000000,0.299662,469.000000,437.000000,32.000000,0.000000,0.000000,0.000000,0.000000,0.000000,0.000000,0.730086,0.755149,0.348698,0.000000,0.299662,469.000000,437.000000,32.000000,0.000000,0.000000,0.000000,0.000000,0.000000,0.000000;
#CREDIT:;
#DISPLAYBPM:170.000000;
#NOTES:
0000
0000
0000
0000
,
0000
0000
0000
0000
,
0000
0000
0000
0000
,
0000
0000
0000
0000
,
0000
0000
0000
0000
,
0010
0001
0010
0100
1000
0001
0100
0000
,
0001
0010
0100
0010
0001
0100
1000
0000
,
0001
1000
0010
1000
0100
0010
0001
0000
,
1000
1100
0000
0101
0000
1010
0000
0101
,
1000
0010
0000
0010
0100
0000
0001
0000
1000
0000
0000
0000
1000
0000
0000
0000
,
0001
0010
0000
0010
0100
0000
0100
1000
0000
1000
0001
0000
0100
0000
0000
0000
,
0001
0010
0001
0010
0001
0000
0100
0000
1000
0000
1000
0000
1000
0000
0000
0000
,
0010
0000
0010
0000
0010
0000
1000
0001
0000
1000
0000
0100
0010
0000
0001
0000
,
1001
0000
0010
0000
0100
0001
0100
0010
,
0100
1000
0100
0001
0010
0100
1000
0001
,
0000
0100
0010
0000
0100
0001
0010
0100
,
0001
0100
1000
0010
0100
1000
0100
0001
,
0000
0010
0001
0100
0010
0100
0001
1000
,
0000
0010
1000
0100
0001
0100
1000
0010
,
0000
1000
0100
0010
0001
0100
0010
1000
,
0000
0001
1000
0000
0110
0110
0110
0110
,
0000
0100
1001
0000
0010
1000
0100
0001
,
0100
0010
0100
0001
0100
1000
0001
0100
,
0000
0010
1000
0100
1000
0010
0100
0001
,
0010
1000
0010
0001
0100
0010
1000
0001
,
0000
0100
0001
0010
0001
0100
1000
0010
,
0000
1000
0100
0010
0100
0001
0100
1000
,
0000
0001
0100
0010
1000
0100
1000
0001
,
0000
0011
0000
1100
0000
0101
0000
1010
,
0001
0000
0100
0000
0010
0000
0100
0000
0001
1000
0000
1000
0001
0000
0100
0000
,
0010
1000
0100
0010
0001
0100
0001
1000
,
0000
0010
0100
0010
1000
0100
0010
0001
,
0100
1000
0100
0001
0100
0010
1000
0001
,
0010
0100
0010
0001
0100
0010
1000
0001
,
0100
1000
0100
0001
0010
0100
1000
0100
,
0000
1000
0010
0001
0000
0100
0010
1000
,
0000
0000
0001
0000
0010
0000
0100
0000
1000
0000
0010
0000
1000
0000
0001
0100
,
0001
0010
0001
0100
0010
1000
0100
0010
,
0001
0001
1000
1000
0010
0010
0100
0100
,
0010
1000
0110
0001
0100
0010
1000
0000
,
0100
0000
0010
0000
0001
1000
0000
0010
0000
1000
0001
0000
0100
0010
0000
0000
,
1000
0100
1000
0001
0010
0100
1000
0000
,
0001
0000
0010
0000
0001
0100
0000
0010
0000
1000
0100
0000
1000
0001
0000
0000
,
0101
0010
1000
0100
1000
0010
0100
0001
,
0010
1000
0010
0001
0100
0010
1000
0001
,
0100
1000
0100
0010
0100
1000
0100
0001
,
0010
0000
0100
0000
1000
0000
0001
0010
0001
0000
0100
0000
0010
0000
1000
0000
,
0100
0000
1000
0010
0001
0010
1000
0000
,
0001
0000
0010
0000
0100
0000
1000
0010
0000
0100
0001
0000
1000
0001
0000
0000
,
0100
0010
0100
0001
0010
0100
1000
0000
,
0001
0000
0100
0000
0010
1000
0000
0100
0000
1000
0001
0000
0100
0010
0000
0000
,
1000
0000
0001
1000
0010
0100
0001
0010
,
0100
1000
0010
1000
0100
0010
0001
0000
,
1000
0000
0001
0000
0010
0100
0000
0010
0000
0001
1000
0000
0001
0100
0000
0000
,
0001
0011
0000
1010
0000
0101
1100
0000
,
0010
0001
0000
0001
1000
0000
0010
0000
0100
0000
0000
0000
0110
0000
0000
0000
,
0100
0001
0000
0001
0010
0000
0010
0100
0000
0100
1000
0000
1001
0000
0000
0000
,
0001
0010
0000
0001
0010
0000
0001
1000
0001
0000
0100
0000
0110
0000
0000
0000
,
0101
0000
1100
0000
1001
1001
0000
0110
,
1000
0010
0000
0010
0100
0000
0001
1000
0001
0000
0000
0000
0011
0000
0000
0000
,
0010
0100
0000
0100
1000
0000
1000
0001
0000
0001
0100
0000
0110
0000
0000
0000
,
0010
1000
0010
1000
0010
0000
0100
0000
0001
0000
0001
0000
1001
0000
0000
0000
,
0010
0000
0010
0000
0010
0000
1000
0001
0000
0010
0000
0100
1000
0000
0001
0000
,
0110
0000
0000
0000
;

//---------------dance-single - ----------------
#NOTEDATA:;
#CHARTNAME:;
#STEPSTYPE:dance-single;
#DESCRIPTION:;
#CHARTSTYLE:;
#DIFFICULTY:Hard;
#METER:10;
#RADARVALUES:0.529274,0.617849,0.261523,0.174349,0.032690,340.000000,316.000000,24.000000,16.000000,0.000000,0.000000,0.000000,0.000000,0.000000,0.529274,0.617849,0.261523,0.174349,0.032690,340.000000,316.000000,24.000000,16.000000,0.000000,0.000000,0.000000,0.000000,0.000000;
#CREDIT:;
#DISPLAYBPM:170.000000;
#NOTES:
0000
0000
0000
0000
,
0000
0000
0000
0000
,
0000
0000
0000
0000
,
0000
0000
0000
0000
,
0000
0000
0000
0000
,
0010
0000
0001
1000
0001
0100
0010
1000
,
0000
0100
0000
1000
0000
0000
0000
0000
,
0002
0000
0000
2000
0000
0000
0000
0003
,
0000
0010
0000
0100
0000
0010
0000
3100
,
1000
0001
0010
0001
0100
0000
0100
0000
,
0001
0000
1000
0000
0001
0000
0100
0000
0000
0010
0000
0000
0100
0000
0000
0000
,
0001
1000
0001
0100
0010
1000
0001
0000
,
0010
0000
0001
0000
0010
0000
0100
0000
0000
1000
0000
0000
0001
0000
0100
0000
,
1001
0000
0000
0000
1000
0001
0010
0200
,
0000
0000
1300
0001
0000
0100
0000
0010
,
0000
0100
0001
0000
1000
0001
0100
0010
,
0000
2000
0000
0000
3001
0000
1000
0010
,
0000
0100
0010
1000
0000
0100
0010
0001
,
0000
1000
0001
0000
0010
0000
0001
0100
,
0000
0010
1000
0000
0100
0000
1000
0001
,
0000
0100
0010
0000
1000
0001
1000
0001
,
0100
0000
1001
0000
0010
1000
0100
0020
,
0000
0000
0031
1000
0000
0010
0000
0100
,
0000
0001
0100
0000
0001
1000
0100
0010
,
0000
0001
0000
2000
0000
0000
3001
0100
,
0000
0010
0000
1000
0000
0100
0010
0001
,
0000
1000
0001
0000
0100
0000
0010
0100
,
0000
0001
1000
0000
0100
0000
1000
0010
,
0000
0101
0000
1010
0000
1100
0000
1000
,
0001
0000
0000
0000
0010
0000
0000
0000
0001
0000
0000
0100
0000
0000
0010
0000
,
1000
0000
0100
0010
0000
0001
0000
2000
,
0001
0000
0100
0000
3001
1000
0010
0100
,
0002
0000
0010
0000
1000
0000
0103
0001
,
0010
0000
0000
0100
1000
0001
0000
0011
,
0000
1010
0000
0001
0000
1000
0000
0200
,
1000
0000
0001
0000
1300
0010
0100
0001
,
0010
0000
0100
0000
1000
0001
1000
0010
,
0200
0001
1000
0301
,
0100
0010
0100
0010
1000
0001
1000
0001
,
0010
0000
1001
0100
0010
1000
0001
0000
,
0011
0000
1100
0000
0001
0100
0010
1000
,
0100
0000
1000
0010
0001
0010
2000
0000
,
0000
3100
0010
0002
0000
1003
0001
0100
,
0110
0000
0000
0010
1000
0100
1000
0001
,
0000
0001
0000
0000
0010
0001
0000
0100
,
0000
0010
1000
0100
1000
0010
0100
0001
,
0000
0011
0000
1100
0000
0101
0000
1000
,
0001
0000
0100
0010
0100
0001
1000
0000
,
1100
0000
1000
0001
0010
0100
1000
0000
,
0010
0000
1000
0001
0010
0001
0200
0000
,
0000
0310
1000
0002
0000
0103
0010
0000
,
0100
0000
0001
0010
0001
0100
0010
1000
,
0000
0100
0000
1000
0000
0001
0200
0000
,
0310
1000
0001
0010
0001
0100
2000
0000
,
0000
0001
0000
0100
0000
3001
0000
1000
,
0001
0010
0001
0100
1000
0000
1000
0000
,
0010
0000
1000
0000
0100
0000
0010
0000
0000
0001
0000
0000
1000
0000
0000
0000
,
0001
0100
0001
1000
0100
0010
0001
0000
,
0101
0000
1100
0000
1001
1001
0000
0110
,
1000
0010
0100
0001
0010
0000
1001
0000
,
0001
0000
1000
0000
0010
0000
0100
0000
0000
0001
0000
0000
0110
0000
0000
0000
,
0010
1000
0010
1000
0001
0100
1001
0000
,
0001
0000
1000
0000
0100
0000
0010
0000
0000
0001
0000
0000
1000
0000
0010
0000
,
0110
0000
0000
0000
;

//---------------dance-single - ----------------
#NOTEDATA:;
#CHARTNAME:;
#STEPSTYPE:dance-single;
#DESCRIPTION:;
#CHARTSTYLE:;
#DIFFICULTY:Medium;
#METER:8;
#RADARVALUES:0.390728,0.514874,0.152555,0.250627,0.005448,251.000000,237.000000,14.000000,23.000000,0.000000,0.000000,0.000000,0.000000,0.000000,0.390728,0.514874,0.152555,0.250627,0.005448,251.000000,237.000000,14.000000,23.000000,0.000000,0.000000,0.000000,0.000000,0.000000;
#CREDIT:;
#DISPLAYBPM:170.000000;
#NOTES:
0000
0000
0000
0000
,
0000
0000
0000
0000
,
0000
0000
0000
0000
,
0000
0000
0000
0000
,
0000
0000
0000
0000
,
0010
0001
0100
0000
1000
0010
1000
0000
,
0100
0010
0001
0000
1000
0010
1000
0000
,
0002
0000
0000
0200
0000
0000
0000
0000
,
0000
0000
0000
0303
,
0010
1000
0100
0000
0001
0000
0001
0000
,
0010
0001
0100
0000
0010
1000
0100
0000
,
1000
0000
0010
0000
1000
0001
0100
0000
,
0001
0010
0100
0000
1000
0010
0100
0000
,
1001
0000
0000
0000
0010
1000
0001
1000
,
0000
0000
0100
0010
0000
0001
0000
1000
,
0000
0000
0000
0000
0001
0100
0001
1000
,
0000
1010
0000
0000
0010
0000
0100
0001
,
0000
0000
0000
2000
,
0000
3001
0000
0000
0000
0000
0200
0000
,
0000
0320
0000
1000
0000
0100
0000
1000
,
0000
0130
0000
0000
1000
0001
0010
0100
,
0000
0000
0110
0000
0001
1000
0001
0100
,
0000
0000
0010
1000
0000
0100
0000
0001
,
0000
0000
0000
0000
0010
0000
0001
1000
,
0000
0101
0000
1100
0000
0000
1000
0001
,
0000
0000
0000
0020
,
0000
0130
0000
0000
0000
0000
2000
0000
,
0000
3002
0000
0100
0000
0010
0000
0100
,
0000
1000
0000
1000
0000
0100
0000
1003
,
0001
0000
0000
0000
0000
0000
0000
0000
0010
0000
0000
0010
0000
0000
0010
0000
,
0001
0000
1000
0010
0000
0100
0000
0002
,
0000
0000
0000
0000
0000
0013
0001
2000
,
0000
0000
0000
3000
,
0001
0000
0000
1000
0001
1000
0000
0010
,
0000
0010
0000
1000
0000
0001
0000
0200
,
0000
0000
0000
0000
0000
0310
1000
0002
,
0000
0000
0000
0000
0000
1003
0001
1000
,
0020
0000
0000
0000
,
0130
0010
0100
0010
0100
0010
0100
0010
,
0000
0000
1001
0000
0100
0001
1000
0000
,
1100
0202
0000
0000
,
0003
0000
0301
0100
0010
1000
0200
0000
,
0000
1300
0001
0200
0000
0000
0000
0000
,
0310
0000
0000
1000
0100
0000
0100
0010
,
0000
0001
0000
0000
0100
0010
0000
2000
,
0000
0000
0000
0000
0000
3001
0010
0200
,
0000
0000
0000
1300
0001
0100
0000
0010
,
0100
0000
0001
1000
0001
0010
0100
0000
,
0110
0000
1000
0001
0000
0100
0010
0000
,
0000
0000
1000
0100
1000
0001
0020
0000
,
0000
0031
1000
0002
0000
0000
0000
0000
,
0003
0000
0100
0001
1000
0001
0010
0100
,
0000
1100
0000
0101
0000
0000
2000
0000
,
0000
0002
0000
0000
0000
0000
3000
0000
,
0000
0100
0000
0100
0000
1003
0000
0001
,
0010
0000
0001
0100
1000
0000
1000
0000
,
0010
0000
1000
0100
0000
0010
0001
0000
,
0100
0001
1000
0000
0001
0010
0100
0000
,
1001
0000
0110
0000
1000
0001
0000
0100
,
0010
0000
1000
0100
0001
0000
0011
0000
,
0100
0000
0001
1000
0000
0100
0010
0000
,
0001
0000
0100
0010
1000
0001
1000
0000
,
0010
1000
0010
0100
0001
0010
0100
1000
,
0001
0000
0000
0000
;

//---------------dance-single - ----------------
#NOTEDATA:;
#CHARTNAME:;
#STEPSTYPE:dance-single;
#DESCRIPTION:;
#CHARTSTYLE:;
#DIFFICULTY:Easy;
#METER:6;
#RADARVALUES:0.273977,0.446224,0.141658,0.239730,0.000000,176.000000,163.000000,13.000000,22.000000,0.000000,0.000000,0.000000,0.000000,0.000000,0.273977,0.446224,0.141658,0.239730,0.000000,176.000000,163.000000,13.000000,22.000000,0.000000,0.000000,0.000000,0.000000,0.000000;
#CREDIT:;
#DISPLAYBPM:170.000000;
#NOTES:
0000
0000
0000
0000
,
0000
0000
0000
0000
,
0000
0000
0000
0000
,
0000
0000
0000
0000
,
0000
0000
0000
0000
,
0010
0001
0100
0100
,
0010
1000
0100
0100
,
2000
0000
0000
0002
0000
0000
0000
0000
,
0000
0000
0000
3003
,
0010
1000
0100
0100
,
0010
0001
0100
0010
,
0100
0001
1000
1000
,
0001
0010
0001
0100
,
1001
0000
0010
1000
,
0100
1000
0001
0100
,
0010
0000
1000
0100
,
1000
0000
0001
0100
,
0001
0000
0000
0020
,
0000
0130
0000
0000
0000
0000
2000
0000
,
0000
3002
0000
0000
0000
0000
0000
0000
,
0003
0000
1000
0010
,
0000
0110
0100
0001
,
1000
0001
0010
0100
,
1000
0000
0001
1000
,
0010
0000
1000
0100
,
0001
0000
0000
0020
,
0000
0130
0000
0000
0000
0000
2000
0000
,
0000
3002
0000
0000
0000
0000
0000
0000
,
0000
0000
0000
0003
,
0100
0000
0001
0001
,
1000
0010
1000
0100
,
0020
0000
0000
0031
,
2000
0000
0000
3000
,
0010
0000
1000
0010
,
1000
0001
0010
0001
,
0200
0000
0000
0310
,
2000
0000
0000
3100
,
2000
0000
0000
3000
,
0001
1000
0001
0100
,
0000
1001
0010
1000
,
0100
0200
0000
0300
,
0000
1000
0010
0200
,
0000
0302
0000
0003
,
0110
0000
0010
1000
,
0010
0000
0100
0001
,
2000
0010
0010
0010
,
3002
0000
0103
0010
,
1000
0001
0010
0001
,
0100
0100
0010
0000
,
0000
1000
0001
0020
,
0000
0230
0000
0300
,
0000
1000
0010
1000
,
0100
0100
0010
0002
,
0000
2000
0000
0000
0000
0000
0000
0000
,
0000
0000
0000
3003
,
0001
0100
0010
0110
,
1000
0001
0100
1001
,
0010
1000
0100
0010
,
1001
0110
1001
0000
,
0100
0001
0010
0110
,
1000
0001
1000
1001
,
0010
1000
0100
0110
,
0001
0001
1000
1000
,
1001
0000
0000
0000
;

//---------------dance-single - ----------------
#NOTEDATA:;
#CHARTNAME:;
#STEPSTYPE:dance-single;
#DESCRIPTION:;
#CHARTSTYLE:;
#DIFFICULTY:Beginner;
#METER:3;
#RADARVALUES:0.150999,0.240275,0.043587,0.000000,0.000000,97.000000,93.000000,4.000000,0.000000,0.000000,0.000000,0.000000,0.000000,0.000000,0.150999,0.240275,0.043587,0.000000,0.000000,97.000000,93.000000,4.000000,0.000000,0.000000,0.000000,0.000000,0.000000,0.000000;
#CREDIT:;
#DISPLAYBPM:170.000000;
#NOTES:
// measure 0
0000
0000
0000
0000
,  // measure 1
0000
0000
0000
0000
,  // measure 2
0000
0000
0000
0000
,  // measure 3
0000
0000
0000
0000
,  // measure 4
0000
0000
0000
0000
,  // measure 5
0010
0000
0000
0000
,  // measure 6
1000
0000
0000
0000
,  // measure 7
0001
0000
0000
0000
,  // measure 8
0000
0000
0000
0000
,  // measure 9
0100
0000
0100
0000
,  // measure 10
0010
0000
0010
0000
,  // measure 11
1000
0000
1000
0000
,  // measure 12
0001
0000
0001
0000
,  // measure 13
1001
0000
0000
0000
,  // measure 14
0010
0000
1000
0000
,  // measure 15
0100
0000
1000
0000
,  // measure 16
0001
0000
0001
0000
,  // measure 17
0100
0000
0000
0000
,  // measure 18
0010
0000
0000
0000
,  // measure 19
1000
0000
0000
0000
,  // measure 20
0000
0000
0001
0001
,  // measure 21
0000
1001
0000
0000
,  // measure 22
0100
0000
0001
0000
,  // measure 23
0010
0000
0001
0000
,  // measure 24
1000
0000
1000
0000
,  // measure 25
0010
0000
0000
0000
,  // measure 26
0100
0000
0000
0000
,  // measure 27
0001
0000
0000
0000
,  // measure 28
0000
0000
0000
0000
,  // measure 29
1000
0000
0010
0000
,  // measure 30
1000
0000
0100
0000
,  // measure 31
0001
0000
0000
0000
,  // measure 32
0010
0000
0000
0000
,  // measure 33
0100
0000
1000
0000
,  // measure 34
0001
0000
1000
0000
,  // measure 35
0100
0000
0000
0000
,  // measure 36
0010
0000
0000
0000
,  // measure 37
0001
0000
0000
0000
,  // measure 38
1000
1000
1000
1000
,  // measure 39
0000
1001
0000
0000
,  // measure 40
0010
0010
0000
0000
,  // measure 41
0000
0100
0000
0001
,  // measure 42
0000
1000
0000
0000
,  // measure 43
0010
0000
0010
0000
,  // measure 44
0100
0000
0100
0000
,  // measure 45
0001
0000
0000
0000
,  // measure 46
1000
0000
0001
0000
,  // measure 47
0100
0000
0000
0000
,  // measure 48
0001
0001
0000
0000
,  // measure 49
0000
0010
0000
0100
,  // measure 50
0000
1000
0000
0000
,  // measure 51
0000
0001
0000
1000
,  // measure 52
0000
0010
0000
1000
,  // measure 53
0000
0001
0000
0000
,  // measure 54
0000
0000
0000
0000
,  // measure 55
0010
0000
0010
0000
,  // measure 56
0001
0000
0001
0000
,  // measure 57
1000
0000
1000
0000
,  // measure 58
0010
0010
0010
0000
,  // measure 59
0100
0000
0100
0000
,  // measure 60
0001
0000
0001
0000
,  // measure 61
1000
0000
1000
0000
,  // measure 62
0100
0100
0100
0000
,  // measure 63
1001
0000
0000
0000
;
