#TITLE:HAGOROMO;
#ARTIST:cheetah KAMATA;
#BANNER:HAGOROMO-bn.png;
#BACKGROUND:HAGOROMO-bg.png;
#JACKET:HAGOROMO-jacket.png;
#MUSIC:HAGOROMO.ogg;
#SAMPLESTART:10.75;
#SAMPLELENGTH:20;
#DISPLAYBPM:180;
#BPMS:0=180;
#BGCHANGES:;

//---------------dance-single - ----------------
#NOTES:
     dance-single:
     :
     Beginner:
     3:
     :
0000
0000
0000
0000
,
0000
0000
0000
0000
,
0000
0000
0000
0000
,
0000
0000
0000
0000
,
0001
0001
0000
0000
,
0010
0000
0100
0000
,
2000
0000
3000
0000
,
0002
0000
0003
0000
,
0000
0000
0010
0000
,
0001
0002
0000
0000
,
0003
0000
0100
0000
,
0010
0020
0000
0000
,
0030
0000
1000
0000
,
0100
0200
0000
0000
,
0300
0000
1000
0000
,
0002
0000
0003
0000
,
0010
0000
0010
0000
,
0010
0000
0000
0000
,
0100
0000
0100
0000
,
0100
0000
0000
0000
,
1000
0000
0001
0000
,
1000
0000
0000
0000
,
0001
0000
0100
0000
,
0010
0000
1000
0000
,
0100
0000
0100
0000
,
0100
0000
0000
0000
,
1000
0000
1000
0000
,
1000
0000
0010
0000
,
0100
0000
0100
0000
,
0100
0000
0000
0000
,
0001
0000
0001
0000
,
0001
0000
0000
0000
,
1001
0000
0000
0000
,
0010
0000
0000
0000
,
1000
0000
0000
0000
,
0100
0000
0000
0000
,
0110
0000
0000
0000
,
0001
0000
0000
0000
,
1000
0000
0000
0000
,
0010
0000
0000
0000
,
1000
0000
1000
0000
,
1000
0000
0000
0000
,
0001
0000
0001
0000
,
0001
0000
0000
0000
,
0100
0000
0100
0000
,
0100
0000
0000
0000
,
0010
0000
0010
0000
,
0010
0000
0000
0000
,
0100
0100
0000
0000
,
0001
0000
1000
0000
,
0010
0010
0000
0000
,
1000
0000
0100
0000
,
1001
0000
1001
0000
,
0010
0000
0100
0000
,
0110
0000
0110
0000
,
0001
0000
1000
0000
,
0000
0000
0010
0000
,
0000
0000
1000
0000
,
0000
0000
0001
0000
,
0000
0000
0000
0000
,
0000
0000
0010
0000
,
0000
0000
0001
0000
,
0000
0000
0100
0000
,
0000
0000
0000
0000
,
1001
0000
0000
0000
,
0000
0000
0000
0000
,
0010
0000
1000
0000
,
0001
0000
0000
0000
,
0010
0000
0001
0000
,
0100
0000
0010
0000
,
1000
0000
0100
0000
,
1000
0000
0000
0000
,
0001
0000
1000
0000
,
0001
0000
0000
0000
,
0010
0000
0001
0000
,
0010
0000
0100
0000
,
1000
0000
0010
0000
,
1000
0000
0001
0000
,
0100
0000
0010
0000
,
1000
0000
0001
0000
,
1000
0000
0100
0000
,
0010
0000
0001
0000
,
0000
0110
0000
0000
;

//---------------dance-single - ----------------
#NOTES:
     dance-single:
     :
     Easy:
     7:
     :
0000
0000
0000
0000
,
0000
0000
0000
0000
,
0000
0000
0000
0000
,
0000
0000
0000
0000
,
0001
1000
0000
0010
,
1000
0100
0001
0001
,
0100
0110
0010
0110
,
1000
0001
1001
0110
,
0000
1000
0010
0000
,
1000
0000
0001
0200
0000
0000
0000
0000
,
0300
0001
0010
0000
,
0100
0000
1000
0002
0000
0000
0000
0000
,
0003
0100
0010
0000
,
1000
0000
0001
0020
0000
0000
0000
0000
,
0030
0010
0100
0000
,
1000
0000
0001
2000
0000
0000
3000
0000
,
1001
0000
0110
0000
,
1000
0010
0001
0100
,
0101
0000
1100
0000
,
0010
1000
0100
0001
,
0010
0001
0100
0000
,
1000
0010
1000
0001
,
0100
0100
0010
0010
,
0100
0000
0001
0000
1000
0001
0000
1000
,
0002
0003
0020
0030
,
0001
0100
0010
1000
,
0200
0300
2000
3000
,
0001
0010
0001
1000
,
0002
0003
2000
3000
,
0010
0100
0010
1000
,
0200
0300
0020
0030
,
0001
0100
0001
1000
,
1001
0000
0110
0000
,
1000
0010
1000
0000
,
0001
0100
0100
0000
,
0010
0000
0000
1000
0001
0000
0100
0000
,
0101
0000
0001
0000
,
0010
0000
0001
0000
,
0100
0000
0010
0000
,
1000
0000
0100
0000
,
1000
0000
0001
0000
,
0010
0001
0100
0000
,
0010
0000
1000
0000
,
0100
0010
0001
0000
,
1000
0000
0010
0000
,
1000
0001
0100
0000
,
0001
0001
0010
0010
,
0001
0100
1000
0010
,
0100
0010
0000
1000
,
0001
0010
0001
0100
,
1000
0010
0000
1000
,
0100
0010
0001
0100
,
1001
0000
1001
0000
,
0010
0010
1010
0101
,
1001
0000
1001
0000
,
0001
1000
1100
0011
,
0100
0000
0110
0000
,
0001
0000
0011
0000
,
1000
0000
1100
0000
,
0000
1000
0000
0001
0000
1001
0000
0000
,
0010
0000
1010
0000
,
0100
0000
0101
0000
,
0001
0000
0011
0000
,
1001
0110
1001
0000
,
2000
3000
0020
0030
,
0200
0300
0002
0003
,
0020
0030
0002
0003
,
1000
0010
1000
0100
,
0020
0030
0200
0300
,
1000
0001
0010
0100
,
0020
0030
0002
0003
,
1000
0001
1000
0010
,
2000
3000
0200
0300
,
1000
0010
1000
0001
,
0010
0001
0010
0100
,
1000
0010
0100
0010
,
1000
0100
1000
0001
,
0010
0001
0100
0010
,
1000
0100
1000
0001
,
0010
0001
0100
0010
,
1000
0100
1000
0001
,
0010
0100
1000
0001
,
0000
0110
0000
0000
;

//---------------dance-single - ----------------
#NOTES:
     dance-single:
     :
     Medium:
     10:
     :
0000
0000
0000
0000
,
0000
0000
0000
0000
,
0000
0000
0000
0000
,
0000
0000
0000
0000
,
0001
0000
1000
0100
0000
0000
0010
0001
,
0100
0010
1000
0000
0001
0000
0001
0000
,
1000
0110
0001
0110
,
1001
0110
0101
1100
,
0000
0001
0010
0100
1000
0010
0000
1000
,
0100
1000
0010
0200
0000
0000
0000
0000
,
0300
0001
1000
0010
1000
0100
0000
0010
,
0001
0100
0010
2000
0000
0000
0000
0000
,
3000
0100
1000
0001
1000
0010
0000
0100
,
0010
0100
0001
2000
0000
0000
0000
0000
,
3000
0001
0010
0001
0100
0010
0000
1000
,
0100
0010
0001
0200
0000
0000
0000
0000
,
0320
1030
0002
0103
,
0011
0110
1100
1010
,
0200
0301
2000
3010
,
1001
1010
1100
0011
,
0100
0001
1000
0001
1000
0100
0000
0000
,
0010
0001
0100
0010
0000
1000
0000
0001
,
1000
0010
0101
1100
,
0011
0000
1100
0000
0010
1000
0000
0001
,
0100
0000
0000
0100
0000
0000
0000
0000
0010
0000
0000
0010
0000
0000
0000
0000
,
1000
0000
0000
0001
0000
0000
0000
0000
0000
0000
1000
0000
0100
0000
1000
0000
,
0001
0000
0000
0001
0000
0000
0000
0000
0100
0000
0000
0100
0000
0000
0000
0000
,
0010
0000
0000
0010
0000
0000
0000
0000
1000
0000
0000
1000
0000
0000
0000
0000
,
0100
0000
0000
0010
0000
0000
0000
0000
0001
0000
0000
1000
0000
0000
0000
0000
,
0001
0000
0000
0100
0000
0000
0000
0000
0000
0000
0010
0000
1000
0000
0010
0000
,
0100
0000
0000
0001
0000
0000
0000
0000
0010
0000
0000
0100
0000
0000
0000
0000
,
1000
0000
0000
0001
0000
0000
0000
0000
0100
0000
0010
0000
1000
0000
0000
0000
,
0001
0000
0100
0000
1000
0000
0010
0100
,
0000
0010
0000
0010
0000
0000
1001
0000
,
0010
0000
1000
0000
0100
0000
1000
0001
,
0000
0010
0000
0001
0100
0000
1010
0000
,
0002
0000
0003
0010
0200
0000
0300
1000
,
0020
0000
0030
1000
0000
0001
0000
0100
,
0002
0000
0003
0010
0200
0000
0300
1000
,
0010
0010
1000
0001
,
0100
0000
0000
0100
0000
0000
0000
0000
0001
0000
0000
0001
0000
0000
0000
0000
,
1000
0000
0000
1000
0000
0000
0000
0000
0010
0000
0000
0010
0000
0000
0000
0000
,
1000
0000
0000
1000
0000
0000
0000
0000
0100
0000
0000
0100
0000
0000
0000
0000
,
0010
0000
0000
0010
0000
0000
0000
0000
0001
0000
0000
0001
0000
0000
0000
0000
,
1000
0000
0000
0010
0000
0000
0000
0000
0100
0000
0000
0001
0000
0000
0000
0000
,
0010
0000
0000
0001
0000
0000
0000
0000
1000
0000
0000
0100
0000
0000
0000
0000
,
1000
0000
0000
0001
0000
0000
0000
0000
0100
0000
0000
0010
0000
0000
0000
0000
,
1000
0100
1000
0000
1001
0000
0110
0000
,
0001
0000
1000
0100
0000
1000
0000
0010
,
0000
0100
0001
0100
0001
0000
1000
0000
,
0010
0000
1000
0001
0000
0100
0000
0010
,
1000
0100
1000
0000
0001
0100
0001
0000
,
0010
0100
0000
0000
1000
0001
0000
0000
,
0100
0010
0100
0010
0100
0000
0100
0000
,
0100
0010
0000
0000
1000
0001
0000
0000
,
0010
0001
0100
0000
1010
0000
0101
0000
,
1000
0001
0000
0000
2200
0000
3300
0000
,
0010
0001
0000
0000
0202
0000
0303
0000
,
0010
0100
0000
0000
2002
0000
3003
1000
,
0000
0100
0000
1000
0000
1001
0000
0000
,
0010
1000
0000
0000
2020
0000
3030
0000
,
0001
0010
0000
0000
0022
0000
0033
0000
,
0100
0010
0000
0000
0220
0000
0330
0000
,
1001
0000
1100
0000
0010
0001
0100
0000
,
0202
0303
2200
3300
,
2020
3030
0022
0033
,
2000
3001
0020
0031
,
0200
0000
0310
0000
0000
1000
0100
1000
,
0001
0011
1000
1100
,
0010
0000
0000
0000
0000
0000
1000
0000
0100
0000
0000
1000
0000
0000
0001
0000
,
0010
0001
0100
0010
,
1000
0000
0100
0000
0000
0010
0001
1000
,
0002
0000
0003
0100
0020
0000
0030
0000
,
1000
0000
0000
0001
0000
0000
0000
0000
0010
0000
0000
0001
0000
0000
0100
0000
,
0001
0000
0000
1000
0000
0000
0000
0000
0010
0000
0000
1000
0000
0000
0000
0000
,
0100
0000
0000
0010
0000
0000
0001
0000
0000
0000
1000
0000
0010
0000
0000
0000
,
0100
0000
0000
0010
0000
0000
0000
0000
1000
0000
0000
0001
0000
0000
0000
0000
,
0010
0000
0000
0001
0000
0000
0000
0000
1000
0000
0000
0001
0000
0000
0100
0000
,
0010
0000
0000
0000
0000
0000
1000
0000
0100
0000
0000
0010
0000
0000
0000
0000
,
0001
0000
0000
1000
0000
0000
0010
0000
0000
0000
1000
0000
0001
0000
0000
0000
,
0010
0000
0000
0001
0000
0000
0000
0000
0100
0000
0000
1000
0000
0000
0000
0000
,
0010
0000
0000
1000
0000
0000
0010
0000
0100
0000
0000
0001
0000
0000
1000
0000
,
0000
0110
0000
0000
;

//---------------dance-single - ----------------
#NOTES:
     dance-single:
     :
     Hard:
     13:
     :
0000
0000
0000
0000
,
0000
0000
0000
0000
,
0000
0000
0000
0000
,
0000
0000
0000
0000
,
0001
0100
1000
0001
0000
0010
0100
0010
,
0001
0100
0010
1000
0100
0000
0100
0000
,
1000
0001
0110
0000
0001
1000
0110
0000
,
1001
0110
0101
1100
,
0010
1000
0100
0010
0001
1000
0000
0001
,
0100
0010
1000
0002
0000
0000
0000
1000
,
1003
0010
0100
0010
1000
0001
0000
0010
,
0001
1000
0100
0020
0000
0000
0000
0000
,
0031
0100
1000
0010
1000
0100
0000
0010
,
0001
1000
0001
0200
0000
0000
0000
0010
,
0310
0100
0010
1000
0001
0010
0000
0100
,
1000
0010
1000
0001
0100
0010
0100
0010
,
0110
0001
1010
0100
,
0001
0010
1000
0100
1000
0001
0100
0000
,
1001
0010
0101
1000
,
0001
0010
1000
0001
1000
0100
0010
0000
,
0011
0100
1000
0010
1000
0001
0000
0101
,
0000
0010
1000
0100
1000
0010
0100
0001
,
0001
0010
0100
0010
0100
1000
0001
0000
,
0100
0010
1000
0001
0010
0100
0000
1000
,
0001
0000
0000
0010
0000
0000
0001
0000
1000
0000
0000
0010
0000
0000
1000
0000
,
0100
0000
0000
0010
0000
0000
0001
0000
1000
0000
0010
0000
1000
0000
0001
0000
,
0100
0000
0000
0010
0000
0000
1000
0000
0100
0000
0000
1000
0000
0000
0001
0000
,
0010
0000
0000
0001
0000
0000
0100
0000
1000
0000
0000
0010
0000
0000
0001
0000
,
1000
0000
0000
0001
0000
0000
0010
0000
0001
0000
0000
0100
0000
0000
0001
0000
,
1000
0000
0000
0100
0000
0000
0010
0000
0001
0000
0100
0000
0010
0000
1000
0000
,
1100
0000
0000
0001
0000
0000
1000
0000
0101
0000
0000
0010
0000
0000
0100
0000
,
1001
0000
0000
0010
0000
0000
1000
0000
0001
0000
0000
0100
0000
0000
0010
0000
,
0210
0000
1000
0000
0301
0000
0100
0100
,
0000
0101
0000
1010
0000
1000
0001
0010
,
0001
0000
0100
0000
1000
0000
0010
0100
,
0000
0010
0000
1000
0001
0000
0011
0000
,
1100
0000
0000
1000
0000
0000
0010
0000
1000
0000
0000
0100
0000
0000
0010
0000
,
0001
0000
0000
0100
0000
0000
0010
0000
0000
0000
1000
0000
0000
0000
0001
0000
,
0010
0000
0000
0001
0000
0000
0100
0000
1000
0000
0000
0001
0000
0000
1000
0000
,
0001
0000
0000
0010
0000
0000
1000
0000
0100
0000
0000
0010
0000
0000
0100
0000
,
1000
0000
0000
0001
0000
0000
1000
0000
0010
0000
0000
1000
0000
0000
0100
0000
,
0001
0000
0000
0010
0000
0000
0001
0000
0100
0000
0000
0001
0000
0000
1000
0000
,
0001
0000
0000
0010
0000
0000
1000
0000
0100
0000
0000
0010
0000
0000
0100
0000
,
1000
0000
0000
0010
0000
0000
0001
0000
1000
0000
0000
0100
0000
0000
0001
0000
,
0010
0000
0000
0010
0000
0000
0001
0000
1000
0000
0000
0001
0000
0000
0100
0000
,
1000
0000
0000
0010
0000
0000
0100
0000
0010
0000
0000
1000
0000
0000
0001
0000
,
0011
0000
0000
0100
0000
0000
1000
0000
1010
0000
0000
0100
0000
0000
0001
0000
,
1000
0000
0000
0010
0000
0000
0010
0000
1000
0000
0001
0000
0010
0000
0100
0000
,
1000
0010
0001
0100
0000
0010
1000
0001
,
1000
0100
0010
0001
1000
0000
1000
0000
,
0001
1000
0001
0010
0000
0100
0010
0001
,
0100
0010
1000
0001
1000
0100
0010
0001
,
0011
0011
0000
0000
1100
1100
0000
0000
,
0001
0001
1000
0001
0001
0000
0100
0000
,
0010
1000
0110
0000
0001
0100
0110
0000
,
1000
1000
0001
1000
1000
0000
0010
0000
,
0100
0001
0100
0000
1020
0000
0230
0000
,
0301
1000
0000
0000
0201
0000
0320
0000
,
1030
0100
1000
0000
2001
0000
3020
0000
,
0130
0001
0100
0010
0000
1001
0100
0000
,
0001
0010
1000
0000
0201
0000
0320
0000
,
1030
0100
0000
0000
0021
0000
0230
0000
,
0310
0001
1000
0000
0120
0000
2030
0000
,
3001
0000
0000
0010
0000
0000
0001
0000
1000
0000
1000
0000
1000
0000
0001
0000
,
2002
3003
2020
3030
,
0202
0303
2200
3300
,
0001
0000
0000
0010
0000
0000
1000
0000
0100
0000
0000
1000
0000
0000
0001
0000
,
0010
0000
0000
0001
0000
0000
0100
0000
0000
0000
1000
0000
0010
0000
0001
0000
,
0100
0000
0000
0010
0000
0000
0100
0000
0001
0000
0000
0010
0000
0000
1000
0000
,
0100
0000
0000
1000
0000
0000
0010
0000
1000
0000
0000
0100
0000
0000
0001
0000
,
1000
0000
0000
0010
0000
0000
0100
0000
0001
0000
0000
0010
0000
0000
1000
0000
,
0001
0000
0000
1000
0000
0000
0100
0000
0010
0000
0001
0000
0010
0000
0100
0000
,
1000
0000
0000
0010
0000
0000
0001
0000
0010
0000
0000
0001
0000
0000
0100
0000
,
1000
0000
0000
0001
0000
0000
0010
0000
0100
0000
0000
1000
0000
0000
0001
0000
,
0100
0000
0000
0010
0000
0000
1000
0000
0001
0000
0100
0000
0001
0000
0010
0000
,
0100
0000
0000
1000
0000
0000
0001
0000
1000
0000
0001
0000
0100
0000
0010
0000
,
1000
0000
0000
0100
0000
0000
1000
0000
0001
0000
0000
0010
0000
0000
0100
0000
,
1000
0000
0010
0000
1000
0000
0001
0000
0010
0000
0000
0100
0000
0000
1000
0000
,
0001
0000
0000
1000
0000
0000
0100
0000
1000
0000
0010
0000
0100
0000
0001
0000
,
0010
0000
0000
0001
0000
0000
0100
0000
1000
0000
0010
0000
1000
0000
0001
0000
,
0100
0000
0000
0010
0000
0000
1000
0000
0001
0000
0000
1000
0000
0000
0100
0000
,
0010
0000
0000
0001
0000
0000
0100
0000
1000
0000
0000
0001
0000
0000
1000
0000
,
0000
0110
0000
0000
;
