#VERSION:0.83;
#TITLE:HADES;
#SUBTITLE:;
#ARTIST:Massive New Krew;
#TITLETRANSLIT:;
#SUBTITLETRANSLIT:;
#ARTISTTRANSLIT:;
#GENRE:;
#ORIGIN:;
#CREDIT:;
#BANNER:HADES-bn.png;
#BACKGROUND:HADES-bg.png;
#PREVIEWVID:;
#JACKET:HADES-jacket.png;
#CDIMAGE:;
#DISCIMAGE:;
#LYRICSPATH:;
#CDTITLE:;
#MUSIC:HADES.ogg;
#OFFSET:0.000000;
#SAMPLESTART:82.064003;
#SAMPLELENGTH:20.000000;
#SELECTABLE:YES;
#DISPLAYBPM:78.000000:155.000000;
#BPMS:0.000=155.000,
99.000=77.500,
111.000=155.000;
#STOPS:58.000=0.387,
157.000=0.387;
#DELAYS:;
#WARPS:;
#TIMESIGNATURES:0.000=4=4;
#TICKCOUNTS:0.000=4;
#COMBOS:0.000=1;
#SPEEDS:0.000=1.000=0.000=0;
#SCROLLS:0.000=1.000;
#FAKES:;
#LABELS:0.000=Song Start;
#BGCHANGES:;
#KEYSOUNDS:;
#ATTACKS:
;

//---------------dance-single - ----------------
#NOTEDATA:;
#CHARTNAME:;
#STEPSTYPE:dance-single;
#DESCRIPTION:;
#CHARTSTYLE:;
#DIFFICULTY:Challenge;
#METER:16;
#RADARVALUES:0.793722,1.199324,0.465044,0.163173,0.938247,681.000000,624.000000,57.000000,20.000000,0.000000,0.000000,0.000000,0.000000,0.000000,0.793722,1.199324,0.465044,0.163173,0.938247,681.000000,624.000000,57.000000,20.000000,0.000000,0.000000,0.000000,0.000000,0.000000;
#CREDIT:;
#DISPLAYBPM:78.000000:155.000000;
#NOTES:
0000
0000
0000
0000
,
0000
0000
0000
0000
,
0000
0000
0000
0000
,
0000
0000
0000
0000
,
0000
0000
0000
0000
,
1000
0000
0000
0010
0000
0000
0001
0000
1000
0000
0000
0100
0000
0000
0001
0000
,
0010
0000
0000
0100
0000
0000
2000
0000
0000
0000
0001
0000
3001
0000
1000
0000
,
1010
0000
0000
0101
0000
0000
0011
0000
1100
0000
0000
0000
0000
0000
0000
0000
,
0001
0000
1000
0100
0000
0100
1000
0000
0010
0100
0000
0100
0000
0100
0001
0000
,
0011
0000
0000
0010
0100
0000
1000
0000
1010
0000
0000
0010
0100
0000
0001
0000
,
1000
0100
0000
0100
0010
0000
0001
0000
0100
0001
0000
0001
1000
0000
0100
0000
,
0010
0001
0010
0001
1000
0010
1000
0010
1000
0100
1000
0100
0001
0100
0001
0100
,
1000
0010
0100
0001
0010
0100
1000
0010
0100
0001
0010
0100
,
0000
0000
1000
0000
0000
0001
0100
0000
0000
0000
0010
0000
0000
0000
0100
0000
,
0001
0000
0001
0000
0001
0000
0000
0000
1001
0000
0000
0000
0110
0000
0000
0001
,
0000
1000
0001
0000
0100
0000
1000
0000
0100
0000
0001
0000
0010
0100
0000
0010
,
0000
0001
1000
0000
0010
1000
0100
0000
1000
0000
0001
0000
0200
0000
0000
0310
,
0000
0100
0001
0000
1000
0000
0010
0000
0001
0000
0010
0000
1000
0100
0000
1000
,
0000
0001
0100
0000
0020
0000
0130
0001
0010
0100
1000
0000
0010
0100
0000
1001
,
0000
0100
0010
0000
1000
0000
0001
0000
0010
0000
0100
0000
2000
0001
0000
3001
,
0000
1000
0100
0000
0010
0000
0001
1000
0010
0000
1000
0100
0020
0001
0000
0031
,
0000
1000
0001
0000
0100
0000
1000
0000
0100
0000
0001
0000
0101
0000
0000
1100
,
0000
0000
0202
0000
0300
0000
1003
0100
1000
0001
0010
0001
0100
0000
0000
0000
,
0000
0000
1000
0000
1000
0100
0001
0000
0000
0000
1000
0000
1000
0100
0010
0001
,
0100
0010
1000
0001
0100
0000
0100
0000
0100
0000
0100
0000
0100
0001
0001
0001
,
1000
0010
1000
1100
0000
0001
0001
0001
0100
0010
0110
0100
0001
1000
1000
0001
,
1000
0000
1000
0100
0010
0000
0011
0000
0001
0000
0100
0010
1000
0000
0001
0100
0010
0000
1010
0000
1010
0000
0000
0000
0100
0000
0010
0000
0010
0000
0010
0000
,
0001
1000
0001
0101
0000
1000
1000
0001
0100
0100
0100
0000
1001
0000
0000
0010
,
1000
0001
0100
0000
0000
0101
0000
0000
1100
0000
0000
0000
0010
0000
0001
0100
,
0000
0001
0100
0000
0010
0100
0001
1000
0010
0100
0001
1000
0200
0000
0000
0000
,
0000
0000
0300
0110
,
1001
0110
1001
0020
,
0030
0000
1000
0001
2000
0000
0000
0000
3000
0000
0100
0010
0002
0000
0000
0000
,
0000
0000
0000
0000
0000
0000
0000
0000
0003
0000
1000
0010
1000
0000
0000
0001
,
0000
0000
0010
0100
2000
0000
0000
0000
3000
0000
0001
0000
1000
0000
0000
0001
,
0000
0000
0100
0000
0020
0000
0000
0000
0030
0000
0000
0000
1000
0000
0000
0010
,
0000
0000
0001
0000
1000
0000
0000
0100
0000
0000
0001
0000
0010
0000
0000
0100
,
0000
0000
2000
0000
0000
0000
0000
0000
3000
0000
0001
0010
0001
0000
0000
0100
,
0000
0000
0010
0000
1000
0000
0000
0100
0000
0000
0001
0000
0010
0000
0100
1000
,
0000
0100
1000
0000
0002
0000
0003
0000
0011
0000
0000
0000
1100
0000
0000
0000
,
0011
0000
1100
0000
0001
0010
1000
0100
,
0001
0010
1000
0100
0101
0000
1010
0000
,
0101
0000
0000
0000
1010
0000
0000
0000
0001
0000
0010
0000
0100
1000
0010
1000
,
0100
1000
0001
0000
0110
0001
0100
0001
,
0100
1000
0100
1000
0110
0001
0010
0001
,
0010
0000
1000
0000
0010
0000
1000
0000
0010
0001
0010
0001
1000
0010
1000
0010
,
0100
0001
0100
0001
1000
0100
1000
0100
0010
0100
0010
0100
1000
0001
1000
0001
,
0100
0010
1000
0100
0010
0001
0100
0000
0000
0100
0000
0000
,
0100
0000
0100
0000
0001
0001
0001
0000
,
1001
0000
0000
0000
0110
0000
0000
0000
1001
0000
0000
0010
0001
0000
1000
0100
,
0010
0000
0000
0001
0100
0000
0010
1000
0001
0000
0000
0101
0000
0000
1100
0000
,
0000
0000
0001
0000
0001
0100
0010
1000
0100
0000
0000
1000
0001
0000
0100
0001
,
0020
0000
0000
0000
0031
0000
1000
0010
0100
0000
0001
0010
0000
0100
1000
0000
,
0001
0100
0010
0100
0001
0000
1000
0100
0010
0000
0001
1000
0000
0001
0100
0000
,
0010
0000
1000
0100
0000
0100
0010
0000
0011
0000
0000
1100
0000
0000
0202
0000
,
0300
0000
1000
0000
1003
0000
0001
0100
0010
0000
1000
0100
0000
1000
0100
0000
,
0010
0000
0001
0100
0000
0001
0100
0000
0110
0000
0000
1001
0000
0000
0110
0000
,
0000
0000
1000
0100
1000
0000
0001
0000
0100
0010
0000
1000
0010
0000
0100
0001
,
1000
0100
0000
0010
0001
0000
0100
0010
1000
0001
0000
0001
0010
0000
0200
0000
,
0000
0000
1000
0000
1300
0001
0010
0100
1000
0001
0000
0001
0100
0000
0010
1000
,
0002
0000
0000
0000
1003
0000
0100
1000
0001
0000
0100
0010
0000
0100
0001
0000
,
1000
0010
0001
0010
1000
0000
0100
0010
0001
0000
1000
0010
0000
0010
0001
0000
,
0100
0000
0001
0010
0000
0010
1000
0000
1100
0000
0000
1010
0000
0000
0101
0000
,
1001
0000
0100
0000
0001
0000
1000
0010
0100
0001
0000
0001
0100
0000
0010
0000
,
1000
0100
0000
0100
1000
0000
0001
0000
0011
0000
0000
0110
0000
0000
1100
0000
,
0001
1000
0010
1000
0100
0010
0001
0000
1001
0000
0110
0000
1000
0010
0100
0001
,
0010
0000
0010
0000
0001
0100
1000
0100
0001
0000
0010
0100
1000
0000
0001
0000
,
1000
0100
1000
0000
0001
0000
0100
0000
0001
0010
0001
1000
0000
0010
0100
0000
,
0010
0000
1000
0100
0001
0000
0010
0001
0100
0010
1000
0001
0010
0100
1000
0001
,
0100
0001
1000
0001
0010
0000
0000
0000
1100
0000
0001
1000
0010
1000
0100
0010
,
0001
0000
0100
0000
0001
1000
0001
0010
0100
0000
1000
0000
0010
0100
0010
1000
,
0001
0000
0100
0000
0001
0010
1000
0000
0100
0010
0100
1000
0010
0100
0001
1000
,
0001
0010
0100
1000
0010
1000
0001
0010
0100
0010
0001
0100
0010
1000
0100
0010
,
0001
1000
0010
0100
0001
0000
0000
0000
1001
0000
0000
0000
0000
0000
0000
0000
;

//---------------dance-single - ----------------
#NOTEDATA:;
#CHARTNAME:;
#STEPSTYPE:dance-single;
#DESCRIPTION:;
#CHARTSTYLE:;
#DIFFICULTY:Hard;
#METER:14;
#RADARVALUES:0.685328,1.049409,0.522155,0.228443,0.628218,588.000000,524.000000,64.000000,28.000000,0.000000,0.000000,0.000000,0.000000,0.000000,0.685328,1.049409,0.522155,0.228443,0.628218,588.000000,524.000000,64.000000,28.000000,0.000000,0.000000,0.000000,0.000000,0.000000;
#CREDIT:;
#DISPLAYBPM:78.000000:155.000000;
#NOTES:
0000
0000
0000
0000
,
0000
0000
0000
0000
,
0000
0000
0000
0000
,
0000
0000
0000
0000
,
0000
0000
0000
0000
,
1000
0000
0000
0010
0000
0000
0001
0000
1000
0000
0000
0100
0000
0000
0001
0000
,
0010
0000
0000
0100
0000
0000
2000
0000
0000
0000
0001
0000
3001
0000
1000
0000
,
1010
0000
0000
0101
0000
0000
0011
0000
1100
0000
0000
0000
0000
0000
0000
0000
,
0001
0000
1000
0100
0000
0100
1000
0000
0010
0000
0000
0010
0000
0000
0010
0000
,
0110
0000
0001
1000
1001
0000
0010
1000
,
1010
0000
0000
1000
0100
0000
0010
0000
0011
0000
0000
0001
1000
0000
0010
0000
,
0110
0100
0001
1000
1100
0100
0010
0001
,
1000
0100
1000
0001
0100
0001
1000
0100
1000
0001
0100
0001
,
0000
0010
0000
0010
0000
0001
0000
1000
,
0001
0000
0001
0000
0001
0000
0000
0000
1001
0000
0000
0000
0110
0000
0000
0001
,
0000
0001
1000
0000
0100
0000
0001
0000
0100
0000
1000
0000
0010
0000
0000
0100
,
0000
0100
0001
0000
1000
0000
0010
0000
0100
0000
0001
0000
1000
0000
0000
0100
,
0000
0100
0010
0000
0001
0000
0100
0000
1000
0000
0100
0000
0002
0000
0000
0013
,
0000
0001
1000
0000
0000
0001
0100
0001
0000
0100
0010
0000
1010
0000
0000
1001
,
0000
0010
0100
0000
0001
0000
1000
0000
0100
0000
0010
0000
0001
0000
0000
0100
,
0000
0100
0010
0000
1000
0000
0100
0000
0010
0000
0001
1000
0001
0000
0000
0100
,
0000
0100
0010
0000
0000
0000
1000
0000
0100
0000
0001
0000
0011
0000
0000
0110
,
0000
0000
2200
0000
0300
0000
3001
1000
0001
0000
0100
0000
0010
0000
0000
0000
,
0000
0000
1000
0000
1000
0100
0001
0000
0000
0000
1000
0000
1000
0100
0001
0000
,
0100
0000
1000
0000
0010
0000
0010
0000
0010
0000
0010
0000
0100
0001
0001
0001
,
0010
1001
0000
0110
0000
0010
0010
1000
0001
1000
1000
0001
0010
0100
0100
1000
,
1100
0000
0000
0101
0000
0000
1100
0000
0001
0000
1000
0000
0001
0000
0100
0000
0010
0000
0010
0000
0010
0000
0000
0000
1000
0000
0001
0000
0001
0000
0001
0000
,
0010
0011
0000
1100
0000
0001
0001
0100
0010
0010
0010
0000
1001
0000
0000
1000
,
0100
0010
0001
0000
0000
0101
0000
0000
1100
0000
0000
0000
0010
0000
0001
1000
,
0000
0001
1000
0000
0002
0000
0203
0000
0320
0000
2030
0000
3200
0000
0000
0000
,
0000
0000
0300
0110
,
1001
0110
1001
0020
,
0030
0000
1000
0001
2000
0000
0000
0000
3000
0000
0100
0010
0002
0000
0000
0000
,
0000
0000
0000
0000
0000
0000
0000
0000
0003
0000
0010
0001
0100
0000
0000
0100
,
0000
0000
0100
0010
2000
0000
0000
0000
3000
0000
0001
0000
1000
0000
0000
1000
,
0000
0000
0010
0000
0200
0000
0000
0000
0300
0000
0000
0000
0001
0000
0000
0010
,
0000
0000
1000
0000
0001
0000
0000
0100
0000
0000
1000
0000
0100
0000
0000
0010
,
0000
0000
0002
0000
0000
0000
0000
0000
0003
0000
1000
0001
1000
0000
0000
0010
,
0000
0000
0100
0000
0001
0000
0000
0010
0000
0000
0100
0000
1000
0000
0001
0100
,
0000
0100
0020
0000
0000
0000
0030
0000
1010
0000
0000
0000
0101
0000
0000
0000
,
1010
0000
0101
0000
0001
0010
1000
0100
,
0001
0010
1000
0100
0011
0000
1100
0000
,
0011
0000
1100
0000
0001
0010
1000
0001
,
0010
0100
1000
0000
0001
0001
0100
0100
,
0010
0010
1000
1000
0100
0100
0010
0010
,
0001
0000
0001
0000
1000
0000
1000
0000
0001
0100
0001
0100
0001
0000
1000
0000
,
0010
0100
0010
0100
0010
0000
1000
0000
0001
0100
0001
0000
1000
0100
1000
0000
,
0001
0010
0100
1000
0010
0100
0001
0000
0000
0001
0000
0000
,
1000
0000
1000
0000
0001
0001
0001
0000
,
1001
0000
0000
0000
0110
0000
0000
0000
1001
0000
0000
0100
0000
0000
0001
0010
,
0100
0000
0000
1000
0000
0000
0010
1000
0001
0000
0000
0101
0000
0000
1100
0000
,
0000
0000
0001
0000
0001
0100
0010
0100
0001
0000
0000
1000
0000
0000
0010
1000
,
0200
0000
0000
0000
1300
0000
0010
0100
0001
0000
0000
0010
0000
0000
0001
0000
,
1000
0000
0001
0010
0001
0000
1000
0100
1000
0000
0000
0001
0010
0000
0100
0000
,
0010
0000
0000
0010
0001
0000
1000
0000
1100
0000
0000
0101
0000
0000
0012
0000
,
0100
0000
0100
0000
0103
0000
1000
0001
0100
0000
0000
0010
2000
0000
3001
0000
,
0010
0000
0000
0100
2000
0000
3001
0000
1001
0000
0000
1010
0000
0000
1100
0000
,
0000
0000
0001
0000
0001
1000
0001
0000
0010
0000
0000
0001
0000
0000
0100
0010
,
1000
0000
0000
0001
0000
0000
1000
0100
0010
0000
0001
1000
0000
1000
0001
0000
,
0000
0000
0100
0000
0100
0001
1000
0001
0100
0000
0000
0010
0000
0000
0100
0001
,
2000
0000
0000
0000
3001
0000
0010
0100
1000
0000
0001
0100
0000
0001
1000
0000
,
0010
0100
0010
0100
0010
0000
1000
0001
0100
0000
0010
1000
0000
1000
0001
0000
,
0100
0000
0001
0010
0000
0100
1000
0000
1001
0000
0000
0110
0000
0000
2001
0000
,
0010
0000
0010
0000
3010
0000
1000
0100
1000
0000
0000
0001
0000
0000
0010
0000
,
0001
0000
0000
0100
0000
0000
1000
0000
1100
0000
0000
0110
0000
0000
0022
0000
,
0000
0030
0000
0000
1003
0001
1000
0000
0010
0000
0010
0000
1000
0001
0000
0001
,
0020
0000
0230
0000
2300
0000
3002
0000
1003
0010
0100
0000
0001
0010
0100
0000
,
1000
0000
1000
0000
1000
0000
0000
0000
0001
0000
0100
0010
0000
0100
0010
0000
,
1000
0000
0100
1000
0001
0000
0100
0000
0001
0010
0001
0000
1000
0010
1000
0000
,
0100
0000
1000
0001
0100
0000
0000
0000
0110
0000
0001
0000
0100
0000
0010
0000
,
1010
1000
0100
0010
0011
0001
1000
0010
,
1001
0000
0100
0000
0010
0000
1000
0000
0101
0000
0000
0001
0010
0100
1000
0000
,
0000
1100
0000
0000
0101
0000
0000
0000
0010
0000
1000
0001
0000
1000
0100
0000
,
0010
0001
0100
0010
1000
0000
0000
0000
1001
0000
0000
0000
0000
0000
0000
0000
;

//---------------dance-single - ----------------
#NOTEDATA:;
#CHARTNAME:;
#STEPSTYPE:dance-single;
#DESCRIPTION:;
#CHARTSTYLE:;
#DIFFICULTY:Medium;
#METER:11;
#RADARVALUES:0.491851,0.689612,0.465044,0.220284,0.216205,422.000000,365.000000,57.000000,27.000000,0.000000,0.000000,0.000000,0.000000,0.000000,0.491851,0.689612,0.465044,0.220284,0.216205,422.000000,365.000000,57.000000,27.000000,0.000000,0.000000,0.000000,0.000000,0.000000;
#CREDIT:;
#DISPLAYBPM:78.000000:155.000000;
#NOTES:
0000
0000
0000
0000
,
0000
0000
0000
0000
,
0000
0000
0000
0000
,
0000
0000
0000
0000
,
0000
0000
0000
0000
,
1000
0000
0000
0010
0000
0000
0001
0000
1000
0000
0000
0100
0000
0000
0001
0000
,
0010
0000
0000
0100
0000
0000
2000
0000
0000
0000
0000
0000
3000
0000
0000
0000
,
0001
0000
0000
1000
0000
0000
0010
0000
0100
0000
0000
0000
0000
0000
0000
0000
,
0001
0000
0000
0010
0000
0000
1000
0000
0100
0000
0000
0100
0000
0000
0100
0000
,
0110
0000
1000
0001
1001
0000
0100
0010
,
1010
0000
1000
0001
0011
0000
0010
0100
,
1100
0000
0001
1000
0101
0000
0100
0010
,
1010
1001
0011
0101
,
0000
1000
0000
1000
0000
0100
0000
0010
,
0001
1000
0001
0000
1001
0000
0110
0000
,
1000
0001
0000
0010
0000
0100
2000
0000
,
3001
1000
0000
0010
0100
0001
0200
0000
,
0310
0000
1000
0000
0000
0000
0100
0000
0000
0000
0001
0000
0010
0000
0000
0001
,
0000
1000
0000
0100
0010
0100
2000
0000
,
3001
1000
0000
0010
0100
0001
0020
0000
,
0031
0100
0000
0001
1000
0100
0020
0000
,
0031
0000
1000
0000
0000
0000
0100
0000
0000
0000
1000
0000
0001
0000
0000
0001
,
0000
0002
0000
0000
1003
0100
0010
0000
,
0000
0001
0001
1000
0000
0001
0001
1000
,
0001
0100
0010
1000
0010
1000
0100
0010
,
0001
0001
0000
1000
0000
0001
1000
0000
0010
0100
0100
0000
0001
0000
0010
0100
,
1000
0000
0000
1000
0000
0000
1000
0000
0000
0000
0001
0000
0100
0000
0000
0000
0010
0000
0010
0000
0010
0000
0000
0000
1000
0000
0000
0000
0100
0000
0000
0000
,
1000
1000
0000
0001
0000
0100
0010
0000
1000
1000
1000
0000
1001
0000
0000
0000
,
1000
0000
0100
0000
0000
0110
0000
0000
1001
0000
0000
0000
0010
0000
0000
1000
,
0000
0002
0000
0100
0000
1003
0200
0000
,
0000
0000
0300
0110
,
1001
0110
1001
0020
,
0030
1000
0002
0000
0003
0010
0200
0000
,
0000
0000
0000
0000
0000
0000
0000
0000
0300
0000
1000
0000
0010
0000
0000
0010
,
0000
0000
0100
0000
0002
0000
0000
0000
0003
0000
0010
0000
0001
0000
0000
1000
,
0000
0000
0100
0000
0020
0000
0000
0000
0030
0000
0000
0000
0001
0000
0000
0001
,
0000
0000
0001
0000
1000
0000
0000
1000
0000
0000
1000
0000
0010
0000
0000
0100
,
0000
0000
0002
0000
0000
0000
0000
0000
0003
0000
0010
0000
0001
0000
0000
1000
,
0000
0000
0100
0000
1000
0000
0000
0001
0000
0000
0100
0000
0010
0000
0000
0010
,
0000
0020
0000
0030
1010
0000
0101
0000
,
1010
0000
0101
0000
1000
0000
0100
0010
,
0000
0001
1000
0000
1100
0000
0011
0000
,
1100
0000
0011
0000
1000
0100
0001
0000
,
1000
0010
0001
0000
0110
0100
0001
0000
,
0100
0010
1000
0000
1001
0100
0010
0000
,
1000
0100
0001
0000
0011
0001
0100
0000
,
1010
1000
0100
0000
1001
0000
0110
0000
,
1001
0110
1000
1000
,
1000
0000
1000
0000
0001
1000
0001
0000
,
1001
0110
1001
0100
,
0001
0000
0000
0010
0000
0000
0001
0000
0100
0000
0000
0010
0000
0000
2000
0000
,
0000
0000
0000
0000
3000
0000
0001
0000
1000
0000
0000
0100
0000
0000
0100
0000
,
0020
0000
0000
0000
0030
0000
0001
0000
1000
0000
0000
0001
0000
0000
0100
0000
,
0020
0000
0000
0000
0030
0000
0000
0000
0100
0000
0000
0001
0000
0000
0001
0000
,
0010
0000
0000
0100
0000
0000
0100
0000
1000
0000
0000
0001
0000
0000
0200
0000
,
0000
0000
0000
0000
0300
0000
0010
0000
0100
0000
0000
0001
0000
0000
0010
0000
,
0100
0000
0000
1000
0000
0000
0001
0000
1000
0000
0000
0010
0000
0000
0200
0000
,
0000
0000
0000
0000
0300
0000
0000
0000
0110
0000
0000
0001
0000
0000
1000
0000
,
0100
0000
0000
0100
0000
0000
0010
0000
0011
0000
0000
0110
0000
0000
1100
0000
,
0000
0000
0001
0000
0001
0000
1000
0000
0010
0000
0000
1000
0000
0000
0100
0000
,
2000
0000
0000
0000
3000
0000
0010
0000
1000
0000
0000
0100
0000
0000
0010
0000
,
0002
0000
0000
0000
1003
0000
0001
0000
0100
0000
0000
0100
0000
0000
0100
0000
,
0010
0000
0000
1000
0000
0000
0001
0000
0001
0000
0000
1000
0000
0000
0020
0000
,
0000
0000
0100
0000
0130
0000
0001
0000
1000
0000
0000
0001
0000
0000
0010
0000
,
0001
0000
0000
0100
0000
0000
0010
0000
1000
0000
0000
1100
0000
0000
0202
0000
,
0000
0000
0300
0000
1000
1000
1003
0001
,
0010
0001
0100
0000
0110
0000
1001
0010
,
0100
0001
1000
0000
0001
0001
0001
0010
,
0100
1000
0010
0000
1010
0000
0101
0001
,
0010
0100
1000
0000
1001
0100
0010
0000
,
0110
0100
0001
0000
0011
0100
1000
0000
,
1010
0100
0001
0000
1100
0000
0110
0000
,
0011
0000
0000
0000
0101
0000
0000
0000
0010
0000
0000
1000
0000
0000
0002
0000
,
0000
0100
0103
0000
1001
0000
0000
0000
;

//---------------dance-single - ----------------
#NOTEDATA:;
#CHARTNAME:;
#STEPSTYPE:dance-single;
#DESCRIPTION:;
#CHARTSTYLE:;
#DIFFICULTY:Easy;
#METER:8;
#RADARVALUES:0.381126,0.569679,0.416092,0.048952,0.008159,327.000000,276.000000,51.000000,6.000000,0.000000,0.000000,0.000000,0.000000,0.000000,0.381126,0.569679,0.416092,0.048952,0.008159,327.000000,276.000000,51.000000,6.000000,0.000000,0.000000,0.000000,0.000000,0.000000;
#CREDIT:;
#DISPLAYBPM:78.000000:155.000000;
#NOTES:
0000
0000
0000
0000
,
0000
0000
0000
0000
,
0000
0000
0000
0000
,
0000
0000
0000
0000
,
0000
0000
0000
0000
,
1000
0000
0001
0000
,
0010
0100
1000
0000
,
0001
0001
0001
0000
,
0100
0010
1000
0000
,
1001
0100
1001
0100
,
0110
1000
0110
0001
,
0011
0100
1010
0100
,
0101
1100
0101
1100
,
0000
0000
0000
0000
,
0001
1000
0001
0000
1001
0000
0110
0000
,
1000
0010
1000
0100
,
0010
0001
0100
0001
,
0010
0100
1000
0010
,
1000
0000
0000
0001
0100
0000
0110
0000
,
1001
0010
1000
0100
,
0010
0100
1000
0010
,
1000
0100
0010
0001
,
0001
0001
0000
1001
,
0000
0110
0000
1000
,
0001
0000
0100
0010
0100
0010
0100
0001
,
1000
0000
0100
0010
0001
1001
0100
0010
,
1000
0000
0001
0000
1000
0000
0100
0000
0010
0001
1000
0000
0001
0000
0100
0000
,
0010
0000
0000
0000
1000
0000
0100
0000
1000
0001
1000
0000
0010
0000
0000
0000
,
0010
1000
0001
0010
,
0100
2000
0000
3200
,
0000
0000
0300
0110
,
1001
0110
1001
0020
,
0030
2000
3000
0002
,
0000
0000
0003
0010
,
0001
0100
0000
0010
,
1000
0100
0000
1000
,
1000
0001
0001
0010
,
0001
0100
0000
0010
,
0010
1000
1000
0100
,
0010
0000
0000
0002
0003
0000
0011
0000
0000
1100
0000
0000
,
0011
1100
0010
1000
,
0100
0001
1010
0101
,
1010
0101
1000
0100
,
0001
0010
0100
0100
,
0100
0100
0010
0010
,
0010
0010
0001
0001
,
1000
1000
0101
1100
,
0101
1100
0000
0000
,
0000
0000
0000
0000
0001
1000
0001
0000
,
1001
0110
1001
0010
,
1000
0100
1000
0010
,
0001
0100
0010
1000
,
0100
1000
0001
0100
,
0001
1000
0001
1000
0001
0000
0100
0000
,
0001
0010
0100
1000
,
0010
0000
0100
0001
1000
0000
0001
0000
,
0010
0001
0100
0010
,
1000
0000
0001
1000
0100
0000
0100
0000
,
0010
0001
0100
0010
,
1000
0100
1000
0000
0001
0000
0010
0000
,
0001
0000
0100
0010
1000
0000
0001
0000
,
0010
0100
0010
0100
0010
0000
0001
0000
,
0100
1000
0010
1000
,
0100
0000
0010
0001
1000
0000
0110
0000
,
0001
0110
1000
0001
,
0010
0000
0000
0000
1000
0001
1000
0000
,
0100
0010
0001
0000
0101
0000
1100
0000
,
0001
0000
1000
0000
0001
0010
0001
0000
,
0100
0010
1000
0000
0110
0000
0101
0000
,
0001
0100
1000
0000
1100
0000
0010
0000
,
0101
0010
1001
0100
,
0110
0001
0011
0101
,
1010
1100
0001
0100
,
0010
1000
1001
0000
;

//---------------dance-single - ----------------
#NOTEDATA:;
#CHARTNAME:;
#STEPSTYPE:dance-single;
#DESCRIPTION:;
#CHARTSTYLE:;
#DIFFICULTY:Beginner;
#METER:5;
#RADARVALUES:0.181822,0.269848,0.089745,0.016317,0.000000,156.000000,145.000000,11.000000,2.000000,0.000000,0.000000,0.000000,0.000000,0.000000,0.181822,0.269848,0.089745,0.016317,0.000000,156.000000,145.000000,11.000000,2.000000,0.000000,0.000000,0.000000,0.000000,0.000000;
#CREDIT:;
#DISPLAYBPM:78.000000:155.000000;
#NOTES:
// measure 0
0000
0000
0000
0000
,  // measure 1
0000
0000
0000
0000
,  // measure 2
0000
0000
0000
0000
,  // measure 3
0000
0000
0000
0000
,  // measure 4
0000
0000
0000
0000
,  // measure 5
1000
0000
0000
0000
,  // measure 6
0001
0000
0000
0000
,  // measure 7
1001
0000
0110
0000
,  // measure 8
0100
0000
0000
0000
,  // measure 9
0010
0000
0010
0000
,  // measure 10
1000
0000
1000
0000
,  // measure 11
0001
0000
0001
0000
,  // measure 12
0010
0010
0010
0010
,  // measure 13
0000
0000
0000
0000
,  // measure 14
0001
0000
1001
0110
,  // measure 15
0000
0000
0000
1000
,  // measure 16
1000
0000
0000
0001
,  // measure 17
0001
0000
0000
0100
,  // measure 18
0100
0000
0010
0000
,  // measure 19
0100
0000
0000
0001
,  // measure 20
0001
0000
0000
0010
,  // measure 21
0010
0000
0000
0001
,  // measure 22
0001
0000
0000
1000
,  // measure 23
0000
1000
0000
0001
,  // measure 24
0001
0001
0000
0100
,  // measure 25
0000
0010
0000
1000
,  // measure 26
0000
0001
0000
0010
,  // measure 27
0000
0100
0000
1000
,  // measure 28
1000
1000
0000
0001
,  // measure 29
0001
0001
0000
0200
,  // measure 30
0000
0000
0300
0000
,  // measure 31
0000
0000
0000
0010
,  // measure 32
0000
0010
0000
2000
,  // measure 33
0000
3000
0000
0001
,  // measure 34
0000
0001
0000
0100
,  // measure 35
0000
0010
0000
1000
,  // measure 36
0000
0100
0000
1000
,  // measure 37
0000
0001
0000
0100
,  // measure 38
0000
0010
0000
0100
,  // measure 39
0000
0000
0001
0001
,  // measure 40
0001
0001
0000
0000
,  // measure 41
0000
0000
1000
1000
,  // measure 42
1000
1000
0000
0000
,  // measure 43
0000
0000
1001
0000
,  // measure 44
0000
0000
0110
0000
,  // measure 45
0000
0000
1001
0000
,  // measure 46
0110
0000
1000
1000
,  // measure 47
1000
1000
0000
0000
,  // measure 48
0000
0000
0001
0000
,  // measure 49
1001
0000
0110
0000
,  // measure 50
0100
0000
0001
0001
,  // measure 51
0001
0000
0010
0000
,  // measure 52
0001
0000
0100
0100
,  // measure 53
0100
0000
0010
0000
,  // measure 54
1000
0000
0001
0001
,  // measure 55
0001
0000
0010
0000
,  // measure 56
0100
0000
1000
1000
,  // measure 57
1000
0000
0001
0001
,  // measure 58
0001
0000
0100
0100
,  // measure 59
0100
0000
0001
0000
,  // measure 60
1000
0000
0010
0010
,  // measure 61
0010
0000
1000
0000
,  // measure 62
0100
0000
0010
0010
,  // measure 63
0010
0000
0001
0000
,  // measure 64
1000
0000
0001
0001
,  // measure 65
0001
0000
0100
0000
,  // measure 66
0010
0000
1000
1000
,  // measure 67
0000
0000
0001
0001
,  // measure 68
0001
0000
0100
0100
,  // measure 69
0100
0000
1000
0000
,  // measure 70
0001
0000
0010
0000
,  // measure 71
0100
0000
1000
1000
,  // measure 72
1000
1000
1000
1000
,  // measure 73
1000
0000
1001
0000
;
