#TITLE:Gravigazer;
#SUBTITLE:;
#ARTIST:DJ TOTTO;
#TITLETRANSLIT:;
#SUBTITLETRANSLIT:;
#ARTISTTRANSLIT:;
#GENRE:;
#CREDIT:;
#BANNER:Gravigazer-bn.png;
#BACKGROUND:Gravigazer-bg.png;
#LYRICSPATH:;
#CDTITLE:;
#MUSIC:Gravigazer.ogg;
#OFFSET:1.125000;
#SAMPLESTART:72.375000;
#SAMPLELENGTH:20.000000;
#LASTBEATHINT:0.312000;
#SELECTABLE:YES;
#DISPLAYBPM:160.000000;
#BPMS:0.000000=160.000000
;
#STOPS:
;
#BGCHANGES:;
#KEYSOUNDS:;
#ATTACKS:;

//---------------dance-single - ----------------
#NOTES:
     dance-single:
     :
     Hard:
     15:
     0.817824,0.937615,0.256881,0.091743,1.082569,624.000000,596.000000,28.000000,10.000000,0.000000,0.000000,0.817824,0.937615,0.256881,0.091743,1.082569,624.000000,596.000000,28.000000,10.000000,0.000000,0.000000:
0000
0000
0000
0000
,
0000
0000
0000
0000
,
0000
0000
0000
0000
,
0000
0000
0000
0000
,
0000
0000
0000
0110
,
1001
0000
0000
0100
0000
0100
0000
0100
,
0000
0100
0000
0100
0000
0100
0000
0100
,
0001
0000
0000
0000
0001
0000
0000
0000
0001
0000
0000
0000
0001
0000
1000
0100
,
1000
0000
0010
0000
0100
0001
0100
0001
0200
0000
0000
0000
0300
0000
0000
0000
,
0110
0000
0010
0000
1000
0000
0010
0100
,
0100
0000
0000
0000
0001
0000
0000
0000
0010
0000
0001
1000
0000
0001
1000
0000
,
0100
0000
0000
0010
0001
0000
0000
0000
0100
0000
0000
0000
0010
0000
1000
0000
,
0001
0000
0000
0000
1000
0000
0000
0000
0010
0100
0010
0100
0010
0000
0000
0000
,
1001
0000
0000
0000
0100
0000
0001
0000
0010
0000
0000
0001
1000
0000
0010
0000
,
0100
0000
0000
0001
0100
0000
0010
0000
1000
0000
0000
0000
0001
0010
0001
0000
,
0200
0000
0000
0000
0310
0000
1000
0000
0001
0000
1000
0100
1000
0100
1000
0100
,
0010
0000
0001
1000
0000
1000
0000
1000
0001
0100
0001
0100
0001
0000
0000
0000
,
1001
0000
0000
1000
0010
0000
0100
0000
0001
0000
0000
0010
0100
0000
1000
0000
,
0001
0000
0000
0100
0010
0000
1000
0000
0001
0000
0000
1000
0010
0100
0010
0100
,
0001
0000
0000
1000
0001
0000
0000
1000
0100
0000
0000
0010
0100
0000
1000
0000
,
0001
0000
0100
0010
0000
0010
1000
0000
0000
0000
0100
0010
0000
0010
0001
0000
,
0110
0000
0000
1000
0001
0000
1000
0000
0100
0000
0000
0010
0001
0000
0100
0000
,
0010
0000
0000
1000
0001
0000
0000
1000
0100
0000
0000
0010
0001
0000
0100
0000
,
0010
0000
0000
1000
0001
0000
1000
0000
0100
0000
0000
0010
0001
0000
1000
0001
,
0100
0000
0010
1000
0010
0000
0000
0000
0100
0000
0001
0010
0001
0000
0000
0000
,
1001
0000
0100
0010
0100
0000
0010
1000
0010
0000
1000
0001
1000
0000
0100
0010
,
0100
0000
1000
0001
1000
0000
0001
0010
0001
0000
0000
1000
0010
0100
0010
0100
,
0001
0000
0000
1000
0001
0000
0010
0100
1000
0000
0000
0010
0100
0000
0010
1000
,
0001
0000
0100
0000
1001
0000
1001
0000
0010
1000
0010
1000
0010
0100
0001
0000
,
0110
0000
0000
0001
1000
0000
0001
0100
0010
0000
0000
1000
0100
0000
0000
0000
,
1100
0000
0000
0010
0001
0000
0100
0010
0100
0001
0100
0010
0100
0001
1000
0000
,
1001
0000
0000
0010
0000
0000
1010
0000
0000
0101
0000
0000
1000
0000
0001
0000
,
0010
0100
0010
0100
0010
0001
0010
0001
0010
0100
0010
0001
0100
0000
0010
2000
,
0002
0000
0000
0000
,
0000
0000
0000
0000
,
3003
0000
0000
0000
,
0000
0010
0000
0010
0000
0010
0000
0010
,
0000
1000
0000
0001
0000
1000
0000
0100
,
0000
0010
0000
0001
0000
0100
0000
0001
,
1000
0000
0010
1000
0100
0010
0001
0100
,
0010
1000
0001
0010
0100
1000
0001
0100
,
0010
0000
0000
0000
1000
0000
0001
0000
1000
0100
0000
0010
0000
0001
0100
0000
,
0010
0000
1000
0000
0010
0000
0100
0000
0001
0000
1000
0100
0000
1000
0001
0000
,
0010
0000
0000
0000
0001
0000
0100
0000
0010
0000
1000
0001
0000
1000
0100
0000
,
0010
0001
0010
0100
1000
0001
1000
0100
,
0010
0000
0001
1000
0002
0000
0000
0000
0103
0000
0010
1000
0020
0000
0000
0000
,
0130
0000
0001
1000
0002
0000
0000
0000
0013
0000
0100
1000
0200
0000
0000
0000
,
0310
0001
0010
0100
2000
0000
0000
0000
3001
1000
0100
1000
0020
0000
0000
0000
,
0130
0001
0100
0001
0100
0000
0010
0000
1000
0000
0100
0000
1000
0001
1000
0001
,
0100
0000
0010
0000
1000
0000
0001
0000
1000
0100
0000
0010
0000
0001
0100
0010
,
1000
0000
0001
0000
1000
0010
0000
0100
0000
0001
0000
0010
0000
0100
1000
0001
,
0100
0000
0010
0000
0100
0001
0000
1000
0000
0100
0000
1000
0000
0010
0100
0001
,
1000
0000
0001
0000
1000
0100
0000
0010
0000
0001
0000
0100
0000
0010
0100
0001
,
1000
0000
0010
0000
1000
0001
0000
0100
0000
0001
0010
0001
0000
1000
0010
1000
,
0100
0000
0010
0000
0100
1000
0000
0001
0000
0010
0000
0001
0000
0100
0010
1000
,
0001
0000
0100
0000
0001
0010
0000
0100
0000
1000
0001
1000
0000
0010
0100
0001
,
1000
0000
0010
0100
0000
0001
0000
1000
0100
0010
0100
0010
0001
1000
0010
0100
,
0001
0000
0010
0000
0001
1000
0000
0010
0000
0100
0000
0001
0000
1000
0100
1000
,
0010
0000
0100
0000
0001
0010
0000
0100
0000
1000
0000
0010
0000
1000
0001
1000
,
0100
0000
0010
0000
0001
0100
0000
0010
0000
1000
0000
0001
0000
1000
0100
0010
,
0001
0000
0100
0000
0010
1000
0000
0100
0000
1000
0000
0010
0000
0100
0001
1000
,
0001
0000
0010
0001
0010
0100
0000
1000
0000
0010
0100
0010
0000
1000
0001
1000
,
0100
0000
0010
0000
0001
1000
0001
0100
0000
0010
0000
0010
0000
1000
0001
1000
,
0100
0000
0010
0000
0001
0100
0000
0010
1000
0001
1000
0001
1000
0010
1000
0001
,
0100
0000
0010
1000
0000
1000
0000
0001
0000
0001
1000
0001
0010
0100
0010
0001
,
1000
0000
0010
0100
0000
0110
0000
0110
0000
0110
0000
0001
1000
0000
0000
0000
,
0010
0000
0101
0000
0000
1000
0001
1000
0100
0000
0010
0000
0001
1000
0010
0100
,
0001
0010
0000
0110
0000
0110
0000
0110
0000
0110
0000
1000
0001
0000
0100
0010
,
1000
0000
0001
0100
0000
0001
0100
0010
1000
0001
0000
0001
0000
0001
1000
0000
,
1001
0000
0010
0100
0000
0101
0000
1100
0000
0101
0000
0010
1000
0001
1000
0100
,
0000
0000
0110
0000
0001
1000
0010
1000
0100
0000
0010
0000
0001
0100
0010
1000
,
0001
0000
0100
0010
0000
1010
0000
0010
1000
0000
0100
1000
0000
1000
0001
0000
,
1000
0010
1000
0010
0100
0010
1000
0000
0001
0010
0100
1000
0001
0100
0010
1000
,
0100
0000
0000
0000
;

//---------------dance-single - ----------------
#NOTES:
     dance-single:
     :
     Medium:
     12:
     0.615990,0.669725,0.183486,0.091743,0.316514,470.000000,450.000000,20.000000,10.000000,0.000000,0.000000,0.615990,0.669725,0.183486,0.091743,0.316514,470.000000,450.000000,20.000000,10.000000,0.000000,0.000000:
0000
0000
0000
0000
,
0000
0000
0000
0000
,
0000
0000
0000
0000
,
0000
0000
0000
0000
,
0000
0000
0000
0110
,
1001
0000
0000
0010
0000
0000
0000
0100
,
0000
0001
0100
1000
,
0010
0000
0100
0000
0010
0000
1000
0001
,
0100
0010
1000
0010
0200
0000
0300
0000
,
0110
0000
0010
0000
1000
0000
0001
0100
,
0001
0000
0010
0000
0001
0000
1000
0010
,
0100
0000
0001
0010
0001
0000
1000
0010
,
0100
0000
0001
0010
0001
0100
1000
0000
,
1001
0000
0010
1000
0100
0000
1000
0010
,
0001
0000
0100
0010
0100
0001
0010
0100
,
2000
0000
3001
1000
0001
0010
0100
1000
,
0001
0000
0000
0100
0000
0010
0000
0000
1000
0000
0001
0000
1000
0000
0000
0000
,
1001
0000
0000
1000
0100
0000
0000
0100
0010
0000
0000
0010
0001
0000
0000
0001
,
1000
0000
0000
1000
0001
0000
0000
0001
0010
0000
0000
0010
0001
0000
0100
0000
,
0010
0000
0000
0010
1000
0000
0000
1000
0100
0000
0000
0100
0010
0000
0000
0010
,
0001
0000
0000
0100
0010
0000
1000
0000
0001
0000
0000
0010
0100
0000
1000
0000
,
0110
0000
0000
0010
0001
0000
0000
0001
0100
0000
0000
0100
0010
0000
1000
0000
,
0001
0000
0000
1000
0100
0000
0000
1000
0100
0000
0000
1000
0100
0000
0010
0000
,
0001
0000
0000
0100
0001
0000
0000
0100
0010
0000
0000
0010
1000
0000
0000
1000
,
0100
0010
1001
0000
0100
0010
1001
0000
,
0110
0000
0000
1000
0001
0000
1000
0000
0100
0000
0000
0010
0001
0000
0000
0010
,
0100
0000
0000
1000
0001
0000
0000
1000
0100
0000
0000
1000
0010
0000
0100
0000
,
0001
0000
0000
0001
0100
0000
0000
0100
0010
0000
0000
0010
1000
0000
0000
1000
,
0100
0010
0001
0001
0100
0010
1000
1000
,
0110
0000
0000
0100
0010
0000
0000
0100
0010
0000
0000
0100
0010
0000
0000
0000
,
1001
0000
0000
1000
0001
0000
0000
1000
0001
0000
0000
1000
0001
0000
0000
0000
,
0010
0000
0000
0100
0000
0000
1000
0000
0000
0001
0000
0000
0100
0000
0010
0000
,
1000
0001
1000
0100
0010
0001
0100
0000
,
0220
0000
0000
0300
,
2000
0000
0000
0030
,
0002
0000
0000
3000
,
0203
0010
0010
0310
,
0002
0010
0010
0013
,
2000
0010
0010
3010
,
0100
0001
0100
0010
,
1000
0001
1000
0100
0010
0001
0100
0000
,
0010
0000
1000
0001
1000
0100
0010
0001
,
0100
0000
0001
0010
0001
0100
0010
1000
,
0001
0000
1000
0100
0010
0000
0010
0001
,
0100
0000
0010
1000
0010
1000
0001
0010
,
0100
0000
1100
1000
0001
0000
0101
0100
,
0010
0000
1010
0100
0001
0000
0011
0100
,
1000
0000
0000
0001
0100
0000
0000
0100
0010
0000
0000
0010
1000
0000
0000
0001
,
0100
0001
0010
0010
0001
1000
0010
0100
,
0001
0000
0000
0000
1000
0000
0001
0000
0010
0000
0001
0000
0100
0000
0010
1000
,
0010
0000
0000
0000
0100
0000
0001
0000
0010
0000
0001
0000
1000
0000
0010
0100
,
0010
0000
1000
0001
1000
0100
0010
0001
,
0100
0001
0100
0010
1000
0001
1000
0100
,
0010
0000
0000
0000
0001
0000
0100
0000
0001
0000
1000
0000
0100
0000
1000
0001
,
1000
0000
0000
0000
0010
0000
1000
0000
0100
0000
0010
0000
0001
0000
1000
0100
,
1000
0000
0010
0100
0001
0010
0100
1000
,
0001
0000
0100
0000
0001
0000
0010
0000
0100
0000
1000
0000
0001
0000
0100
0010
,
0100
0000
0000
0001
0100
0000
0000
0100
0010
0000
0000
0010
1000
0000
0001
0000
,
1000
0000
0010
0000
0100
0000
0010
0000
1000
0000
0001
0000
0010
0000
0100
1000
,
0100
0000
0000
0000
0010
0000
0001
0000
1000
0000
0001
0000
0100
0000
0010
1000
,
0010
0000
0100
0000
0001
0000
0100
0000
0010
0000
1000
0000
0100
0000
1000
0001
,
1000
0000
0000
0010
0100
0000
0000
0001
0100
0000
0000
0010
1000
0000
0001
0000
,
0010
0000
0001
0000
0100
0000
0010
0000
1000
0000
0100
0000
1000
0000
0001
0100
,
0001
0000
0010
0000
0001
0000
0100
0000
0010
1000
0010
1000
0010
0000
0100
0000
,
0001
0000
1000
0001
1000
0100
0010
0001
,
0100
0010
1000
0010
1000
0001
0100
0000
,
0000
0000
1001
0000
0000
0000
0010
0100
0020
0000
0000
0000
0130
0000
0001
0000
,
1000
0100
1000
0010
0100
0001
1000
0000
,
0000
0000
0010
1000
0000
0001
0000
0100
0000
0000
0000
0000
0000
0000
0000
0000
,
0110
0000
0010
1000
0100
0010
0001
0000
,
0000
0000
0101
0000
0000
0000
1000
0001
1000
0000
0000
0000
0010
0000
0100
0000
,
0001
0010
0001
0100
0010
1000
0001
1000
,
0100
0010
0001
0000
0100
0010
1000
0001
,
0110
0000
0000
0000
;

//---------------dance-single - ----------------
#NOTES:
     dance-single:
     :
     Easy:
     8:
     0.402359,0.502294,0.330275,0.165138,0.000000,307.000000,271.000000,36.000000,18.000000,0.000000,0.000000,0.402359,0.502294,0.330275,0.165138,0.000000,307.000000,271.000000,36.000000,18.000000,0.000000,0.000000:
0000
0000
0000
0000
,
0000
0000
0000
0000
,
0000
0000
0000
0000
,
0000
0000
0000
0000
,
0000
0000
0000
0010
,
1001
0000
0100
0000
,
0010
1000
0001
1000
,
0100
0010
0001
0100
,
0010
0010
2000
3000
,
1001
0100
0010
0100
,
0001
0010
0100
1000
,
0010
1000
0100
1000
,
0001
0010
0002
2003
,
3100
0010
0001
0010
,
0001
1000
0001
0100
,
0020
0030
1010
0101
,
1010
0000
0001
0001
,
1001
0010
1000
0010
,
1000
0100
0010
0001
,
0100
0010
0100
0001
,
0010
0001
0100
1000
,
1001
0001
0010
0001
,
0100
0010
1000
0001
,
1000
0100
0010
0001
,
0201
0310
1200
0310
,
0110
0001
0100
1000
,
0001
0010
0001
0100
,
1000
0010
0100
0001
,
0010
0000
1100
0000
0010
0000
1000
0001
,
1000
0010
0100
0001
,
0011
0100
1000
0001
,
1010
0000
0000
0100
0000
0000
0001
1000
,
0001
0010
0001
0100
,
2002
0000
0000
0000
,
0000
0000
0000
3000
,
0010
0010
0010
0010
,
0010
0010
0010
0013
,
0002
0000
0203
0000
,
0320
0000
2030
0000
,
3100
1000
0001
1000
,
0010
0010
1000
0100
,
2002
3000
0200
0300
,
2000
3000
0200
0303
,
1000
0010
1000
0001
,
0010
0001
0100
0010
,
1000
1001
0001
1001
,
0100
0110
0010
0110
,
1000
1100
0001
0101
,
0020
0000
0000
0000
1000
0000
0031
0010
,
1000
0100
0001
0010
,
0100
0000
1000
0000
0010
1000
0001
1000
,
0100
0010
0001
0100
,
1000
0000
0001
0000
1000
0000
0010
0100
,
0010
0100
0001
0010
,
1000
0000
0100
0000
1000
0001
0100
0010
,
1000
0001
0010
0100
,
1000
0010
1000
0000
0001
0010
0001
0000
,
0110
0000
1000
0000
0100
0000
0010
0001
,
0010
0000
0001
0100
0001
0000
1000
0010
,
1000
0001
1000
0100
,
0010
0000
0001
1000
0001
0000
0100
0000
,
1001
0010
1000
0100
,
1001
0010
0001
0100
,
1001
0000
0100
0000
0010
1000
0010
1000
,
0001
0001
0001
0001
,
0011
0000
0100
0000
1000
0001
1000
0000
,
0000
1100
0000
0000
0001
0000
0100
0000
,
1001
0000
0010
0000
1000
0100
1000
0000
,
0000
0001
0010
0001
0100
0000
0000
0000
,
0110
0000
0100
0001
1000
0001
0100
0000
,
0000
1010
0000
0000
1001
0000
1000
0000
,
1100
0010
0101
0010
,
1001
0000
0110
0000
1001
0000
0100
0010
,
1000
0000
0000
0000
;

//---------------dance-single - ----------------
#NOTES:
     dance-single:
     :
     Beginner:
     5:
     0.201835,0.334862,0.256881,0.036697,0.000000,154.000000,126.000000,28.000000,4.000000,0.000000,0.000000,0.201835,0.334862,0.256881,0.036697,0.000000,154.000000,126.000000,28.000000,4.000000,0.000000,0.000000:
// measure 0
0000
0000
0000
0000
,  // measure 1
0000
0000
0000
0000
,  // measure 2
0000
0000
0000
0000
,  // measure 3
0000
0000
0000
0000
,  // measure 4
0000
0000
0000
0010
,  // measure 5
0010
0000
0000
0000
,  // measure 6
0100
0000
0001
0000
,  // measure 7
0100
0000
0010
0000
,  // measure 8
1000
0000
0001
0000
,  // measure 9
1001
0000
0000
0000
,  // measure 10
0000
0000
0000
1000
,  // measure 11
1000
0000
0010
0000
,  // measure 12
0100
0000
0001
0001
,  // measure 13
0001
0000
0000
0000
,  // measure 14
0010
0000
0001
0000
,  // measure 15
0110
0000
1000
1000
,  // measure 16
1000
0000
0000
0000
,  // measure 17
1001
0000
0100
0000
,  // measure 18
0010
0000
0100
0100
,  // measure 19
0100
0000
0001
0000
,  // measure 20
1000
0000
0100
0000
,  // measure 21
0110
0000
0000
0010
,  // measure 22
0010
0000
0000
0000
,  // measure 23
0001
0000
1000
0000
,  // measure 24
1001
0000
0110
0000
,  // measure 25
1001
0000
0000
0100
,  // measure 26
0100
0000
0000
0010
,  // measure 27
0010
0000
1000
0000
,  // measure 28
0000
0110
0000
1000
,  // measure 29
1000
0000
0000
0001
,  // measure 30
0001
0000
0000
0000
,  // measure 31
1001
0000
0100
0100
,  // measure 32
0100
0000
0010
0000
,  // measure 33
0110
0000
0000
0000
,  // measure 34
0000
0000
0000
0000
,  // measure 35
0000
0000
0000
0000
,  // measure 36
0000
0000
0000
0000
,  // measure 37
2000
0000
3000
0000
,  // measure 38
0002
0000
0003
0000
,  // measure 39
0020
0000
0030
0000
,  // measure 40
0200
0000
0300
0000
,  // measure 41
0110
0000
0000
0000
,  // measure 42
0001
0000
0000
0000
,  // measure 43
1000
0000
0000
0000
,  // measure 44
0010
0000
0000
0000
,  // measure 45
0000
1001
0000
1001
,  // measure 46
0000
0110
0000
0110
,  // measure 47
0000
1001
0000
1000
,  // measure 48
1000
0000
0001
0001
,  // measure 49
0001
0000
0100
0000
,  // measure 50
0010
0000
1000
0000
,  // measure 51
0100
0000
0010
0000
,  // measure 52
0100
0000
1000
0000
,  // measure 53
0110
0000
0001
0000
,  // measure 54
0100
0000
0010
0010
,  // measure 55
0010
0000
1000
0000
,  // measure 56
0100
0100
0100
0000
,  // measure 57
1001
0000
0001
0001
,  // measure 58
0001
0000
1000
1000
,  // measure 59
1000
0000
0100
0000
,  // measure 60
0010
0010
0010
0010
,  // measure 61
0010
0000
0001
0000
,  // measure 62
0110
0000
1000
0000
,  // measure 63
1001
0000
0110
0000
,  // measure 64
1001
0000
0000
0000
,  // measure 65
0110
0000
0000
0000
,  // measure 66
0000
1000
1000
0000
,  // measure 67
0110
0000
0000
0000
,  // measure 68
0000
0100
0100
0000
,  // measure 69
1001
0000
0001
0000
,  // measure 70
0100
0100
0100
0000
,  // measure 71
1001
0000
0110
0000
,  // measure 72
1000
1000
1000
0000
,  // measure 73
1001
0000
0000
0000
;
