#TITLE:Goodbye to You;
#ARTIST:Scandal;
#BANNER:Goodbye to You-bn.png;
#BACKGROUND:Goodbye to You-bg.png;
#JACKET:Goodbye to You-jacket.png;
#MUSIC:Goodbye to You.ogg;
#OFFSET:1.333;
#SAMPLESTART:30;
#SAMPLELENGTH:20;
#LASTBEATHINT:0.868;
#DISPLAYBPM:156:163;
#BPMS:0=160,12=159,16=161,24=162,52=161,60=159.6,68=160.1,76=161.4,128=160.8,156=159.5,160=160.1,168=161.2,176=160.75,180=159.8,188=158,208=157,212=158.35,216=159,224=158.74,232=159.6,248=160.325,260=159.8,264=161,272=162,280=163,300=156;
#BGCHANGES:;

//---------------dance-single - ----------------
#NOTES:
     dance-single:
     :
     Beginner:
     2:
     :
0000
0000
0000
0000
,
0000
0000
0000
0000
,
0000
0000
0000
0000
,
0000
0000
0000
0000
,
0000
0000
0000
0000
,
0001
0000
0000
0000
,
1000
0000
0000
0000
,
0010
0000
0000
0000
,
1000
0000
0000
0000
,
0100
0000
0000
0000
,
0010
0000
0000
0000
,
0001
0000
0000
0000
,
1000
0000
0000
0000
,
0000
0000
0010
0000
,
1000
0000
0100
0000
,
1000
0000
0001
0000
,
0001
0000
0000
0000
,
0000
0000
0010
0000
,
0001
0000
0100
0000
,
0010
0000
1000
0000
,
1000
0000
0000
0000
,
0000
0000
0001
0000
,
0010
0000
1000
0000
,
0000
0000
0100
0000
,
1000
0000
0001
0000
,
0000
0000
0100
0000
,
0010
0000
0100
0000
,
0110
0000
0000
0000
,
0001
0000
1000
0000
,
1001
0000
0000
0000
,
0010
0000
0100
0000
,
0110
0000
0000
0000
,
0010
0000
1000
0000
,
1001
0000
0000
0000
,
0001
0000
0000
0000
,
0010
0000
0000
0000
,
0001
0000
0100
0000
,
1000
0000
0000
0000
,
0010
0000
0100
0000
,
0010
0000
1000
0000
,
0001
0000
0000
0000
,
0010
0000
0001
0000
,
0100
0000
0010
0000
,
1000
0000
0000
0000
,
0001
0000
0000
0000
,
1000
0000
0000
0000
,
0100
0000
0010
0000
,
0001
0000
0000
0000
,
0100
0000
0000
0000
,
0010
0000
0000
0000
,
0100
0000
0001
0000
,
1000
0000
0000
0000
,
0010
0000
0000
0000
,
1000
0000
0000
0000
,
0100
0000
0010
0000
,
0110
0000
0000
0000
,
1001
0000
0000
0000
,
0110
0000
0000
0000
,
1000
0000
0001
0000
,
1001
0000
0000
0000
,
0010
0000
0000
0000
,
0100
0000
0000
0000
,
0001
0000
0010
0000
,
1000
0000
0000
0100
,
0100
0000
0000
0000
,
0010
0000
0000
0000
,
0001
0000
1000
0000
,
0010
0000
1000
0000
,
0100
0000
0010
0000
,
0001
0000
0100
0000
,
0001
0000
1000
0000
,
0010
0000
1000
0000
,
0100
0000
0001
0000
,
0010
0000
0010
0000
,
0010
0000
0001
0000
,
1000
0000
0001
0000
,
0110
0000
0000
0000
,
1001
0000
0000
0000
;

//---------------dance-single - ----------------
#NOTES:
     dance-single:
     :
     Easy:
     7:
     :
0000
0000
0000
0000
,
0000
0000
0000
0000
,
0000
0000
0000
0000
,
0000
0000
0000
0000
,
0000
0000
0000
0000
,
0001
0000
1000
0000
0100
0000
0000
0010
,
0000
0000
0001
0000
1000
0000
0000
0001
,
0000
0000
1000
0000
0010
0000
0000
0100
,
0000
0000
0001
0000
0000
1001
0000
0110
,
0000
0000
1000
0000
0001
0000
0000
0010
,
0000
0000
0001
0000
0100
0000
0000
0010
,
0000
0000
1000
0000
0001
0000
0000
0010
,
0000
0110
0000
0000
1000
0000
0001
0000
,
0000
1001
0010
1000
,
0100
0010
0001
0100
,
1000
0000
1000
0001
,
0100
0000
0000
0000
0000
1001
0000
0110
,
0000
1000
0100
0001
,
0010
0001
0100
0010
,
0000
1000
0100
0001
,
1000
0000
0010
0000
0000
1001
0000
0110
,
0000
1000
0010
1000
,
0100
0010
0001
0100
,
0000
0001
0010
1000
,
0100
0010
0100
1000
,
0000
0001
0010
1000
,
0100
0000
0000
1100
0000
0011
0000
0000
,
1001
0010
1000
0100
,
0001
0000
0000
0011
0000
1100
0000
0000
,
0110
0001
0100
0010
,
1000
0000
0000
1010
0000
0101
0000
0000
,
0110
0001
0010
1000
,
0100
0000
0000
0101
0000
1010
0000
0000
,
1001
0010
1000
0001
,
1000
0100
0010
0001
,
0100
0000
0001
0010
,
1000
0100
1000
0001
,
0100
0000
0000
0000
0001
0000
0000
1000
,
0000
0100
0000
2000
0000
0000
3001
0000
,
0000
0000
0010
1000
,
0001
0000
0100
0000
,
0100
0000
0000
0000
0010
0000
0000
1000
,
0000
0002
0000
0000
0013
0000
0000
0001
,
0000
0100
0000
0010
,
0000
1000
0000
0100
,
0000
1000
0000
0001
,
0100
0100
0010
1000
,
0100
0010
0000
0001
,
0000
0010
0000
1000
,
0000
0100
0000
0010
,
0100
1000
0010
1000
,
0001
0001
0000
0010
,
0000
0100
0000
0010
,
0000
0001
0000
1000
,
0001
1000
0100
1000
,
2020
0000
0030
3001
,
0022
0000
0030
1003
,
0202
0000
0300
0013
,
0001
0100
1000
0010
,
0202
0000
0000
0303
,
2200
0000
0000
3300
,
2002
0000
0000
3003
,
0010
1000
0100
0001
,
0022
0000
0030
1003
,
2020
0000
0000
3030
,
0220
0000
0000
0330
,
0001
0000
0000
1000
0000
0100
0000
0000
,
1001
0010
1000
0100
,
1000
0010
0100
0001
,
0010
0001
0010
0100
,
1000
0010
1000
0001
,
0010
0100
0010
0001
,
0100
0010
1000
1000
,
1000
0100
0001
0010
,
0100
0010
0001
1000
,
1100
1100
0101
0101
,
1001
0000
0000
0011
0000
1100
0000
0000
,
2002
0000
0000
0000
,
0000
0000
0000
3003
;

//---------------dance-single - ----------------
#NOTES:
     dance-single:
     :
     Medium:
     10:
     :
0000
0000
0000
0000
,
0000
0000
0000
0000
,
0000
0000
0000
0000
,
0000
0000
0000
0000
,
0000
0000
0000
0000
,
0001
0000
0010
0000
1000
0100
1000
0001
,
0000
0000
0100
0000
0010
1000
0001
1000
,
0000
0000
0100
0000
0010
0001
1000
0001
,
0000
0000
0100
0000
0010
1000
0000
0001
,
0000
0000
0010
0001
0010
0100
1000
0001
,
0000
0000
1000
0010
1000
0100
0010
0001
,
0000
0100
0010
0000
1000
0001
0100
0000
,
0010
1000
0000
0000
1000
0100
0001
0000
,
0010
0011
1100
0101
,
1000
0010
0100
0001
0000
1000
0000
0000
,
1010
0000
0000
0000
0101
0000
1000
0001
,
0000
0000
0100
0010
0100
0001
0000
1000
,
0000
0000
1001
0000
0010
1000
0001
0100
,
0000
0010
0000
1000
0000
0001
0000
0100
,
0000
0000
0010
1000
0001
0010
0000
0100
,
0000
1000
0001
0000
0100
0010
0000
0100
,
0000
0001
0010
0001
0010
0100
1000
0001
,
0000
1001
0000
1010
0000
0100
0001
0000
,
0000
0000
1000
0100
1000
0001
0000
0011
,
0000
0001
0100
0010
0000
1000
0001
1000
,
0000
0010
0100
0010
0100
0001
1000
0100
,
0010
0000
0000
0011
0000
1100
0000
0001
,
1000
0000
0110
0000
0001
1000
0100
0020
,
0000
0000
0000
0031
0000
1000
0000
0001
,
0200
0000
0320
0000
0030
1000
0100
0001
,
0000
0000
0000
1010
0000
0101
0000
0100
,
0010
0000
1001
0000
0010
1000
0001
0200
,
0000
0000
0000
0301
0000
0010
0000
0100
,
2000
0000
3002
0000
0003
0010
0001
0100
,
0000
0010
1000
0000
0000
0100
0010
0100
,
0010
0000
0000
0001
1000
0010
1000
0002
,
0000
0023
0000
0230
0000
1300
0001
0000
,
0000
0000
0000
0010
1000
0100
0000
1001
,
0000
1010
0000
1100
0000
0001
1000
0000
,
0000
0000
0000
0010
1000
0001
0000
0020
,
0000
0000
0002
0030
,
2000
0000
3003
0010
0100
0001
0000
0011
,
0000
0110
0000
0000
1000
0001
0000
1000
,
0000
0100
0010
0000
0000
0001
1000
0001
,
0000
0000
1010
0000
0000
0100
0001
1000
,
0000
0000
0011
0000
0000
0100
1000
0002
,
0000
2003
0000
0000
3010
0000
1000
0001
,
0000
1000
0100
0000
0000
0010
0001
0100
,
0000
0000
0101
0000
0000
0001
0010
1000
,
0000
0000
1100
0000
0000
0010
0001
0200
,
0000
0320
0000
0000
1030
0000
0001
1000
,
0000
0100
0010
0000
0000
0001
1000
0001
,
0000
0000
0110
0000
0000
0010
1000
0100
,
0000
0000
1001
0000
0000
0010
0001
0020
,
0000
0230
0000
0000
1300
0000
0001
1000
,
0020
0000
0130
0000
0000
1000
0010
0100
,
0002
0000
1003
0000
0000
0100
1000
0001
,
0200
0000
0310
0000
0000
1000
0001
0020
,
0000
0032
0000
2003
0000
3001
0100
0000
,
0202
0000
0000
0000
0000
0300
0000
0010
,
0023
0100
0000
0000
1000
0000
0031
0100
,
0020
1000
0000
0000
0001
0000
0000
1000
,
1030
0001
0000
0010
0000
0001
0000
0100
,
0020
0000
0000
0000
0030
1000
0001
1000
,
0200
0010
0000
0000
1000
0000
0301
0100
,
2000
0001
0000
0000
0010
0000
3000
0001
,
1000
0010
0000
0100
0000
0001
0000
0010
,
0100
0000
1000
0010
1000
0001
0010
0100
,
0000
1000
0100
1000
0010
0100
0001
0000
,
1000
0000
0010
1000
0001
0010
0100
1000
,
0000
0000
0001
0100
0010
1000
0001
0000
,
0011
0000
0001
0100
0010
1000
0001
0000
,
1000
0100
0001
0000
0110
0000
1001
0000
,
0110
0000
1000
0001
2000
0000
3200
0000
,
0320
0000
0032
0000
0103
0010
1000
0000
,
0001
0000
0100
0000
0001
0000
1000
0000
0100
0000
1000
0000
,
0010
0000
0000
1000
0000
0001
0000
0100
,
2002
0000
0000
0000
,
0000
0000
0000
3003
;

//---------------dance-single - ----------------
#NOTES:
     dance-single:
     :
     Hard:
     13:
     :
0000
0000
0000
0000
,
0000
0000
0000
0000
,
0000
0000
0000
0000
,
0000
0000
0000
0000
,
0000
0000
0000
0000
,
0001
0010
0100
0010
0001
0100
0010
1000
,
0000
1000
0100
0010
0100
1000
0001
0100
,
0000
0010
0100
0010
1000
0100
0010
0001
,
0000
0100
0010
0100
0001
1100
0000
1010
,
0000
0001
1000
0100
0001
0100
1000
0010
,
0000
0100
0001
0010
0100
0010
0001
1000
,
0000
0100
1000
0010
0100
1000
0100
0001
,
0010
1001
0000
0100
1000
0001
0100
0010
,
0100
0000
0101
0000
1010
0000
1000
0001
,
1000
0010
0100
0001
0000
0001
1000
0000
,
0110
0000
0001
0000
1000
0100
0010
0001
,
0100
0010
1000
0000
0001
0010
0000
0100
,
0000
1000
0001
0000
0100
0001
0010
0100
,
0000
1100
0000
0101
0000
0010
1000
0001
,
0100
0000
0001
0010
1000
0010
0100
0010
,
0001
0000
0100
0010
1000
0001
0000
1000
,
0000
0001
0001
0100
0010
0100
0001
1000
,
0000
1010
0000
0101
0000
0001
0010
0100
,
1000
0000
0010
1000
0100
0010
0001
1000
,
0000
0010
1000
0100
0000
0001
0001
0010
,
0000
0001
0100
0010
1000
0100
1000
0001
,
0100
0000
0010
1010
0000
0101
0000
1000
,
0001
0000
1001
0000
1000
0100
0010
0002
,
0000
0000
0103
0110
0000
1001
0000
0010
,
2000
0000
3200
0000
0310
0001
0100
0020
,
0000
0000
1030
1100
0000
0011
0000
0100
,
0010
0000
1000
0010
1000
0100
0010
0002
,
0000
0000
0103
0101
0000
1100
0000
0010
,
2000
0000
3002
0000
0013
0001
0100
0010
,
1000
0100
1000
0000
0001
0100
0010
0100
,
0010
0000
0000
1000
0100
0010
0001
0200
,
0000
0320
0000
1030
0001
1000
0100
0000
,
0010
0000
0000
0001
1000
0010
0000
0101
,
0000
0011
0000
2100
0000
0001
3001
0000
,
0100
0000
0000
0010
1000
0001
0000
0200
,
0000
0000
0310
1000
0002
0000
0013
0100
,
1000
0000
0000
0001
1000
0010
0000
0110
,
0000
1001
0000
0010
1000
0100
0000
0020
,
0000
0001
0031
1000
0000
0010
1000
0100
,
0000
0010
0001
1000
0000
0001
0100
0010
,
2000
0000
3100
0100
0000
0010
0001
0011
,
0000
1100
0000
0000
0001
0000
0100
0020
,
0000
1000
1030
0001
0000
0010
0100
1000
,
0000
0001
1000
0100
0000
0010
0001
0010
,
0000
0000
0001
0100
0000
0001
1000
1010
,
0000
1100
0000
0000
0020
0000
0031
1000
,
0100
1000
0010
0100
0000
0001
0010
1000
,
0100
0000
1000
0001
0000
0010
0001
0100
,
0010
0000
1000
0001
0000
1000
0100
0110
,
0000
0011
0000
0100
0001
0000
0010
0100
,
1000
0001
0200
0000
0000
0010
0310
0100
,
0002
0000
1000
1003
0000
0010
1000
0001
,
0200
0000
0010
0310
0000
1000
0001
0020
,
0000
0032
0000
0203
0000
0310
1000
0000
,
2100
0000
0000
0000
0001
0000
0000
0000
0010
0000
0000
0000
3001
0000
0100
0010
,
0200
0000
0000
0000
1000
0000
0000
0000
0010
0000
0000
0000
0301
0000
1000
0010
,
2000
0000
0000
0000
0001
0000
0000
0000
0100
0000
0000
0000
3010
0000
1000
0001
,
1000
0000
0100
0000
0000
0000
0011
0000
0000
0000
1100
0000
0000
0000
0001
1000
,
0002
0000
0000
0000
0010
0000
0000
0000
1003
0000
0010
0100
0010
0100
0010
0100
,
0020
0000
1000
0000
1000
0000
0000
0000
0100
0000
0000
0000
0031
0000
0010
1000
,
0020
0000
0100
0000
0000
0000
0001
0000
0001
0000
0000
0000
1030
0000
0001
0010
,
0001
0100
0000
1001
0000
0011
0000
0100
,
1000
0000
0010
0100
0010
0000
1000
0000
0001
0000
0100
0000
0010
0000
2000
0000
,
0000
0000
0001
0000
3001
0000
0100
0000
1000
0000
0100
0000
0001
0000
0010
0100
,
0010
0000
0001
0000
1000
0000
0010
0100
0010
0000
1000
0000
0100
0000
0002
0000
,
0000
0000
0010
0000
0013
0000
0100
0000
1000
0000
0010
0000
0100
0001
0100
0001
,
0200
0000
0310
1000
0001
0010
0002
0000
,
1003
0100
0100
0010
0002
0000
2003
0000
,
3020
0000
1030
0100
0001
0100
0010
0100
,
0001
0100
1000
0010
0001
0010
1000
0000
,
0101
0000
1100
0000
0101
0000
0011
0000
0110
0000
1100
0000
,
1010
0000
0000
0000
0101
0000
0000
0000
0000
0001
0000
0000
0000
0000
0000
0001
0000
0000
0000
0000
0000
0100
0000
0000
,
2002
0000
0000
0000
,
0000
0000
0000
3003
;
