#TITLE:Girlfriend;
#SUBTITLE:;
#ARTIST:Avril Lavigne;
#TITLETRANSLIT:;
#SUBTITLETRANSLIT:;
#ARTISTTRANSLIT:;
#GENRE:;
#CREDIT:;
#BANNER:Girlfriend-bn.png;
#BACKGROUND:Girlfriend-bg.png;
#LYRICSPATH:;
#CDTITLE:;
#MUSIC:Girlfriend.ogg;
#OFFSET:0.700000;
#SAMPLESTART:59.299999;
#SAMPLELENGTH:20.000000;
#SELECTABLE:YES;
#DISPLAYBPM:164.000000;
#BPMS:0.000000=164.000000
;
#STOPS:
;
#BGCHANGES:;
#KEYSOUNDS:;
#ATTACKS:;

//---------------dance-single - ----------------
#NOTES:
     dance-single:
     :
     Hard:
     12:
     0.598868,0.635001,0.618909,0.000000,0.053639,508.000000,433.000000,75.000000,0.000000,0.000000,0.000000,0.598868,0.635001,0.618909,0.000000,0.053639,508.000000,433.000000,75.000000,0.000000,0.000000,0.000000:
0000
0000
0000
0000
,
0000
0000
0000
0000
,
0000
0000
0000
0000
,
0000
0000
0000
0000
,
0000
0000
0000
0000
,
0000
0000
0000
0000
,
0000
0000
0000
0000
,
1001
0000
1000
0100
0000
0100
0001
0000
,
0010
0001
0010
0100
1000
0010
0100
0000
,
0101
0101
1010
1010
,
0001
0100
0010
0100
0001
0000
1000
0000
,
1100
1100
0101
0101
,
1000
0001
0010
0001
1000
0000
0010
0000
,
0110
0110
1001
1001
,
1000
0001
0010
0100
1000
0000
0010
0000
,
1001
0000
0001
0100
0000
0100
1000
0000
,
0010
1000
0010
0100
0010
1000
0001
0100
,
0000
0000
0001
0010
0001
0100
0010
1000
,
0100
0010
0100
1000
0001
0000
1000
0000
,
0000
0010
0010
0100
0001
1000
0001
0100
,
0010
1000
0100
0010
0001
0000
1000
0000
,
0000
0000
0001
0010
0100
1000
0010
0100
,
0001
1000
0100
1000
0100
0010
0000
0001
,
1000
1000
0000
0001
0010
0010
0000
0001
,
0100
0000
0100
0000
0000
0000
0001
0000
1000
0000
0010
0000
0100
0000
0001
1000
,
0001
0000
0010
0001
0100
0010
1000
0100
,
1000
0001
0100
0000
0101
0000
1010
0000
,
0001
1000
1100
0000
0101
0000
0010
1000
,
0100
0000
0001
0000
0100
0000
1000
0000
1001
0000
0000
0000
0110
0000
1000
0001
,
1000
0000
0010
0100
0010
1000
0001
0010
,
0100
0000
1000
0010
0100
0001
0000
0001
,
1000
1000
0000
0001
0010
0010
0000
0001
,
0100
0000
0100
0000
0000
0000
0001
0000
0010
0000
0100
0000
1000
0001
1000
0001
,
1000
0000
0000
0000
1100
0000
0000
0000
0011
0000
0000
0000
0000
0000
0100
0010
,
0100
0000
0001
1000
0000
0100
0000
1000
,
1000
0000
0000
0000
0001
0000
0100
0000
1000
0000
0000
0000
0000
0000
0010
0100
,
0010
1000
0000
1100
0000
0101
0000
0000
,
0001
0000
0011
0000
0101
0000
1000
0100
,
0010
0000
0000
0000
0001
0000
1000
0000
0000
0000
0010
0000
0000
0000
1000
0100
,
1000
0000
0001
0000
0000
0100
0100
0010
,
1000
0100
0001
0000
0010
0010
0010
0000
,
0011
0011
1010
1010
,
0001
1000
0010
1000
0100
0010
0001
0000
,
0101
0101
1100
1100
,
1000
0001
0010
0001
0100
0010
1000
0000
,
1001
1001
0110
0110
,
0010
1000
0010
0100
0001
0010
1000
0000
,
1001
0000
1000
0100
0000
0100
0001
0000
,
0010
0000
0010
0000
0001
0000
0100
0000
0000
0000
0010
0000
0010
0000
1000
0001
,
1000
1000
0101
0101
,
0010
1000
0100
0010
0001
1000
0001
0000
,
0011
0011
1100
1100
,
0010
1000
0001
1000
0100
0010
0001
0000
,
0110
0110
1001
1001
,
0100
0001
0010
0001
0100
0010
1000
0000
,
1001
0000
0001
0010
0000
0010
1000
0000
,
0100
0000
0100
0000
0010
0000
0001
0000
1000
0000
0010
0000
1000
0001
1000
0001
,
1000
0000
0001
0100
0010
0100
1000
0100
,
0001
0100
0010
1000
0100
0000
0100
0000
,
0000
0000
0010
0001
0000
1000
0000
0001
,
0100
1000
0100
0001
0010
0000
0010
0000
,
0000
0001
1000
0001
0000
0100
0000
0010
,
1000
0100
0001
0100
1000
0000
1000
0000
,
0000
0010
1000
0100
0000
0100
0010
0001
,
0100
0010
1000
0000
0001
0000
0001
0000
,
0011
0011
1010
1010
,
0100
0001
0100
0010
1000
0000
1000
0000
,
1100
1100
0101
0101
,
1000
0001
1000
0010
0100
0000
0100
0000
,
0110
0110
1001
1001
,
0010
1000
0100
0010
0001
0000
0001
0000
,
1001
0000
0001
0010
0000
0010
1000
0000
,
0010
0000
1000
0000
0001
0000
0100
0000
0000
0000
0001
0000
1000
0000
0010
0100
,
0010
0010
1001
1001
,
0100
0001
0100
0010
1000
0100
0001
0000
,
0011
0011
0101
0101
,
1000
0001
0100
0010
1000
0100
0001
0000
,
1010
1010
1100
1100
,
0010
0001
1000
0001
0100
0010
1000
0000
,
1001
0000
1000
0010
0000
0010
0001
0000
,
0100
0000
0010
0000
0100
0000
0001
0000
1000
0010
1000
0010
1000
0000
0000
0000
,
0110
0000
0000
0000
;

//---------------dance-single - ----------------
#NOTES:
     dance-single:
     :
     Medium:
     10:
     0.472729,0.501316,0.511631,0.000000,0.000000,401.000000,339.000000,62.000000,0.000000,0.000000,0.000000,0.472729,0.501316,0.511631,0.000000,0.000000,401.000000,339.000000,62.000000,0.000000,0.000000,0.000000:
0000
0000
0000
0000
,
0000
0000
0000
0000
,
0000
0000
0000
0000
,
0000
0000
0000
0000
,
0000
0000
0000
0000
,
0000
0000
0000
0000
,
0000
0000
0000
0000
,
1001
0000
0000
0010
0000
0010
1000
0000
,
0001
0100
0000
0010
0000
1000
0001
0000
,
1100
1100
0101
0101
,
1000
0000
0010
0100
0001
0000
0001
0000
,
0011
0011
1100
1100
,
0001
0000
1000
0010
0100
0000
0100
0000
,
0110
0110
1001
1001
,
1000
0000
0100
0010
0001
0000
1000
0000
,
1001
0000
0000
0010
0000
0010
1000
0000
,
0100
0010
0000
0001
0000
1000
0010
0000
,
1000
0001
0000
0001
0100
0001
0000
0001
,
0100
0010
0000
0010
1000
0100
0000
0100
,
0010
0001
0000
1000
0010
1000
0000
0010
,
1000
0100
0000
0100
0010
0001
0000
0001
,
1000
0010
0000
1000
0100
0010
0000
0001
,
1000
0001
0000
1000
0100
0010
0000
0001
,
0010
0001
0000
0001
1000
0001
0000
0001
,
0100
0001
0000
0001
0010
0100
0000
0100
,
1000
0010
0000
0010
0100
0001
0000
0010
,
0001
1000
0000
0001
1000
0001
0000
0100
,
0010
0100
0000
0001
0010
0100
0000
1000
,
0100
1000
0000
0100
1000
0001
0000
0100
,
0010
1000
0000
0001
1000
0100
0000
0010
,
0001
0100
0000
0010
1000
0001
0000
0001
,
0010
0001
0000
0001
1000
0001
0000
0001
,
0100
0001
0000
0001
0010
0100
0000
1000
,
0010
1010
0101
0000
,
1000
0000
0100
0010
0000
0001
0000
0000
,
0000
0000
1000
0001
0100
0000
0000
0000
,
0010
1000
0000
1001
0000
0110
0000
0000
,
0000
0000
0100
0000
0010
0000
0100
0001
,
1000
0000
0100
0010
0000
0001
0000
1000
,
0000
0001
0100
0000
0000
0010
1000
0000
,
0100
0010
0100
0000
1000
0001
0100
0000
,
0110
0110
1001
1001
,
0010
0000
1000
0001
1000
0000
0100
0000
,
0011
0011
1010
1010
,
0100
0000
0001
1000
0001
0000
0010
0000
,
1001
1001
0110
0110
,
1000
0000
0010
0100
0001
0000
0001
0000
,
1001
0000
0000
0100
0000
0010
0100
0000
,
0001
1000
0000
0100
0000
0010
0001
0000
,
0011
0011
0101
0101
,
1000
0000
0001
1000
0010
0000
0100
0000
,
0110
0110
1010
1010
,
0100
0000
0001
1000
0001
0000
0010
0000
,
0011
0011
1100
1100
,
0010
0000
1000
0001
1000
0000
0100
0000
,
1001
0000
0000
0100
0000
0100
0001
0000
,
1000
0001
0000
0010
0000
0100
1000
0000
,
0000
0000
1000
0010
0000
0000
0001
0000
,
0000
0000
0001
1000
0000
0000
0100
0000
,
0000
0000
1000
0100
0000
0000
0010
0000
,
0000
0000
0001
1000
0000
0000
0010
0000
,
0000
0000
0100
0001
0000
0000
0010
0000
,
0000
0000
0100
0010
0000
0000
0100
0000
,
0000
0000
1000
0001
0000
0000
1000
0000
,
0000
0000
0010
0100
0000
0000
0001
0000
,
1001
0000
0110
0000
0000
0010
0100
0000
,
0001
0000
1000
0000
0000
0100
0010
0000
,
0001
0000
0010
0000
0000
0001
1000
0000
,
0100
0000
0010
0000
0000
0001
0100
0000
,
0010
0000
1000
0000
0000
0001
1000
0000
,
0100
0000
1000
0000
0000
0010
0001
0000
,
1001
0000
0000
0100
0000
0100
0010
0000
,
1000
0010
0000
1000
0000
0001
0100
0000
,
0101
0101
1100
1100
,
0010
0000
0001
1000
0001
0000
0100
0000
,
1010
1010
0101
0101
,
1000
0000
0100
0010
0001
0000
1000
0000
,
0110
0110
1001
1001
,
0010
0000
1000
0001
1000
0000
0100
0000
,
1001
0000
0000
1000
0000
1000
0001
0000
,
0010
0001
0000
0100
0000
0000
1001
0000
,
0110
0000
0000
0000
;

//---------------dance-single - ----------------
#NOTES:
     dance-single:
     :
     Easy:
     7:
     0.319475,0.401053,0.305328,0.000000,0.000000,271.000000,234.000000,37.000000,0.000000,0.000000,0.000000,0.319475,0.401053,0.305328,0.000000,0.000000,271.000000,234.000000,37.000000,0.000000,0.000000,0.000000:
0000
0000
0000
0000
,
0000
0000
0000
0000
,
0000
0000
0000
0000
,
0000
0000
0000
0000
,
0000
0000
0000
0000
,
0000
0000
0000
0000
,
0000
0000
0000
0000
,
1001
0010
1000
0100
,
1000
1000
0001
0001
,
1001
0100
0000
0100
,
0000
0010
0000
0010
,
0000
1000
0000
1000
,
0000
0001
0000
0001
,
0000
0010
0000
0010
,
0000
0100
0000
0100
,
1001
0010
0100
0010
,
1000
0100
1000
0001
,
0100
0000
0100
0000
,
0100
0000
0100
0000
,
0000
0010
1000
0010
,
0100
0100
0001
1000
,
0000
0001
0010
0001
,
0100
0010
1000
0100
,
0001
0000
0001
0000
,
0001
0000
0001
0000
,
0000
0010
0001
0100
,
0010
1000
0100
0100
,
0000
1100
0101
0010
,
1000
0001
1001
1001
,
0000
0010
1000
0010
,
0100
0010
1000
0100
,
0001
0000
0001
0000
,
0001
0000
0001
0000
,
0000
0011
1100
0000
,
0010
1000
0100
0000
,
0000
1010
0101
0000
,
0010
1000
0100
0000
,
0000
1000
0001
1000
,
0100
0100
0010
0001
,
0100
0010
0000
0010
,
1000
1000
0001
0001
,
0010
0011
0001
0011
,
1000
0010
1000
0100
,
0010
1001
0100
1001
,
0010
1000
0100
0010
,
0001
0101
1000
1100
,
0010
1000
0100
0010
,
1001
0100
0001
0100
,
0010
0010
1000
0001
,
1000
1010
0010
1010
,
0010
1000
0100
0001
,
0010
0110
0100
0110
,
0010
0001
1000
0010
,
0100
0101
0100
1100
,
0010
1000
0100
0010
,
1001
0001
0100
0001
,
1000
0010
1000
0100
,
0110
1000
0000
1000
,
0000
0001
0000
0001
,
0000
1000
0000
1000
,
0000
0001
0000
0001
,
0000
0100
0000
0100
,
0000
0010
0000
0010
,
0000
0100
0000
0100
,
0000
0010
0000
0010
,
1001
0100
0000
0010
,
0000
1000
0000
0001
,
0000
0010
0000
0100
,
0000
1000
0000
0010
,
0000
1000
0000
0001
,
0000
1000
0000
0100
,
1001
0000
0100
0010
,
0100
0100
0100
0010
,
1000
0101
0001
1010
,
1000
0001
0010
0100
,
0010
1001
0100
1001
,
0010
1000
0100
0010
,
0001
1010
0100
1010
,
1000
0001
1000
0100
,
1001
1000
0010
0100
,
0001
0010
0100
1001
,
0110
0000
0000
0000
;

//---------------dance-single - ----------------
#NOTES:
     dance-single:
     :
     Beginner:
     3:
     0.165042,0.233948,0.090773,0.000000,0.000000,140.000000,129.000000,11.000000,0.000000,0.000000,0.000000,0.165042,0.233948,0.090773,0.000000,0.000000,140.000000,129.000000,11.000000,0.000000,0.000000,0.000000:
// measure 0
0000
0000
0000
0000
,  // measure 1
0000
0000
0000
0000
,  // measure 2
0000
0000
0000
0000
,  // measure 3
0000
0000
0000
0000
,  // measure 4
0000
0000
0000
0000
,  // measure 5
0000
0000
0000
0000
,  // measure 6
0000
0000
0000
0000
,  // measure 7
1001
0000
0100
0000
,  // measure 8
0001
0000
0000
0000
,  // measure 9
1001
0000
0000
0000
,  // measure 10
1000
0000
0000
0000
,  // measure 11
0001
0000
0000
0000
,  // measure 12
0100
0000
0000
0000
,  // measure 13
0010
0000
0000
0000
,  // measure 14
1000
0000
0000
0000
,  // measure 15
1001
0000
0100
0000
,  // measure 16
0010
0000
0000
0000
,  // measure 17
0000
0000
0000
0000
,  // measure 18
0000
0000
0000
0000
,  // measure 19
0001
0000
0001
0000
,  // measure 20
1000
0000
1000
0000
,  // measure 21
0010
0000
0010
0000
,  // measure 22
0100
0000
0100
0000
,  // measure 23
0001
0000
0000
0000
,  // measure 24
0000
0000
0000
0000
,  // measure 25
0010
0000
0010
0000
,  // measure 26
0001
0000
0001
0000
,  // measure 27
1000
0000
1000
0000
,  // measure 28
0100
0000
0100
0000
,  // measure 29
1000
0000
1000
0000
,  // measure 30
0100
0000
0010
0000
,  // measure 31
0001
0000
0000
0000
,  // measure 32
0000
0000
0000
0000
,  // measure 33
0000
1000
1000
0000
,  // measure 34
0010
0000
0100
0000
,  // measure 35
0000
0001
0001
0000
,  // measure 36
1000
0000
0001
0000
,  // measure 37
0000
0100
0100
0000
,  // measure 38
0010
0000
1000
0000
,  // measure 39
0110
0000
0000
0000
,  // measure 40
0001
0001
0001
0000
,  // measure 41
1000
0000
0010
0000
,  // measure 42
1000
1000
1000
0000
,  // measure 43
0010
0000
0010
0000
,  // measure 44
0100
0100
0100
0000
,  // measure 45
0001
0000
1000
0000
,  // measure 46
0100
0100
0100
0000
,  // measure 47
1001
0000
0010
0000
,  // measure 48
0100
0000
0000
0000
,  // measure 49
0001
0000
1000
0000
,  // measure 50
0001
0001
0001
0000
,  // measure 51
0010
0000
0100
0000
,  // measure 52
1000
1000
1000
0000
,  // measure 53
0010
0000
1000
0000
,  // measure 54
0001
0001
0001
0000
,  // measure 55
1001
0000
0100
0000
,  // measure 56
0001
0000
0000
0000
,  // measure 57
0110
0000
0000
0000
,  // measure 58
0010
0000
0000
0000
,  // measure 59
1000
0000
0000
0000
,  // measure 60
0001
0000
0000
0000
,  // measure 61
1000
0000
0000
0000
,  // measure 62
0100
0000
0000
0000
,  // measure 63
0010
0000
0000
0000
,  // measure 64
0001
0000
0000
0000
,  // measure 65
1001
0000
0000
0000
,  // measure 66
0010
0010
0010
0000
,  // measure 67
0100
0000
0000
0000
,  // measure 68
0001
0001
0001
0000
,  // measure 69
1000
0000
0000
0000
,  // measure 70
0100
0100
0100
0000
,  // measure 71
1001
0000
1000
0000
,  // measure 72
0001
0000
0000
0000
,  // measure 73
1000
0000
0010
0000
,  // measure 74
0100
0100
0100
0000
,  // measure 75
0001
0000
0010
0000
,  // measure 76
0001
0001
0001
0000
,  // measure 77
0010
0000
0100
0000
,  // measure 78
1000
1000
1000
0000
,  // measure 79
1001
0000
1000
0000
,  // measure 80
0010
0000
0100
0000
,  // measure 81
0110
0000
0000
0000
;
