#TITLE:Ghostbusters;
#SUBTITLE:;
#ARTIST:Ray Parker Jr.;
#TITLETRANSLIT:;
#SUBTITLETRANSLIT:;
#ARTISTTRANSLIT:;
#GENRE:;
#CREDIT:;
#BANNER:Ghostbusters-bn.png;
#BACKGROUND:Ghostbusters-bg.png;
#LYRICSPATH:;
#CDTITLE:;
#MUSIC:Ghostbusters.ogg;
#OFFSET:0.000000;
#SAMPLESTART:20.754000;
#SAMPLELENGTH:20.000000;
#SELECTABLE:YES;
#DISPLAYBPM:116.000000;
#BPMS:0.000000=115.639999
;
#STOPS:
;
#BGCHANGES:;
#KEYSOUNDS:;
#ATTACKS:;

//---------------dance-single - ----------------
#NOTES:
     dance-single:
     :
     Hard:
     14:
     0.563729,0.584542,0.515070,0.332303,0.419533,475.000000,413.000000,62.000000,40.000000,0.000000,0.000000,0.563729,0.584542,0.515070,0.332303,0.419533,475.000000,413.000000,62.000000,40.000000,0.000000,0.000000:
0000
0000
0000
0000
,
0000
0000
0000
0000
,
0000
0000
0000
0000
,
0020
0000
2030
0000
3200
0000
0320
0000
0032
0000
0203
0000
,
0302
0000
2003
0000
3020
0000
0230
0000
0000
0300
0000
0000
,
0001
1000
0001
1000
0001
1000
0001
1000
0001
1000
0001
1000
0001
1000
0001
1000
,
0001
0000
0010
0000
0100
1000
0100
0000
1001
0000
0000
0000
0110
0000
0000
0000
,
1000
0000
0010
0000
0100
0001
0100
0000
1010
0000
0000
0000
0101
0000
0000
0000
,
0010
0000
0100
0000
1000
0001
1000
0000
1100
0000
0000
0000
0011
0000
0000
0000
,
0001
0000
0100
0000
0010
1000
0010
0000
0100
0000
0100
0000
0100
0010
0100
0000
,
0000
0000
0001
0010
0001
0000
0100
0000
1000
0000
1000
0000
0010
0000
0000
0000
,
0100
0000
0000
0000
0001
1000
0001
1000
0001
0000
0010
0000
0100
0000
1000
0000
,
0000
0000
0010
0100
0010
0000
1000
0000
0001
0000
0001
0000
0011
0000
0000
0000
,
1100
0000
1100
0000
0001
1000
0001
1000
0001
0000
0100
0000
0100
0000
0010
1000
,
0010
0000
0100
0000
0100
0000
0000
0000
0110
0000
0000
0000
1001
0000
1000
0100
,
1000
0000
0010
0000
0100
0001
0100
0000
0010
0000
0010
0000
0010
0000
0000
0000
,
1000
0100
0010
0100
1000
0000
0001
0000
0100
0000
0000
0000
1010
0000
0000
0000
,
0101
0000
0101
0000
1000
0001
1000
0000
0100
0000
0100
0000
0100
0000
0010
0001
,
0010
0000
0100
0000
0100
0000
0000
0000
1001
0000
0000
0000
0110
0000
0001
0100
,
0001
0000
1000
0000
0010
0100
0010
0000
1010
0000
0000
0000
0011
0000
0000
0000
,
0100
0001
1000
0001
0100
0000
0010
0000
0010
0000
0000
0000
1001
0000
0000
0000
,
0110
0000
0110
0000
1000
0010
1000
0000
0100
0000
0100
0000
0100
0010
0001
0000
,
0102
0000
0000
0013
0000
0000
1020
0000
0000
0130
0000
0000
1002
0000
0000
0013
,
0000
0000
1200
0000
0000
1300
0000
0000
0001
0000
0001
0000
0001
0100
0010
0000
,
0120
0000
0000
1030
0000
0000
0201
0000
0000
0310
0000
0000
1002
0000
0000
0000
,
1003
0100
0010
0001
0000
0001
0100
0000
0010
0000
0010
0000
0010
1000
0001
0000
,
0012
0000
0000
1003
0000
0000
0201
0000
0000
0310
0000
0000
2010
0000
0000
3100
,
0000
0000
2001
0000
0000
3001
0000
0000
0100
0000
0100
0000
0100
0001
1000
0000
,
0201
0000
0000
0310
0000
0000
1002
0000
0000
0013
0000
0000
1200
0000
0000
0000
,
1300
0100
0010
0001
0000
0001
0100
0000
0010
1000
0010
1000
0010
0100
0001
0000
,
0010
0000
0001
0000
0100
0010
1000
0000
1100
0000
0000
0000
0101
0000
0000
0000
,
1000
0000
0001
0000
1000
0100
0010
0000
0011
0000
0000
0000
0110
0000
0000
0000
,
0100
1000
0100
0010
0001
0000
0100
0000
0010
0000
0000
0000
1001
0000
0000
0000
,
0011
0000
0011
0000
1000
0001
0100
0000
0010
1000
0100
0000
0010
0000
0001
1000
,
0001
0000
0100
0000
0100
0000
0010
0000
1010
0000
0000
0000
1100
0000
0000
0001
,
0010
0000
0010
0000
0010
0100
1000
0000
1001
0000
0000
0000
0110
0000
0001
0000
,
0001
0000
0100
0000
0010
1000
0010
0000
0100
0000
0000
0000
0101
0000
0000
0000
,
1100
0000
1100
0000
1001
0000
0100
0000
0010
0000
0010
0000
0010
1000
0001
0000
,
0100
0000
0001
0000
0020
0000
0230
0000
2300
0000
3001
0200
0000
0000
0000
0000
,
0310
1000
0010
0100
0000
0001
1000
0000
0110
0000
0000
0000
1001
0000
0000
0000
,
2000
3002
0010
0000
1000
0000
0103
0001
,
0000
0010
0001
1000
0100
0000
1000
0001
0000
0000
0100
0000
0010
0000
0100
0001
,
1000
0000
0010
0000
2000
0000
3200
0000
0320
0000
0031
2000
0000
0000
0000
0000
,
3001
0010
0100
1000
0000
1000
0001
0000
0101
0000
0000
0000
1100
0000
0000
0000
,
0020
0032
0100
0000
1000
0000
0013
0000
,
0002
0100
2003
0100
3002
0100
2003
0100
,
3001
0000
1000
0010
0100
0000
0010
0000
1000
0000
0001
0000
0010
0000
0000
0000
,
0100
0000
1000
0000
0010
0100
0010
1000
0001
0000
0001
0000
0100
0000
0000
0000
,
0001
1000
0100
0010
0001
0000
0100
0000
0001
0000
1000
0000
1010
0000
0000
0000
,
0110
0000
0110
0000
1000
0010
0100
0010
1000
0000
1000
0000
1000
0000
0001
0000
,
0000
0000
0010
0000
0001
0100
0000
0100
0010
0000
1000
0000
0001
0000
1000
0000
,
0000
0000
0100
0000
1000
0010
0100
0010
1000
0000
0001
0000
0001
0000
0100
0000
,
0000
0001
0010
0100
1000
0000
0001
0000
1000
0000
0010
0000
0101
0000
0000
0000
,
0011
0000
0011
0000
0100
1000
0010
1000
0001
0000
0001
0000
0001
0100
0010
0000
,
0110
1001
0000
0000
0000
0000
0000
0000
;

//---------------dance-single - ----------------
#NOTES:
     dance-single:
     :
     Medium:
     10:
     0.392830,0.404683,0.149536,0.166152,0.153690,331.000000,313.000000,18.000000,20.000000,0.000000,0.000000,0.392830,0.404683,0.149536,0.166152,0.153690,331.000000,313.000000,18.000000,20.000000,0.000000,0.000000:
0000
0000
0000
0000
,
0000
0000
0000
0000
,
0000
0000
0000
0000
,
0020
0000
0230
0000
,
0301
0000
0010
0000
0100
0000
1000
0000
0000
0000
0000
0000
,
0001
0001
1000
1000
0001
0001
1000
1000
,
0010
1000
0100
1000
0001
0000
0001
0000
,
0010
0001
0100
0001
1000
0000
1000
0000
,
0010
0100
0001
1000
0100
0000
0100
0000
,
1000
0010
1000
0001
0100
0100
0100
0000
,
0000
0001
0001
0100
0010
1000
0000
0000
,
0000
0000
0100
0010
1000
0001
0000
0000
,
0000
0001
0001
1000
0010
0100
0001
0000
,
1000
1000
0010
0100
0001
0001
0001
1000
,
0100
1000
0001
0000
0100
0000
0100
0001
,
1000
0100
0100
0000
0110
0000
1001
0000
,
1000
0100
1000
0100
1000
0000
0000
0000
0000
0000
0000
0000
0001
0000
0000
0000
,
0100
0100
0001
1000
0010
0010
0010
1000
,
0100
0010
0010
0000
0001
0000
0001
1000
,
0001
0100
0100
0000
1010
0000
0101
0000
,
0001
0010
0001
0010
0001
0000
0000
0000
0000
0000
0000
0000
0100
0000
0000
0000
,
1000
1000
0010
0100
0001
0001
0001
0000
,
0020
0000
0000
0031
0000
0000
0200
0000
0000
0310
0000
0000
2000
0000
0000
3001
,
0000
0000
2000
0000
0000
3100
0000
0000
0010
0000
0010
0000
0010
0000
0000
0000
,
0002
0000
0000
1003
0000
0000
0020
0000
0000
0130
0000
0000
0002
0000
0000
0000
,
1003
0000
0010
0100
0000
0010
0100
0000
0001
0000
0000
0000
0101
0000
0000
0000
,
0020
0000
0000
0130
0000
0000
2000
0000
0000
3001
0000
0000
2000
0000
0000
3010
,
0000
0000
0200
0000
0000
0301
0000
0000
0010
0000
0010
0000
0010
0000
0000
0000
,
0002
0000
0000
1003
0000
0000
0200
0000
0000
0310
0000
0000
0002
0000
0000
0000
,
1003
0000
0010
0100
0000
0010
0100
0000
0001
0000
0000
0000
1001
0000
0000
0000
,
0010
1000
0100
1000
0001
0000
0001
0000
,
0010
0001
0100
0001
1000
0010
1000
0001
,
0100
0010
0100
0010
0100
0000
0000
0000
0000
0000
0000
0000
0001
0000
0000
0000
,
1000
1000
0100
0010
0001
0001
0001
0100
,
0010
1000
0001
0000
0011
0000
1100
0000
,
0010
0010
0010
0000
0100
0000
0100
0001
,
1000
0010
1000
0001
0100
0000
0010
0000
,
0100
0000
0100
0000
0001
0000
0010
0000
0001
0000
0100
0000
0010
1000
0010
0000
,
0110
0000
0000
0000
0001
0000
1000
0000
0001
0000
0010
0100
0000
0000
0000
0000
,
1000
0000
0010
0100
0000
0010
0100
0000
0001
0000
0000
0000
0000
0000
0000
0000
,
0020
0032
0100
0000
1000
0000
0013
0000
,
0001
0000
1000
0000
0010
0000
1000
0100
0000
0000
0000
0000
0010
0000
0010
0000
,
1001
0000
0000
0000
0100
0000
0001
0000
0010
0000
0100
1000
0000
0000
0000
0000
,
0001
0000
0100
0010
0000
0100
0010
0000
1000
0000
0000
0000
0000
0000
0000
0000
,
0002
2003
0010
0000
0001
0000
3100
0000
,
1100
0101
1100
0101
,
0010
1000
1000
0100
1000
0001
0100
0000
,
0010
0100
0001
0001
0001
1000
0100
0000
,
1000
0001
1000
0001
1000
0000
0010
0000
0100
0000
0001
0000
0010
0000
0000
0000
,
0001
0001
1000
0010
1000
0100
0100
0010
,
0000
0000
0001
0000
0000
0100
0000
0000
0101
0000
0000
0000
1000
0000
0001
0000
,
0000
0000
1000
0000
0000
0010
0000
0000
1010
0000
0000
0000
0100
0000
0001
0000
,
0000
0000
0010
0100
0010
0000
0001
0000
1000
0000
0001
0000
0100
0000
0000
0000
,
0010
0010
1000
0001
1000
0100
0100
0000
,
0110
1001
0000
0000
0000
0000
0000
0000
;

//---------------dance-single - ----------------
#NOTES:
     dance-single:
     :
     Easy:
     7:
     0.275337,0.292271,0.083076,0.265843,0.000000,232.000000,222.000000,10.000000,32.000000,0.000000,0.000000,0.275337,0.292271,0.083076,0.265843,0.000000,232.000000,222.000000,10.000000,32.000000,0.000000,0.000000:
0000
0000
0000
0000
,
0000
0000
0000
0000
,
0000
0000
0000
0000
,
0020
0000
2030
0000
,
3002
0000
0203
0000
,
0310
0010
0100
0100
,
0001
0010
0001
1001
,
1000
0010
0100
0110
,
0010
1000
0100
0110
,
0010
0000
0001
0000
1000
1000
1000
0000
,
0000
0000
0001
0000
1000
0100
0000
0000
,
0000
0000
0010
0000
0001
0100
0000
0000
,
0000
0000
0010
0000
1000
0001
0100
0000
,
0010
0010
1000
0000
0100
0010
0001
0000
,
1000
1000
2000
0000
0000
0000
3000
0000
,
0001
0001
0001
0000
0100
0000
0110
0000
,
0010
0010
0010
0000
1000
0000
1000
0000
,
0001
0001
0100
0000
0010
0010
0010
0000
,
0100
0100
0200
0000
0000
0000
0300
0000
,
0010
0010
0010
0000
1000
0000
1001
0000
,
0001
0001
0001
0000
0100
0000
0010
0000
,
0100
0100
0010
0000
1000
0001
1000
0000
,
0020
0000
0030
2000
0000
3000
0200
0000
,
0300
0020
0000
0030
0001
0001
1000
0000
,
0002
0000
0003
0200
0000
0300
0020
0000
,
0030
2000
0000
3000
0100
0100
0010
0000
,
0200
0000
0300
0020
0000
0030
0002
0000
,
0003
2000
0000
3000
0010
0010
1000
0000
,
0002
0000
0003
2000
0000
3000
0200
0000
,
0300
0020
0000
0030
0001
0001
0100
0000
,
0010
1000
0001
0101
,
0001
0000
0010
0000
0100
1000
0100
1000
,
0001
0001
0002
0000
0000
0000
0103
0000
,
0001
0001
1000
0000
0010
0100
0010
0000
,
1000
1000
2000
0000
0000
0000
3000
0000
,
0010
0010
0010
0000
0000
0000
0000
0100
,
0001
0010
0001
1000
,
0100
0100
0010
0000
0001
0100
1000
0000
,
0010
2000
0100
0000
0001
0000
3100
0000
,
0001
1000
1100
0000
,
0010
0002
0100
0000
1000
0000
0103
0000
,
0010
0000
1000
0001
1000
0000
0000
0000
,
0100
0020
1000
0000
0001
0000
1030
0000
,
0010
0100
0101
0000
,
1000
0002
0100
0000
0010
0000
0103
0000
,
2000
3002
2003
3002
,
0013
0000
0001
0000
1000
0001
0100
0000
,
0010
0000
1000
0100
1000
0000
1100
0000
,
0001
0001
0001
0000
0100
0000
0010
0000
,
1000
1000
0001
0000
0100
0010
1000
0000
,
0001
0000
0010
0000
0001
0100
1000
0000
,
0010
0000
1000
0001
1000
0000
0110
0000
,
0010
0000
1000
0100
1000
0000
0001
0000
,
0100
0100
0010
0000
0100
0001
1000
0000
,
0010
0100
0000
0000
0000
0000
0000
0000
;

//---------------dance-single - ----------------
#NOTES:
     dance-single:
     :
     Beginner:
     3:
     0.135295,0.157013,0.099691,0.000000,0.000000,114.000000,102.000000,12.000000,0.000000,0.000000,0.000000,0.135295,0.157013,0.099691,0.000000,0.000000,114.000000,102.000000,12.000000,0.000000,0.000000,0.000000:
// measure 0
0000
0000
0000
0000
,  // measure 1
0000
0000
0000
0000
,  // measure 2
0000
0000
0000
0000
,  // measure 3
0010
0000
1000
0000
,  // measure 4
0001
0000
0100
0000
,  // measure 5
0000
0000
0000
0000
,  // measure 6
0010
0000
1000
0000
,  // measure 7
0100
0000
0010
0000
,  // measure 8
0001
0000
0100
0000
,  // measure 9
0010
0000
1000
0000
,  // measure 10
0000
0100
0100
0000
,  // measure 11
0000
0010
0010
0000
,  // measure 12
0000
0001
0001
0000
,  // measure 13
1001
0000
0000
0000
,  // measure 14
0010
0010
0000
0000
,  // measure 15
0100
0100
0000
0000
,  // measure 16
0001
0001
0000
0000
,  // measure 17
1001
0000
0000
0000
,  // measure 18
1000
1000
0000
0000
,  // measure 19
0001
0001
0000
0000
,  // measure 20
0100
0100
0000
0000
,  // measure 21
1001
0000
0000
0000
,  // measure 22
0010
0000
0010
0000
,  // measure 23
1000
0000
1000
0000
,  // measure 24
0100
0000
0100
0000
,  // measure 25
0010
0010
0010
0000
,  // measure 26
0001
0000
0001
0000
,  // measure 27
1000
0000
1000
0000
,  // measure 28
0001
0000
0001
0000
,  // measure 29
0100
0100
0100
0000
,  // measure 30
0010
0000
1000
0000
,  // measure 31
0001
0000
0100
0000
,  // measure 32
0010
0010
0000
0000
,  // measure 33
1001
0000
0000
0000
,  // measure 34
1000
1000
0000
0000
,  // measure 35
0010
0010
0000
0000
,  // measure 36
0110
0000
0000
0000
,  // measure 37
1001
0000
0000
0000
,  // measure 38
0110
0000
0000
0000
,  // measure 39
0001
0001
0001
0000
,  // measure 40
0110
0000
0000
0000
,  // measure 41
1000
0000
0100
0000
,  // measure 42
0110
0000
0000
0000
,  // measure 43
1000
1000
1000
0000
,  // measure 44
0110
0000
0000
0000
,  // measure 45
0001
0001
0001
0001
,  // measure 46
0000
0100
0100
0000
,  // measure 47
0000
0010
0010
0000
,  // measure 48
1000
1000
1000
0000
,  // measure 49
1001
0000
0010
0010
,  // measure 50
0000
1000
1000
1000
,  // measure 51
0000
0100
0100
0100
,  // measure 52
0000
0010
0010
0000
,  // measure 53
1001
0000
0001
0001
,  // measure 54
0001
0000
0000
0000
;
