#TITLE:Geiselhaus;
#ARTIST:Sarastro;
#BANNER:Geiselhaus-bn.png;
#BACKGROUND:Geiselhaus-bg.png;
#JACKET:Geiselhaus-jacket.png;
#MUSIC:Geiselhaus.ogg;
#OFFSET:1.175;
#SAMPLESTART:53.492;
#SAMPLELENGTH:20;
#LASTBEATHINT:0.501;
#DISPLAYBPM:180;
#BPMS:0=180;
#BGCHANGES:;

//---------------dance-single - ----------------
#NOTES:
     dance-single:
     :
     Beginner:
     3:
     :
0000
0000
0000
0000
,
0000
0000
0000
0000
,
0000
0000
0000
0000
,
0000
0000
0000
0000
,
0000
0000
0000
0000
,
1001
0000
0000
0000
,
0000
0000
0000
0000
,
0000
1000
0000
0001
,
0000
1000
0000
0001
,
0000
0010
0010
0000
,
0001
0000
0100
0000
,
0010
0000
1000
0000
,
0010
0000
1000
0000
,
0000
0100
0100
0000
,
1000
0000
0010
0000
,
0100
0000
0001
0000
,
0010
0000
0001
0000
,
1001
0000
0000
0000
,
0110
0000
0000
0000
,
1000
0000
0010
0000
,
0100
0000
0001
0000
,
0010
0000
0100
0000
,
1000
0000
0001
0000
,
0110
0000
0000
0000
,
0000
0000
0000
0000
,
0000
0000
0000
0000
,
0001
0001
0001
0000
,
0010
0010
0000
0100
,
0000
0010
0000
0100
,
0000
1000
0000
0001
,
0000
0100
0000
0010
,
0010
0000
1000
0000
,
0100
0000
0001
0000
,
1000
0000
0010
0000
,
0100
0000
0001
0000
,
0010
0000
0001
0000
,
1000
0000
0010
0000
,
0110
0000
0000
1000
,
1000
0000
0000
0001
,
0002
0000
0000
0000
,
0000
0000
0003
0000
,
0010
0000
0001
0000
,
0200
0000
0300
0000
,
0010
0000
1000
0000
,
0200
0000
0300
0000
,
1000
1000
0000
0000
,
0001
0001
0000
0000
,
0020
0000
0000
0000
,
0030
0000
0000
0000
,
0010
0010
0000
0000
,
0001
0001
0000
0000
,
2000
0000
0000
0000
,
3000
0000
0000
0000
,
0000
0010
0000
0010
,
0000
0100
0000
0100
,
0000
1000
0000
0001
,
0000
1000
0000
0001
,
0000
1001
0000
0000
,
0100
0100
0000
0000
,
0020
0000
0030
0000
,
1000
0000
0001
0000
,
1000
0000
1000
0000
,
0001
0000
0001
0000
,
0200
0000
0000
0000
,
0300
0000
0000
0000
,
0010
0000
1000
0000
,
0001
0000
1000
0000
,
0100
0000
0010
0000
,
0001
0001
0001
0000
,
2000
0000
3000
0000
,
0010
0000
0100
0000
,
0200
0000
0300
0000
,
0001
0000
0010
0000
,
2000
0000
0000
0000
,
0000
0000
3000
0000
,
0002
0000
0000
0000
,
0000
0000
0003
0000
,
0200
0000
0000
0000
,
0300
0000
0010
0000
,
1000
1000
0000
0001
,
0000
1000
0000
0001
,
0001
0000
0000
0000
;

//---------------dance-single - ----------------
#NOTES:
     dance-single:
     :
     Easy:
     7:
     :
0000
0000
0000
0000
,
0000
0000
0000
0000
,
0000
0000
0000
0000
,
0000
0000
0000
0000
,
0000
0000
0000
0000
,
1001
0000
1000
0000
,
0010
1000
0100
0001
,
1000
1100
0000
0101
,
0000
1100
0000
0101
,
1001
0010
1000
0100
,
1000
0010
0100
0001
,
0020
0030
0002
0003
,
2000
3000
0200
0300
,
0110
0001
0010
0001
,
0100
0010
1000
0001
,
2000
3000
0200
0300
,
0020
0030
0002
0003
,
0200
0000
0310
0000
,
2000
0000
3001
0000
,
0200
0300
0001
0100
,
0020
0030
1000
0001
,
2000
3000
0001
0010
,
0002
0003
0100
0010
,
0220
0000
0000
0000
,
0330
0000
0000
0000
,
0001
0010
0001
1000
,
0010
0010
1000
0001
,
0100
0102
0000
1003
,
0000
2100
0000
3001
,
0000
1002
0000
0013
,
0001
1000
0001
0100
,
0110
0000
2000
3000
,
0020
0030
0200
0300
,
0002
0003
0010
0100
,
1000
0010
2000
3000
,
0002
0003
0010
0001
,
0100
0010
1000
1000
,
2020
0000
3030
0001
,
0022
0000
0033
1000
,
2020
0000
0000
3030
,
0001
0001
1000
1000
,
0110
0010
1000
0100
,
0002
0010
0010
0013
,
1000
0001
0100
0010
,
2000
0100
0100
3100
,
1100
0201
0000
0310
,
0101
1200
0000
0310
,
2002
3003
1000
0010
,
1000
0100
0010
0001
,
0011
1020
0000
0130
,
1010
0021
0000
0130
,
0220
0330
0001
0010
,
0001
0100
1000
0010
,
0000
1100
0000
0101
,
0000
1100
0000
0101
,
0000
1010
0000
0011
,
0000
1010
0000
0011
,
2000
0002
3000
1003
,
0020
0200
0030
0310
,
2000
0000
0001
0000
,
0020
3030
0001
0100
,
0020
0030
2000
3000
,
0002
0003
0200
0300
,
0220
0000
0000
0330
,
1000
0010
0100
0001
,
0020
0030
0002
0003
,
0200
0300
2000
3000
,
2020
3030
0202
0303
,
0010
0010
0001
1000
,
0020
0000
0000
0130
,
0001
0010
0001
1000
,
0200
0000
0000
1300
,
0002
0000
0100
0103
,
0202
0000
0000
0303
,
0010
0100
0001
1000
,
2200
0000
0000
3300
,
0001
1000
0010
0100
,
2020
0000
0000
3030
,
1000
0001
0010
0100
,
1001
1010
0100
0011
,
0100
1010
0100
0011
,
2002
0000
0000
0000
,
0000
0000
0000
0000
,
0000
0000
0000
0000
,
3003
0000
0000
0000
;

//---------------dance-single - ----------------
#NOTES:
     dance-single:
     :
     Medium:
     10:
     :
0000
0000
0000
0000
,
0000
0000
0000
0000
,
0000
0000
0000
0000
,
0000
0000
0000
0000
,
0000
0000
0000
0000
,
1010
0002
0203
0320
,
2030
3200
0320
0032
,
1003
1100
0000
0101
,
0000
1100
0000
0101
,
1001
0000
0010
1000
0001
0000
0100
0000
,
0010
0000
1000
0000
0002
0000
0003
0010
,
0200
1300
0020
0130
,
0002
0013
2000
3100
,
0110
0000
0001
1000
0010
0000
0100
0000
,
0001
0000
0010
0000
2000
0000
3000
0100
,
0020
0031
2000
3010
,
0200
0310
2000
3001
,
0012
0100
1000
0103
,
2010
0100
0010
3100
,
2000
3001
0020
0230
,
2300
3010
0200
0302
,
0023
0130
1100
1001
,
0201
0310
2000
3001
,
0220
0000
0000
0000
,
0330
0000
0001
0100
0010
0000
1000
0000
,
0100
0000
1000
0010
0100
0000
0001
0000
,
0010
0000
0000
0000
0000
0000
0001
0000
0000
0000
0000
0000
1000
0000
0000
0000
0001
0000
0000
0000
0000
0100
0000
0000
,
0010
0000
2000
0001
3001
0000
0101
0000
,
0010
0000
2000
0100
3100
0000
1100
0000
,
0001
0000
0200
0010
0310
0000
1001
0000
,
2000
3020
0230
0302
,
0023
0000
0031
0100
0001
0000
1000
0100
,
1000
0000
0001
0010
0001
0000
1000
0010
,
2000
0100
0001
3001
,
0011
0000
0110
0000
2200
0000
3300
0001
,
2000
0010
0100
3100
,
2000
3010
0002
0103
,
2020
0000
0000
0000
0000
0000
3030
0000
0000
0001
1000
0001
,
2000
0000
0000
0000
0000
0000
3000
0000
0000
0001
1000
0001
,
2000
0000
0000
3000
,
0010
1000
0100
0000
0010
0001
0100
0000
,
0110
0000
0000
0001
0020
0000
0030
0001
,
2000
0010
0000
0100
0000
0010
0000
0001
,
3001
0000
0010
0100
2000
0000
3000
0010
,
0200
1000
0000
0001
0000
1000
0000
0301
,
0101
0101
1000
0001
,
1100
1100
0010
0100
,
1002
0010
1000
0100
,
1003
0100
0010
0000
0001
0100
0010
0000
,
1010
1010
0100
0001
,
0011
0011
1000
0010
,
0210
0000
0001
0000
1300
0100
0010
0000
,
0010
1000
0100
0000
0010
0001
0100
0000
,
0001
0011
1000
1010
,
0001
0101
1000
1100
,
0010
1001
0100
1001
,
1000
0110
0001
0110
,
1000
0100
0002
0000
0010
0000
0103
0000
,
1000
0001
0020
0000
1000
0000
0130
0000
,
0011
0000
0001
0100
0010
0000
1000
0100
,
0020
0000
0000
0001
0031
1000
0010
0100
,
0002
0013
2000
3100
,
0020
1030
0200
0301
,
1200
0010
1000
0301
,
0000
1000
0100
0010
0001
0010
0100
1000
,
0020
0000
0030
1000
0002
0000
0003
0010
,
0200
0000
0300
1000
0002
0000
0003
0100
,
0020
0000
0030
1000
0200
0000
0300
1000
,
0002
0203
0320
2030
,
3200
0010
0001
1300
,
2010
0000
0010
0000
3002
0000
0103
0010
,
2000
0001
0100
3010
,
0202
0303
0010
0010
,
0210
0001
1000
0001
,
0310
1000
0100
0010
0001
0100
0001
0000
,
0021
1000
0100
1000
,
0031
0010
0100
1000
0100
0010
0001
0000
,
2100
0001
0010
0100
,
3010
1000
0100
0010
0001
1000
0100
0000
,
1001
0000
1010
0010
0100
0000
0011
0001
,
1000
0000
1010
1000
0001
0000
0011
0000
,
2002
0000
0000
0000
,
0000
0000
0000
0000
,
0000
0000
0000
0000
,
3003
0000
0000
0000
;

//---------------dance-single - ----------------
#NOTES:
     dance-single:
     :
     Hard:
     13:
     :
0000
0000
0000
0000
,
0000
0000
0000
0000
,
0000
0000
0000
0000
,
0000
0000
0000
0000
,
0000
0000
0000
0000
,
1010
0002
0203
0320
,
2030
0000
3100
0100
0010
0010
0001
0001
,
1000
1100
0000
0101
,
0000
0000
1100
0000
0001
0100
0101
0000
,
1001
0000
0010
1000
0100
0010
0001
0000
,
1000
0010
0100
0000
0002
1000
0003
0010
,
0002
0100
0103
0000
0020
1000
1030
0000
,
0200
0000
0000
1000
0000
0000
1300
0000
0000
0000
0000
0000
0010
0000
0000
0100
0000
0000
0001
0000
1000
0000
0001
0000
,
1000
0000
0100
0010
0001
0100
1000
0000
,
0010
1000
0001
0000
0200
0010
0310
1000
,
0002
0000
0013
0100
2000
0000
3010
0000
,
2000
0001
3001
0000
0100
0100
0100
0010
,
0110
0000
1000
0010
0100
0001
0010
0000
,
0001
0100
0010
0100
0001
0010
1000
0000
,
0200
0000
1300
0001
0200
0010
0310
0000
,
2000
0001
3001
0000
0011
0000
1100
0000
,
0011
0000
0100
0000
1000
0010
0001
0000
,
0200
0000
0010
0000
0310
0000
1000
0000
0001
0000
0100
0000
0010
0000
1000
0100
,
2000
0000
0000
0000
,
3010
0000
0000
0100
0001
0100
0002
0000
0000
2003
0000
0000
,
3100
0000
0000
1000
0010
1000
0020
0000
0000
0230
0000
0000
,
0301
0000
2000
0000
3010
0010
0010
0100
,
0101
0000
1010
0001
0100
0010
1000
0000
,
0100
0000
1100
0010
1000
0001
0100
0000
,
0001
0000
1001
0010
1000
0100
0001
0000
,
0010
0001
0010
1000
0010
0001
0010
0100
,
1000
0000
0000
0000
0000
0000
0010
0000
0100
0000
0010
0000
0100
0000
0000
0000
0000
0000
0001
0000
0000
1000
0000
0000
,
0010
0000
0000
1000
0000
0000
0100
0000
0010
0000
0100
0000
0010
0000
0000
0001
0000
0000
0100
0000
0000
0001
0000
0000
,
0012
0000
0103
0000
0010
1000
1000
0000
,
0001
0100
0010
1000
0200
0000
1300
0001
,
0002
0000
0013
0001
1000
0010
1000
0000
,
0100
1000
0010
1000
0100
0001
0010
0001
,
2010
0000
0000
0001
0000
0000
0001
0000
0000
3001
1000
0010
,
0200
0000
0000
0001
0000
0000
0001
0000
0000
0301
1000
0010
,
0200
0001
1000
0301
,
0100
0100
0010
0010
1000
0001
0100
0000
,
0110
0001
0000
0001
0010
1000
0000
0100
,
1000
0001
0000
0100
0001
0010
0001
0100
,
1000
0010
0000
1000
0100
0010
0000
0001
,
1000
0010
0000
1000
0100
0010
0100
1000
,
0001
0010
0001
1000
0100
0010
0001
0000
,
0010
0001
0100
0010
1000
0100
0001
0000
,
0011
0000
0100
1000
0010
0100
0010
1000
,
0100
0010
0100
0010
0001
0100
0010
1000
,
0100
1000
0002
1000
1003
0010
0100
0000
,
0010
1000
0200
0010
0310
0001
0100
0000
,
0010
1000
0100
1000
0010
1000
0100
1000
,
0001
0010
0100
0010
0001
0010
0100
0010
,
0001
0100
0101
0000
1000
0010
1010
0000
,
1000
0100
1100
0000
0001
0010
0011
0000
,
1000
0000
0001
0000
0100
0010
0000
0000
1000
0000
0001
0000
0100
0010
0000
0000
,
1000
0000
0100
0000
1000
0010
0000
0000
0100
0000
0001
0010
0001
0000
0000
0000
,
0010
0001
2000
0010
3010
0100
0001
0000
,
0010
0100
2000
0010
3010
1000
0001
0000
,
0100
0010
0100
0001
0010
0100
1000
0001
,
0200
0000
0301
0010
0001
1000
0010
0100
,
0002
0010
0013
0001
2000
0100
3100
0000
,
2000
0000
0001
0000
3001
0000
0010
0000
0002
0000
0100
0000
0103
0000
0010
1000
,
0020
0100
0001
1030
,
0010
1000
0100
0010
0001
0100
0010
1000
,
0002
0000
0103
0010
2000
0100
3100
1000
,
0020
0000
0130
0001
2000
0010
3010
0100
,
0020
1000
1030
0001
2000
0010
3010
0100
,
0001
0010
1000
0000
0100
1000
0001
0000
,
0010
0001
1000
0001
0010
0100
1000
0000
,
0010
1000
0100
0000
1000
0001
1000
0100
,
0010
0001
0100
0001
0010
0100
1000
0000
,
0010
1000
0100
0000
1100
0000
0101
0000
,
1100
0001
0100
0010
1000
0010
0100
0010
,
1000
0000
0100
0000
0010
0000
0001
0100
0001
0000
0010
0000
1000
0000
0000
0000
,
1010
0100
0010
0100
1000
0010
0100
0001
,
0010
0000
0001
0000
1000
0000
0010
0100
0010
0000
1000
0000
0001
0000
0000
0000
,
0011
0100
1000
0010
1000
0001
0010
0100
,
1000
0010
0100
0010
1000
0100
0001
0000
,
1001
0000
0000
0000
1010
0000
0001
0100
0001
0000
0000
0000
0011
0000
1000
0000
,
0100
0000
0000
0000
1010
0000
0001
0000
0100
0000
0000
0000
0011
0000
1000
0002
,
0200
0000
0000
0000
,
0000
0000
0000
0000
,
0000
0000
0000
0000
,
0303
0000
0000
0000
;

//---------------dance-single - ----------------
#NOTES:
     dance-single:
     :
     Challenge:
     16:
     :
0000
0000
0000
0000
,
0000
0000
0000
0000
,
0000
0000
0000
0000
,
0000
0000
0000
0000
,
0000
0000
0000
0000
,
1010
0000
0001
0001
0100
0100
0010
0010
,
1000
1000
0100
0100
0010
0010
0001
0001
,
1000
1100
0000
0101
,
0000
0000
1100
0000
0010
0000
0101
0100
,
1001
0000
0010
1000
0010
0100
0001
0000
,
0010
0001
1000
0000
0010
1000
0100
0010
,
0002
0100
0103
0010
2000
0100
3100
0010
,
0002
0000
0000
1000
0000
0000
1003
0000
0000
0010
0000
0000
0200
0000
0000
0001
0000
0000
0301
0000
0010
0000
0100
0000
,
1000
0000
0001
0100
0010
1000
0100
0000
,
1000
0001
0100
0000
0001
1000
0001
0100
,
0020
1000
1030
0001
0020
0100
0130
1000
,
0002
0010
0013
0100
2000
0001
3001
0100
,
0010
1000
0001
0010
1000
0100
0010
0000
,
0001
0010
0001
0000
1000
0100
1000
0000
0001
0100
0001
0000
1000
0010
1000
0000
,
0002
0100
0103
0010
1000
0100
0001
0000
,
0020
0100
0130
0010
0001
0100
1000
0000
,
0200
1000
1300
0010
1000
0100
0001
0000
,
2000
0000
0001
0000
3001
0000
0010
0000
0001
0000
0100
0000
1000
0000
0010
0100
,
0002
0000
0000
0010
0000
0000
1000
0000
0000
0013
0001
0010
,
0100
0000
0000
1000
0010
0100
0002
0000
0000
1003
0000
0000
,
0020
0000
0000
0130
0010
1000
0002
0000
0000
0013
0000
0000
,
0002
0000
0000
0000
2003
0000
0000
0000
3010
0000
1000
0001
1000
0000
0100
0000
,
0110
0000
0010
0001
0200
0000
0010
0000
0310
0000
1000
0000
1100
0000
0000
0000
,
0001
0000
0000
0000
2010
0000
0100
0000
3100
0000
1000
0000
1100
0000
0000
0001
,
1000
0010
0100
0010
0001
0010
1000
0001
,
0010
0000
1000
0000
0010
0000
0001
0000
0100
0000
0010
0000
1000
0000
0001
0100
,
0001
0000
0000
0010
0000
0000
0100
0000
1000
0000
0010
0000
0100
0000
0000
0001
0000
0000
0010
0000
0001
0000
1000
0000
,
0010
0000
0000
0100
0000
0000
0001
0000
0010
0000
0100
0000
1000
0000
0000
0010
0000
0000
1000
0000
0000
0001
0000
0000
,
0200
0000
0010
0000
0310
0000
1000
0000
0001
0010
0001
0000
1000
0010
1000
0000
,
0100
1000
0100
0000
0010
0001
0010
0000
2000
0000
0100
0000
3100
0000
0001
0000
,
0200
0000
0010
0000
0310
0000
1000
0000
0001
0010
0001
0000
1000
0100
1000
0000
,
0001
0100
0010
0000
1000
0100
0010
0000
0001
1000
0010
0000
1000
0001
0100
0000
,
2010
0000
0000
0000
0000
0000
3001
0000
0000
0100
0000
0000
0010
0000
0000
1000
0000
0000
0010
0000
0100
0000
0001
0000
,
2000
0000
0000
0000
0000
0000
3100
0000
0000
0010
0000
0000
0001
0000
0000
1000
0000
0000
0010
0000
1000
0000
0001
0000
,
0200
0000
0000
0310
1000
0001
1000
0000
0000
0100
0010
0001
,
1000
1000
0010
0010
1000
0001
0100
0000
,
0110
0000
0001
0000
0010
0100
1000
0000
0100
0000
0010
0000
0001
1000
0100
0000
,
1000
0000
0001
0000
0010
0100
1000
0000
0100
0000
0010
0000
0100
1000
0001
0000
,
0010
0000
0001
0000
1000
0010
0100
0000
0001
0000
1000
0000
0100
0010
0001
0000
,
0010
0000
0001
0000
1000
0001
0100
0000
0010
0000
1000
0000
0100
0010
0001
0000
,
1000
0010
0100
0010
2000
0000
0001
0000
0001
0000
0100
0000
3100
0000
0000
0000
,
0010
0001
1000
0001
0020
0000
1000
0000
1000
0000
0100
0000
0130
0000
0000
0000
,
0010
0001
0100
1000
0100
0001
0010
0100
,
1000
0010
1000
0000
0100
0000
0010
0000
0001
1000
0001
0000
0100
0000
0010
0000
,
1000
0001
0100
0001
2000
0000
0100
0000
0100
0000
0010
0000
3010
0000
0000
0000
,
0001
0010
0100
0010
0002
0000
0100
0000
0100
0000
1000
0000
1003
0000
0000
0000
,
0010
1000
0100
0001
0010
0001
0100
1000
,
0001
0010
0100
0000
1000
0000
0010
0000
0100
0000
0001
0000
1000
0100
0010
0001
,
1000
0010
1000
0010
1000
0000
0000
0000
0001
0010
0001
0010
0001
0000
0000
0000
,
1000
0100
1000
0100
1000
0000
0000
0000
0001
0100
0001
0100
0001
0000
0000
0000
,
1000
0100
0010
0001
0010
0100
1000
0000
0001
0010
0100
1000
0100
0010
0001
0000
,
1000
0001
0100
0010
0100
0001
1000
0000
0010
1000
0001
1000
0100
0010
0001
0000
,
0010
0100
1000
0010
0100
0000
0001
0010
0001
0000
1000
0010
1000
0000
0000
0000
,
0100
1000
0010
0100
0001
0000
1000
0100
1000
0000
0001
0100
0001
0000
0000
0000
,
0010
0000
0001
0000
0100
0000
0010
1000
0001
0000
1000
0000
0100
0000
0010
0100
,
1000
0000
0010
0000
0100
0000
0001
0010
0100
0000
1000
0000
0001
0000
0100
0000
,
1010
0001
0100
0010
1100
0001
1000
0100
,
0011
0010
0001
0100
1010
1000
0100
0001
,
1001
0010
1000
0100
1000
0010
1000
0100
,
1000
0001
1000
0000
0010
0000
0100
0001
0100
0000
0010
1000
0001
1000
0100
0000
,
0110
0000
0001
0100
0001
0000
0010
0000
0100
0000
1000
0001
1000
0000
0010
0000
,
0100
0000
0010
1000
0010
0000
0100
0000
0001
0000
1000
0100
0010
0000
0001
0000
,
0100
0000
0010
1000
0100
0000
1000
0000
0001
0000
0010
0100
1000
0000
0001
0000
,
1000
0100
0010
0000
0001
1000
0010
0000
1000
0001
0100
0000
0001
0100
0010
0000
,
1000
0000
0001
0100
0001
0000
0010
0100
1000
0000
0001
0100
0001
0000
0000
0000
,
0010
0000
0001
1000
0001
0000
0100
0010
0100
0000
0001
1000
0100
0000
0000
0000
,
1000
0000
0010
1000
0100
0000
0010
0001
0100
0000
0001
1000
0001
0000
0000
0000
,
0010
0001
0100
0010
1000
0100
0001
0000
,
0011
0000
0100
1000
0001
0000
0100
0010
0100
0000
0001
0100
0001
0000
0010
0100
,
1000
0000
0010
1000
0001
0000
0010
0100
1000
0000
0001
0100
0010
0000
1000
0000
,
1100
0000
0010
1000
0100
0000
1000
0001
1000
0000
0001
0010
0001
0000
0100
0010
,
0100
0000
0001
0010
0100
0000
1000
0001
0010
0000
0001
0100
0010
0000
1000
0000
,
0101
0000
0010
1000
0001
0000
0010
0100
1000
0000
0001
0100
0010
0000
1000
0100
,
0001
0000
0010
0001
0010
0000
0001
0100
0010
0000
1000
0100
0010
0000
0001
0000
,
1001
0000
0000
0010
1000
0000
0100
1000
0001
0000
0010
0001
0100
0000
0010
1000
,
0100
0000
0010
0001
1000
0000
0001
0100
0010
0000
1000
0100
0010
0000
0001
2000
,
0200
0000
0000
0000
,
0000
0000
0000
0000
,
0000
0000
0000
0000
,
3300
0000
0000
0000
;
