#TITLE:GOTCHA (The Theme From STARSKY & HUTCH);
#SUBTITLE:;
#ARTIST:ANDY G'S MAGIC DISCO MACHINE;
#TITLETRANSLIT:;
#SUBTITLETRANSLIT:;
#ARTISTTRANSLIT:;
#GENRE:;
#CREDIT:;
#BANNER:GOTCHA (The Theme From STARSKY & HUTCH)-bn.png;
#BACKGROUND:GOTCHA (The Theme From STARSKY & HUTCH)-bg.png;
#LYRICSPATH:;
#CDTITLE:;
#MUSIC:GOTCHA (The Theme From STARSKY & HUTCH).ogg;
#OFFSET:0.000000;
#SAMPLESTART:16.450001;
#SAMPLELENGTH:20.000000;
#SELECTABLE:YES;
#DISPLAYBPM:117.000000;
#BPMS:0.000000=116.719002
,20.000000=116.705002
,135.000000=111.680000
,136.000000=116.991997
;
#STOPS:
;
#BGCHANGES:16.000=GOTCHA (The Theme From STARSKY & HUTCH).mp4=1.000=1=0=0=StretchNoLoop==CrossFade==,
99999=-nosongbg-=1.000=0=0=0 // don't automatically add -songbackground-
;
#KEYSOUNDS:;
#ATTACKS:;

//---------------dance-single - ----------------
#NOTES:
     dance-single:
     :
     Easy:
     4:
     0.145143,0.214313,0.011545,0.000000,0.000000,88.000000,87.000000,1.000000,0.000000,0.000000,0.000000,0.145143,0.214313,0.011545,0.000000,0.000000,88.000000,87.000000,1.000000,0.000000,0.000000,0.000000:
0000
0000
0000
0000
,
0000
0000
0000
0000
,
0000
0000
0000
0000
,
0000
0000
0000
0000
,
0010
0000
0000
0000
,
0010
0000
0000
0000
,
0010
0000
0000
0000
,
0010
0000
0000
0000
,
0001
1000
0001
1000
,
0001
0001
1000
1000
,
0001
1000
0001
0001
,
1000
0001
1000
1000
,
0001
1000
0001
1000
,
0001
0001
1000
1000
,
0001
1000
0001
0001
,
1000
0001
1000
1000
,
0010
0000
0000
0000
,
0100
0000
0000
0000
,
0010
0000
0000
0000
,
0100
0000
0000
0000
,
0001
1000
0001
1000
,
0001
0001
1000
1000
,
0001
1000
0001
0001
,
1000
0001
1000
1000
,
0001
0000
0000
0000
,
1000
0000
0000
0000
,
0001
0000
0000
0000
,
1000
0000
0000
0000
,
0010
0000
0000
0000
,
0100
0000
0000
0000
,
0010
0000
0000
0000
,
0100
0000
0000
0000
,
0000
0000
0000
0000
,
0000
0000
0000
0000
,
1001
0000
0100
0100
,
0000
0000
0001
0001
,
0000
0000
1000
1000
,
0000
0000
1000
1000
,
0001
1000
0001
1000
,
0001
0001
1000
1000
,
0001
1000
0001
0001
,
1000
0001
0000
0000
;

//---------------dance-single - ----------------
#NOTES:
     dance-single:
     :
     Medium:
     7:
     0.277091,0.332871,0.034636,0.000000,0.005773,168.000000,165.000000,3.000000,0.000000,0.000000,0.000000,0.277091,0.332871,0.034636,0.000000,0.005773,168.000000,165.000000,3.000000,0.000000,0.000000,0.000000:
0000
0000
0000
0000
,
0000
0000
0000
0000
,
0000
0000
0000
0000
,
0000
0000
0000
0000
,
0010
0010
0010
0010
,
0100
1000
0100
0000
0010
0000
0010
0000
,
0100
0001
0100
0000
0010
0000
0010
0000
,
0100
1000
0100
0000
0010
0000
0010
0000
,
0010
0001
0010
0001
,
1000
0100
0001
0100
,
1000
0100
0100
0001
0100
0000
0100
0000
,
0010
0000
0100
0000
1000
1000
1000
0000
,
0010
1000
0010
1000
,
0001
0100
1000
0100
,
0001
0100
0100
1000
0100
0000
0100
0000
,
0010
0000
0100
0000
0001
0001
0001
0000
,
0010
0000
0000
0000
,
1000
1000
0000
0000
,
0001
0001
0000
0000
,
0001
0001
0000
0000
,
0010
0001
0010
0001
,
1000
0100
0001
0100
,
1000
0100
0100
0001
0100
0000
0100
0000
,
0010
0000
0100
0000
1000
1000
1000
0000
,
0001
0000
0001
0000
1100
0001
0100
0000
,
1000
0000
1000
0000
0110
0001
0100
0000
,
0010
0000
0010
0000
0101
1000
0100
0000
,
1000
0100
1000
0000
0001
0000
1000
0000
,
0010
0000
0010
0000
1000
1000
1000
0000
,
0010
0000
0010
0000
0001
0001
0001
0000
,
1000
0000
1000
0000
0100
0100
0100
0000
,
0001
0100
1000
1000
,
1000
0000
1000
0000
1000
0100
1000
0000
,
0001
0100
0001
0000
1000
0100
1000
0000
,
0001
0000
0000
0000
0100
0010
0100
0000
,
1000
0000
0000
0000
0100
0010
0100
0000
,
0001
0000
0001
0000
0100
0010
0100
0000
,
1000
0000
1000
0000
0100
0010
0100
0000
,
0010
0001
0010
1000
,
1000
0100
0001
0100
,
1000
1000
1000
1000
,
0001
0000
0000
0100
0000
0000
0000
0000
0000
0000
0000
0000
0000
0000
0000
0000
;

//---------------dance-single - ----------------
#NOTES:
     dance-single:
     :
     Hard:
     9:
     0.352962,0.404200,0.069273,0.000000,0.103909,214.000000,208.000000,6.000000,0.000000,0.000000,0.000000,0.352962,0.404200,0.069273,0.000000,0.103909,214.000000,208.000000,6.000000,0.000000,0.000000,0.000000:
0000
0000
0000
0000
,
0000
0000
0000
0000
,
0000
0000
0000
0000
,
0000
0000
0000
0000
,
0010
0000
0000
0000
0010
0000
0000
0000
1000
0100
1000
0000
0100
0000
0000
0000
,
0001
0001
0001
0000
1000
0000
0100
0000
,
1000
1000
1000
0000
0001
0000
0100
0000
,
1000
0000
0001
0000
0100
0000
0010
0010
,
0010
0000
0000
0000
1000
0000
0000
0000
0100
0000
0000
0000
0001
0000
0000
0010
,
0000
0000
0010
0000
0010
0000
0000
0000
0001
0000
0000
0000
0100
0000
0000
0100
,
0000
0000
0100
0000
0100
0000
0000
0000
1000
0000
0000
0000
0100
0000
0000
0001
,
0000
1000
0000
0000
0100
0100
0100
0000
,
0010
0000
0000
0000
0001
0000
0000
0000
0100
0000
0000
0000
1000
0000
0000
0010
,
0000
0000
0001
0000
0100
0000
0000
0000
1000
0000
0000
0000
0100
0000
0000
0100
,
0000
0000
0100
0000
0100
0000
0000
0000
0001
0000
0000
0000
0100
0000
0000
1000
,
0000
0001
0000
0000
0100
0100
0100
0000
,
0001
0100
0001
0010
0100
1000
0100
1000
,
0001
0100
0001
0010
0100
1000
0100
1000
,
0001
0100
0001
0100
0010
1000
0100
1000
,
0001
0100
0001
0100
0010
1000
0100
0000
,
0010
0000
0000
0000
1000
0000
0000
0000
0100
0000
0000
0000
0001
0000
0000
0010
,
0000
0000
1000
0000
0100
0000
0000
0000
0001
0000
0000
0000
0001
0000
0000
0100
,
0000
0000
0100
0000
0100
0000
0000
0000
1000
0000
0000
0000
0100
0000
0000
0010
,
0000
0010
0000
0000
0100
0100
0100
0000
,
0010
0000
0010
0000
0001
0001
0001
0000
,
0100
0000
0100
0000
1000
1000
1000
0000
,
1010
0000
1100
0000
0100
0100
0100
0000
,
0010
1000
0000
0010
1000
0000
0001
0000
0000
0000
0000
0000
0000
0000
0000
0000
,
0001
0000
0001
0000
1000
1000
0100
0000
,
1000
0000
1000
0000
0001
1000
0100
0000
,
0011
0000
0101
0000
0001
0001
0100
0000
,
0010
0001
0000
0010
0001
0000
1000
0000
0000
0000
0100
0000
0000
0001
0000
0000
,
0100
0000
0001
0000
1000
1000
0100
0000
,
0001
0000
0100
0000
1000
1000
0100
0000
,
1000
0100
1000
0010
0100
0001
0100
0001
,
1000
0100
1000
0010
0100
0001
0100
0001
,
1000
0100
1000
0100
0010
0001
0100
0001
,
1000
0100
1000
0100
0010
0001
0100
0000
,
0010
0000
0000
0000
1000
0000
0000
0000
0100
0000
0000
0000
0001
0000
0000
0010
,
0000
0000
1000
0000
0100
0000
0000
0000
0001
0000
0000
0000
0100
0000
0000
0100
,
0000
0100
0100
0000
1000
0000
0100
0000
,
1001
0000
0000
1001
0000
0000
0000
0000
0000
0000
0000
0000
0000
0000
0000
0000
;

//---------------dance-double - ----------------
#NOTES:
     dance-double:
     :
     Easy:
     3:
     0.148442,0.190212,0.000000,0.000000,0.005773,90.000000,90.000000,0.000000,0.000000,0.000000,0.000000,0.148442,0.190212,0.000000,0.000000,0.005773,90.000000,90.000000,0.000000,0.000000,0.000000,0.000000:
00000000
00000000
00000000
00000000
,
00000000
00000000
00000000
00000000
,
00000000
00000000
00000000
00000000
,
00000000
00000000
00000000
00000000
,
00100000
00000000
10000000
00000000
,
01000000
00000000
00010000
00000000
,
00001000
00000000
00000010
00000000
,
00000001
00000100
00001000
00010000
,
00000000
00100000
00000000
01000000
,
00000000
00001000
00000000
00010000
,
00000000
00000010
00000000
00000100
,
00000000
00000001
00000001
00000000
,
00000000
00000010
00000000
00000100
,
00000000
00010000
00000000
00001000
,
00000000
00100000
00000000
01000000
,
00000000
10000000
00000000
10000000
,
00000000
00010000
00000000
00010000
,
00000000
00001000
00000000
00001000
,
00000000
00010000
00000000
00001000
,
00000000
00000001
00000000
00000001
,
00000000
00000010
00000000
00000100
,
00000000
00010000
00000000
00001000
,
00100000
00000000
01000000
00000000
,
00000000
10000000
00000000
10000000
,
00100000
00000000
00001000
00010000
,
00000010
00000000
00010000
00001000
,
00100000
00000000
00001000
00010000
,
00000010
00001000
00010000
00010000
,
01000000
00000000
00001000
00010000
,
00000100
00000000
00010000
00001000
,
01000000
00000000
00001000
00010000
,
00000100
00000100
00000100
00000100
,
00000000
00000100
00000000
00000100
,
00000000
00000000
00000000
00000000
,
10000000
00000000
01000000
01000000
,
00010000
00000000
00001000
00001000
,
00000010
00000000
00000100
00000100
,
00000001
00000000
00001000
00001000
,
00000000
00000010
00000000
00000100
,
00000000
00010000
00000000
00001000
,
00000000
00100000
00000000
01000000
,
00100000
00000000
00000000
00100000
00000000
00000000
00000000
00000000
00000000
00000000
00000000
00000000
00000000
00000000
00000000
00000000
;

//---------------dance-double - ----------------
#NOTES:
     dance-double:
     :
     Medium:
     7:
     0.260598,0.261541,0.011545,0.000000,0.005773,158.000000,157.000000,1.000000,0.000000,0.000000,0.000000,0.260598,0.261541,0.011545,0.000000,0.005773,158.000000,157.000000,1.000000,0.000000,0.000000,0.000000:
00000000
00000000
00000000
00000000
,
00000000
00000000
00000000
00000000
,
00000000
00000000
00000000
00000000
,
00000000
00000000
00000000
00000000
,
00100000
00000000
10000000
00000000
01000000
10000000
01000000
00000000
,
01000000
00010000
00001000
00001000
,
00001000
00000100
00000001
00000001
,
00000001
00000100
00001000
00010000
,
00100000
01000000
00100000
01000000
,
10000000
10000000
01000000
01000000
,
00010000
00001000
00001000
00000000
00000100
00000000
00000100
00000000
,
00000001
00000000
00000001
00000000
00001000
00000100
00001000
00000000
,
00000010
00000100
00000010
00000100
,
00000001
00000001
00000100
00000100
,
00001000
00010000
00010000
00000000
01000000
00000000
01000000
00000000
,
10000000
00000000
10000000
00000000
00010000
01000000
00010000
00000000
,
00000000
00010000
00010000
00010000
,
10000000
01000000
01000000
01000000
,
00010000
00001000
00001000
00001000
,
00000100
00000001
00000001
00000001
,
00000010
00000100
00000010
00000100
,
00000001
00000001
00000100
00000100
,
00001000
00010000
00010000
00000000
01000000
00000000
01000000
00000000
,
00000000
10000000
00000000
10000000
,
00100000
00000000
00000000
00000000
00001000
00010000
00001000
00000000
,
00000010
00000000
00000000
00000000
00010000
00001000
00010000
00000000
,
00100000
00000000
00000000
00000000
00001000
00010000
00001000
00000000
,
00000010
00001000
00010000
00001000
,
01000000
00000000
00000000
00000000
00001000
00010000
00001000
00000000
,
00000100
00000000
00000000
00000000
00010000
00001000
00010000
00000000
,
01000000
00000000
00000000
00000000
00001000
00010000
00001000
00000000
,
00000100
00000100
00000100
00000100
,
00000001
00000100
00001000
00010000
,
01000000
10000000
00010000
01000000
,
00011000
00000000
00000000
00000000
10000000
01000000
01000000
00000000
,
00100000
00000000
00010000
00000000
00001000
00010000
00010000
00000000
,
00000010
00000000
00001000
00000000
00000001
00000100
00000100
00000000
,
00001000
00000000
00000100
00000000
00010000
00001000
00001000
00000000
,
00100000
01000000
00100000
01000000
,
10000000
10000000
01000000
01000000
,
00010000
00001000
00001000
00000000
00000100
00000000
00000100
00000000
,
00000001
00000000
00000000
00000100
00000000
00000000
00000000
00000000
00000000
00000000
00000000
00000000
00000000
00000000
00000000
00000000
;

//---------------dance-double - ----------------
#NOTES:
     dance-double:
     :
     Hard:
     10:
     0.412338,0.404200,0.115455,0.000000,0.178955,250.000000,240.000000,10.000000,0.000000,0.000000,0.000000,0.412338,0.404200,0.115455,0.000000,0.178955,250.000000,240.000000,10.000000,0.000000,0.000000,0.000000:
00000000
00000000
00000000
00000000
,
00000000
00000000
00000000
00000000
,
00000000
00000000
00000000
00000000
,
00000000
00000000
00000000
00000000
,
00100000
00000000
00000000
00000000
10000000
00000000
00000000
00000000
10000000
01000000
10000000
00000000
01000000
00000000
00000000
00000000
,
00001000
00010000
00001000
00000000
00000001
00000000
00000100
00000000
,
00001000
00000100
00001000
00000000
00000001
00000001
00000001
00000000
,
00000001
00000100
00001000
00010000
00001000
00010000
01000000
10000000
,
00100000
01000000
00000000
00000000
00100000
01000000
00000000
00000000
10000000
01000000
00000000
00000000
10000000
01000000
00000000
00000000
,
10000000
00000000
10000000
00000000
10000000
00000000
00010000
00000000
01000000
00000000
00000000
00000000
00001000
00010000
00000000
00000000
,
00001000
00000010
00000100
00000001
00001000
00000000
00000000
00000000
,
00010000
00001000
00000100
00000001
00000010
00000000
00000000
00000000
,
00000010
00000100
00000000
00000000
00000010
00000100
00000000
00000000
00000001
00000100
00000000
00000000
00000001
00000100
00000000
00000000
,
00000001
00000000
00000001
00000000
00000001
00000000
00001000
00000000
00000100
00000000
00000000
00000000
00010000
00000000
00000000
00001000
,
00010000
00100000
10000000
01000000
00010000
00000000
00000000
00000000
,
00001000
00010000
01000000
10000000
00100000
00000000
00000000
00000000
,
00010000
00001000
00000100
00000001
00000010
00000100
00010000
00001000
,
00100000
00100000
01000000
01000000
10000000
01000000
00010000
00001000
,
00010000
01000000
00010000
00001000
00000100
00000010
00001000
00000100
,
00000010
00000010
00000001
00000100
00001000
00010000
00010000
00000000
,
00000010
00000100
00000000
00000000
00000010
00000100
00000000
00000000
00000001
00000100
00000000
00000000
00000001
00000100
00000000
00000000
,
00000001
00000000
00000001
00000000
00000001
00000000
00001000
00000000
00000100
00000000
00000000
00000000
00010000
00000000
00000000
00001000
,
00010000
00100000
10000000
01000000
00010000
00000000
00000000
00000000
,
00001000
00010000
01000000
10000000
00100000
00000000
00000000
00000000
,
00110000
00000000
10010000
00000000
00001000
00010000
00001000
00000000
,
00001010
00000000
00001001
00000000
00010000
00001000
00010000
00000000
,
00110000
00000000
01010000
00000000
00001000
00010000
00001000
00000000
,
00001010
00000000
00001100
00100000
00000000
00000000
00000000
00000000
,
01000000
10000000
00000000
01000000
10000000
00000000
00000000
00000000
00001000
00000000
00010000
00000000
00001000
00000000
00000000
00000000
,
00000100
00000001
00000000
00000100
00000001
00000000
00000000
00000000
00010000
00000000
00001000
00000000
00010000
00000000
00000000
00000000
,
01000000
10000000
00000000
01000000
10000000
00000000
00000000
00000000
00001000
00000000
00010000
00000000
00001000
00000000
00000000
00000000
,
00000010
00000100
00000000
00000010
00000100
00000000
00001000
00000000
00000000
00000000
00000100
00000000
00000000
00010000
00000000
00000000
,
01000000
00000000
10000000
00000000
00010000
00010000
01000000
00000000
,
00001000
00000000
00010000
00000000
00000010
00000010
00000100
00000000
,
00010000
00001000
00000010
00000001
00000100
00000010
00010000
00001000
,
01000000
01000000
00100000
00100000
10000000
00100000
00010000
00001000
,
00010000
00100000
00010000
00001000
00000010
00000100
00001000
00000010
,
00000100
00000100
00000001
00000010
00001000
00010000
00010000
00000000
,
00100000
01000000
00000000
00000000
00100000
01000000
00000000
00000000
10000000
01000000
00000000
00000000
10000000
01000000
00000000
00000000
,
10000000
00000000
10000000
00000000
10000000
00000000
00010000
00000000
01000000
00000000
00000000
00000000
00001000
00000000
00000000
00010000
,
00001000
00000010
00000100
00000001
00001000
00000000
00000000
00000000
,
00001001
00000000
00000000
00010100
00000000
00000000
00000000
00000000
00000000
00000000
00000000
00000000
00000000
00000000
00000000
00000000
;

//---------------dance-couple - ----------------
#NOTES:
     dance-couple:
     :
     Challenge:
     4:
     0.250702,0.404200,0.069273,0.000000,0.063500,152.000000,146.000000,6.000000,0.000000,0.000000,0.000000,0.250702,0.404200,0.069273,0.000000,0.063500,152.000000,146.000000,6.000000,0.000000,0.000000,0.000000:
00000000
00000000
00000000
00000000
,
00000000
00000000
00000000
00000000
,
00000000
00000000
00000000
00000000
,
00000000
00000000
00000000
00000000
,
00000000
00100010
00000000
00100010
,
00000000
00100010
00000000
00100010
,
01000100
10001000
01000100
00000000
00010001
00000000
00010001
00000000
,
01000100
10001000
01000100
00000000
00010001
00000000
01000100
00000000
,
00100000
01000001
00010000
00010001
,
10000000
01000001
00010000
01000001
,
10000000
01000000
01000001
00010000
01000000
00000000
01000001
00000000
,
00100000
00000000
01000001
00000000
10000000
10000000
10000001
00000000
,
00000010
10000100
00000001
10000001
,
00001000
10000100
00000001
10000100
,
00001000
00000100
10000100
00000001
00000100
00000000
10000100
00000000
,
00000010
00000000
10000100
00000000
00001000
00001000
10001000
00000000
,
00010000
10000000
01000000
00010000
01000000
10000000
01000001
00010000
,
01000000
01000000
10000000
10000000
01000000
00010000
01000001
00100000
,
10000000
01000000
10000000
00100000
10000000
01000000
00100001
00010000
,
10000000
10000000
01000000
00010000
10000000
01000000
01000001
00000000
,
10100000
00000000
00000000
00000000
00000011
00000000
00000000
00000000
01010000
00000000
00000000
00000000
00001100
00000000
00000000
00100010
,
00000000
00000000
10001000
00000000
01000100
00000000
00000000
00000000
00010001
00000000
00000000
00000000
00010001
00000000
00000000
00010001
,
00000000
00000000
01000100
00000000
01000100
00000000
10001000
00000000
01000100
00000000
00000000
00000000
01000100
00000000
00000000
00100010
,
00000000
00100010
00000000
00000000
01000100
01000100
01000100
00000000
,
00000001
00000100
00000001
00000000
00000010
00000000
00000010
00000000
,
10000000
01000000
10000000
00000000
00100000
00000000
00100000
00000000
,
00001000
00000100
00001000
00000000
00000001
00000000
00001000
00000000
,
00010000
01000000
00010000
00000000
10000000
00000000
00010000
00000000
,
00000001
00000000
00000001
00000000
00001000
00001000
00000100
00000000
,
00010000
00000000
00010000
00000000
10000000
10000000
01000000
00000000
,
00110011
00000000
01010101
00000000
00010001
00010001
01000100
00000000
,
00100010
10001000
00000000
00100010
10001000
00000000
00010001
00000000
00000000
00000000
01000100
00000000
00000000
00010001
00000000
00000000
,
01000100
00000000
00010001
00000000
10001000
10001000
01000100
00000000
,
00000001
00000100
00000001
00000000
00010000
01000000
00010000
00000000
,
00000001
00001000
00000100
00000001
00000100
00001000
10000100
00000001
,
00000100
00000100
00001000
00001000
00000100
00000001
10000100
00000010
,
00001000
00000100
00001000
00000010
00001000
00000100
10000010
00000001
,
00001000
00001000
00000100
00000001
00001000
00000100
10000100
00000000
,
00100000
10000000
00000000
00000000
00000001
00000100
00000000
00000000
00100000
10000000
00000000
00000000
00000001
00000100
00000000
00100010
,
00000000
00000000
10000001
00000000
01000100
00000000
00000000
00000000
00011000
00000000
00000000
00000000
01000100
00000000
00000000
00011000
,
00000000
01000100
01000100
10000001
01000100
00000000
01000100
00000000
,
10011001
00000000
00000000
01011100
00000000
00000000
00000000
00000000
00000000
00000000
00000000
00000000
00000000
00000000
00000000
00000000
;

//---------------dance-solo - ----------------
#NOTES:
     dance-solo:
     :
     Easy:
     2:
     0.148442,0.190212,0.000000,0.000000,0.005773,90.000000,90.000000,0.000000,0.000000,0.000000,0.000000,0.148442,0.190212,0.000000,0.000000,0.005773,90.000000,90.000000,0.000000,0.000000,0.000000,0.000000:
000000
000000
000000
000000
,
000000
000000
000000
000000
,
000000
000000
000000
000000
,
000000
000000
000000
000000
,
000100
000000
001000
000000
,
010000
000000
000010
000000
,
100000
000000
000001
000000
,
000100
001000
000010
010000
,
000000
001000
000000
001000
,
000000
000010
000000
010000
,
000000
000001
000000
000010
,
000000
100000
000000
010000
,
001000
000000
000100
000000
,
100000
000000
000001
000000
,
010000
000000
000010
000000
,
000000
000001
000000
100000
,
000000
000001
000000
000001
,
000000
100000
000000
100000
,
000000
000010
000000
000010
,
000000
010000
000000
010000
,
000000
000100
000000
001000
,
000000
000100
000000
001000
,
000000
000001
000000
000010
,
000000
100000
000000
010000
,
001000
000000
000010
000001
,
001000
000000
010000
100000
,
001000
000000
000010
000010
,
001000
100000
010000
010000
,
000001
000000
100000
010000
,
100000
000000
000001
000010
,
100000
000000
000100
001000
,
000010
000010
001000
001000
,
000000
100000
000000
100000
,
000000
000000
000000
000000
,
000001
000000
001000
001000
,
000010
000000
100000
100000
,
000100
000000
000010
000010
,
000001
000000
010000
010000
,
000000
000100
000000
001000
,
000000
000010
000000
010000
,
000000
000001
000000
001000
,
000100
000000
000000
000100
000000
000000
000000
000000
000000
000000
000000
000000
000000
000000
000000
000000
;

//---------------dance-solo - ----------------
#NOTES:
     dance-solo:
     :
     Medium:
     5:
     0.262247,0.261541,0.000000,0.000000,0.005773,159.000000,159.000000,0.000000,0.000000,0.000000,0.000000,0.262247,0.261541,0.000000,0.000000,0.005773,159.000000,159.000000,0.000000,0.000000,0.000000,0.000000:
000000
000000
000000
000000
,
000000
000000
000000
000000
,
000000
000000
000000
000000
,
000000
000000
000000
000000
,
100000
000000
000100
000000
000010
000100
000010
000000
,
000001
100000
001000
001000
,
010000
000100
000010
000100
,
100000
000001
010000
000010
,
010000
001000
000010
001000
,
000010
000010
010000
010000
,
000100
000010
000010
000000
001000
000000
001000
000000
,
000100
010000
010000
000000
001000
000000
001000
000000
,
010000
100000
000010
000001
,
000010
000010
010000
010000
,
000100
000010
000010
000000
010000
000000
010000
000000
,
000100
010000
010000
000000
001000
000000
001000
000000
,
000000
000010
000010
000010
,
100000
001000
001000
001000
,
010000
000001
000001
000001
,
000010
001000
001000
001000
,
010000
001000
000010
001000
,
000010
000010
010000
010000
,
000100
000010
000010
000000
001000
000000
001000
000000
,
000100
010000
010000
000000
001000
000000
001000
000000
,
000001
000000
000000
000000
010000
100000
010000
000000
,
100000
000000
000000
000000
000001
000010
000001
000000
,
001000
000000
000000
000000
010000
000100
000010
000000
,
001000
001000
010000
000001
,
001000
000000
000000
000000
000010
010000
000100
000000
,
100000
000000
000000
000000
000001
000001
000001
000000
,
000010
000000
000000
000000
100000
001000
100000
000000
,
000001
000001
000001
000001
,
000001
001000
000100
010000
,
000001
100000
000010
001000
,
000001
000000
000000
000000
100000
010000
010000
000000
,
100000
000000
000000
000000
000001
000010
000010
000000
,
000100
000000
010000
000000
000001
000001
001000
000000
,
010000
000000
000100
000000
000010
000010
001000
000000
,
010000
001000
000010
001000
,
000010
000010
010000
010000
,
000100
000010
000010
000000
001000
000000
001000
000000
,
000100
000000
000000
010000
000000
000000
000000
000000
000000
000000
000000
000000
000000
000000
000000
000000
;

//---------------dance-solo - ----------------
#NOTES:
     dance-solo:
     :
     Hard:
     7:
     0.410689,0.404200,0.161637,0.000000,0.150091,249.000000,235.000000,14.000000,0.000000,0.000000,0.000000,0.410689,0.404200,0.161637,0.000000,0.150091,249.000000,235.000000,14.000000,0.000000,0.000000,0.000000:
000000
000000
000000
000000
,
000000
000000
000000
000000
,
000000
000000
000000
000000
,
000000
000000
000000
000000
,
000100
000000
000000
000000
100000
000000
000000
000000
000100
010000
000000
000100
010000
000000
000000
000000
,
000001
001000
000001
000000
100000
000000
001000
000000
,
010000
010000
010000
000000
000010
001000
000010
000000
,
100000
001000
010000
000001
001000
000100
010000
000010
,
000100
010000
000000
000000
000100
010000
000000
000000
000010
000100
000000
000000
000010
000100
000000
000000
,
100000
100000
100000
000001
001000
000000
000010
000000
,
001000
010000
000001
010000
000001
000000
000000
000000
,
000001
100000
000010
010000
001000
000000
000000
000000
,
000100
000010
000000
000000
000100
000010
000000
000000
010000
000100
000000
000000
010000
000100
000000
000000
,
000001
000001
000001
100000
001000
000000
010000
000000
,
001000
000010
100000
000010
100000
000000
000000
000000
,
100000
000001
010000
000010
000100
000000
000000
000000
,
000100
100000
000010
001000
000001
010000
000010
001000
,
000010
000010
001000
001000
000100
010000
000001
100000
,
001000
010000
000010
001000
000100
000100
100000
001000
,
010000
010000
000001
000100
000010
001000
001000
000000
,
100001
000000
000000
000000
100001
000000
000000
000000
000100
010000
000000
000000
000100
010000
000000
000000
,
100000
100000
100000
000001
001000
000000
000010
000000
,
001000
010000
000001
010000
000001
000000
000000
000000
,
000001
100000
000010
010000
001000
000000
000000
000000
,
010100
000000
000110
000000
000001
100000
001000
000000
,
000110
000000
010100
000000
100000
001000
001000
000000
,
011000
000000
101000
000000
001000
001000
001000
000000
,
010010
100001
001100
001010
,
000100
000000
000000
000000
000000
001000
000000
000000
000000
000000
000100
000000
000000
000000
000000
000000
001000
000000
000000
000000
000000
000000
000000
000000
000000
000000
000000
000000
000000
000000
000000
000000
100000
000000
000000
000000
000000
000000
000000
000000
100000
000000
000000
000000
000000
000000
000000
000000
001000
000000
000000
000000
000000
000000
000000
000000
000000
000000
000000
000000
000000
000000
000000
000000
,
000001
000000
000000
000000
000000
001000
000000
000000
000000
000000
000001
000000
000000
000000
000000
000000
001000
000000
000000
000000
000000
000000
000000
000000
000000
000000
000000
000000
000000
000000
000000
000000
000100
000000
000000
000000
000000
000000
000000
000000
100000
000000
000000
000000
000000
000000
000000
000000
001000
000000
000000
000000
000000
000000
000000
000000
000000
000000
000000
000000
000000
000000
000000
000000
,
000100
000000
000000
000000
000000
001000
000000
000000
000000
000000
000100
000000
000000
000000
000000
000000
001000
000000
000000
000000
000000
000000
000000
000000
000000
000000
000000
000000
000000
000000
000000
000000
010000
000000
000000
000000
000000
000000
000000
000000
001000
000000
000000
000000
000000
000000
000000
000000
010000
000000
000000
000000
000000
000000
000000
000000
000000
000000
000000
000000
000000
000000
000000
000000
,
100000
000000
000000
000000
000000
000001
000000
000000
000000
000000
100000
000000
000000
000000
000000
000000
000001
000000
000000
000000
000000
000000
000000
000000
000100
000000
000000
000000
000000
000000
000000
000000
000000
000000
000000
000000
000000
000000
000000
000000
001000
000000
000000
000000
000000
000000
000000
000000
000000
000000
000000
000000
000001
000000
000000
000000
000000
000000
000000
000000
000000
000000
000000
000000
,
100000
000000
001000
000000
000100
000100
000010
000000
,
000001
000000
001000
000000
010000
010000
000001
000000
,
000100
000001
010000
001000
100000
000010
010000
001000
,
010000
010000
001000
001000
000100
000010
100000
000001
,
001000
000010
010000
001000
000100
000100
000001
001000
,
000010
000010
100000
000100
010000
001000
001000
000000
,
001000
000010
000000
000000
001000
000010
000000
000000
000001
100000
000000
000000
000001
100000
000000
000000
,
100000
100000
100000
000010
010000
000000
001000
000000
,
001000
100000
000001
001000
001000
000000
000000
000000
,
010100
000000
000000
001100
000000
000000
000000
000000
000000
000000
000000
000000
000000
000000
000000
000000
;

//---------------dance-single - ----------------
#NOTES:
     dance-single:
     :
     Beginner:
     2:
     0.080818,0.142009,0.046182,0.046182,0.000000,49.000000,45.000000,4.000000,4.000000,0.000000,0.000000,0.080818,0.142009,0.046182,0.046182,0.000000,49.000000,45.000000,4.000000,4.000000,0.000000,0.000000:
0000
0000
0000
0000
,
0000
0000
0000
0000
,
0000
0000
0000
0000
,
0000
0000
0000
0000
,
0010
0000
0000
0000
,
0100
0000
0000
0000
,
0001
0000
0000
0000
,
1000
0000
0000
0000
,
0010
0000
0010
0000
,
1000
0000
1000
0000
,
0002
0000
0003
0000
,
0100
0000
0000
0000
,
0001
0000
0001
0000
,
1000
0000
1000
0000
,
0200
0000
0300
0000
,
0010
0000
0000
0000
,
1001
0000
0000
0000
,
0000
0000
0000
0000
,
0100
0000
0000
0000
,
0000
0000
0000
0000
,
0001
0000
0001
0000
,
0100
0000
0100
0000
,
0020
0000
0030
0000
,
1000
0000
0000
0000
,
0001
0000
0000
0000
,
0010
0000
0000
0000
,
0001
0000
0000
0000
,
1000
1000
1000
0000
,
0010
0000
0000
0000
,
0100
0000
0000
0000
,
0001
0000
0000
0000
,
0100
0100
0100
0000
,
0110
0000
0000
0000
,
0000
0000
0000
0000
,
1001
0000
0000
0000
,
0000
0000
0000
0000
,
0010
0000
0000
0000
,
0000
0000
0000
0000
,
1000
0000
0001
0000
,
0100
0000
0010
0000
,
2000
0000
3000
0000
,
1001
0000
0000
0000
;

//---------------dance-single - ----------------
#NOTES:
     dance-single:
     :
     Challenge:
     13:
     0.545936,0.546029,0.254001,0.415637,0.588819,331.000000,309.000000,22.000000,36.000000,0.000000,0.000000,0.545936,0.546029,0.254001,0.415637,0.588819,331.000000,309.000000,22.000000,36.000000,0.000000,0.000000:
// measure 0
0000
0000
0000
0000
,  // measure 1
0000
0000
0000
0000
,  // measure 2
0000
0000
0000
0000
,  // measure 3
0000
0000
0000
0000
,  // measure 4
0020
0000
0000
2030
0100
0000
0000
0000
3001
0100
0010
0000
0010
0000
1000
0100
,  // measure 5
1000
0000
0001
0000
0010
0001
0000
0000
0100
0000
0010
0000
1000
0001
0100
0001
,  // measure 6
0100
0000
0200
0000
0000
0000
0310
2000
0000
0000
0000
0000
3001
0100
0010
0100
,  // measure 7
0000
0000
0001
0000
0000
0000
0000
0000
1000
0000
0000
0000
0010
0000
0000
1000
0000
0000
0000
0000
0000
0100
0000
0000
0000
0000
0000
0100
0000
0000
0000
0000
0000
0000
0000
0000
1000
0000
0000
0000
0000
0000
0001
0000
0000
0000
0000
0000
,  // measure 8
2000
0010
0000
0000
3020
0001
0000
0000
0032
0100
0000
0000
0103
1000
0000
2100
,  // measure 9
0000
0000
0001
0000
3001
0000
0100
0000
0010
1000
0100
0000
1000
0001
0000
0012
,  // measure 10
0000
0000
1000
0000
1000
0000
0100
0000
1000
0000
0010
0000
0013
0000
0000
0101
,  // measure 11
0000
0000
1100
0000
0001
0100
0001
0000
0100
0000
0010
0000
1000
0000
0000
0000
,  // measure 12
0002
0010
0000
0000
0023
1000
0000
0000
2030
0100
0000
0000
3100
0001
0000
0102
,  // measure 13
0000
0000
1000
0000
1003
0000
0100
0000
0001
0010
0001
0000
1000
0000
0001
0200
,  // measure 14
0000
0000
0010
0000
0010
0000
1000
0000
0010
0000
0001
0000
0301
0000
0000
1010
,  // measure 15
0000
0000
0101
0000
1000
0010
1000
0000
0001
0000
0010
0000
0100
0000
0000
2002
,  // measure 16
0000
3000
1003
0010
0100
1000
0100
0001
,  // measure 17
0010
0000
1000
0000
0010
0000
0100
0000
0010
0000
1000
0000
0010
0001
1000
0001
,  // measure 18
0200
0000
0010
0000
0010
0000
1000
0000
0001
0000
0301
1000
0100
1000
0000
0010
,  // measure 19
0001
0000
0100
0000
0001
1000
0000
0001
1000
0010
1000
0000
0001
0000
0000
0000
,  // measure 20
2000
0100
0000
0000
3200
0001
0000
0000
0302
0010
0000
0000
0013
1000
0000
1020
,  // measure 21
0000
0000
0100
0000
0130
0000
0001
0000
1000
0100
1000
0000
0010
0000
0100
0002
,  // measure 22
0000
0000
0010
0000
0010
0000
0100
0000
1000
0000
1000
0000
1003
0000
0000
0011
,  // measure 23
0000
0000
1100
0000
1000
0010
1000
0000
0100
0000
0010
0001
0100
0000
0000
0000
,  // measure 24
0001
0010
0100
1000
0000
0000
0000
0010
1000
0000
0001
0000
0001
0000
0000
0000
,  // measure 25
1000
0100
0010
0001
0000
0000
0000
0110
0000
0001
0100
0010
2000
0000
0000
0000
,  // measure 26
3100
1000
0001
0010
0000
0000
0000
0001
1000
0000
0100
0000
0100
0000
0000
0000
,  // measure 27
1000
0010
0100
0001
0000
0000
0022
0000
0000
0000
0000
0000
0030
0000
0000
0000
,  // measure 28
0103
0010
1000
0001
0000
0000
0000
1000
0100
0000
0010
0000
0010
0000
0000
0000
,  // measure 29
0001
0100
0010
1000
0000
0000
0000
0110
0000
1000
0100
0010
0002
0000
0000
0000
,  // measure 30
1003
0001
0100
0010
0000
0000
0000
0100
0001
0000
1000
0000
1000
0000
0000
0000
,  // measure 31
0001
1000
0100
0010
0000
0000
0011
0000
0000
1100
0000
0000
0101
0000
0000
0000
,  // measure 32
2010
0000
0001
0000
3001
0000
0000
1000
0001
0000
1000
0100
0010
0000
0000
0001
,  // measure 33
0100
0000
0010
0000
1000
0000
0000
0100
0000
1000
0001
0000
0100
0000
0000
2002
,  // measure 34
0000
0003
3001
0100
1000
0100
0010
0100
,  // measure 35
1000
0000
0100
0000
0001
0000
0010
0000
1000
0000
0010
0000
0100
0010
0001
1000
,  // measure 36
0020
0000
0100
0000
0130
0001
0000
1000
0001
0000
1000
0100
0010
0000
0000
0002
,  // measure 37
0000
0000
0100
0000
0103
0010
0000
0100
0010
0000
1000
0001
0100
0000
0100
0000
,  // measure 38
0002
0100
0000
0000
0203
1000
0000
0000
2300
0010
0000
0000
3010
0001
0000
0021
,  // measure 39
0000
0000
0100
0000
0130
0000
1000
0000
0001
0100
0001
0000
1000
0000
0010
0200
,  // measure 40
0001
0000
0001
0000
1000
0000
1000
0000
0010
0000
1000
0000
1300
0000
0000
0101
,  // measure 41
0000
1100
0000
0000
0000
0000
0000
0000
;
