#TITLE:GHOSTS (VINCENT DE MOOR REMIX);
#ARTIST:TENTH PLANET;
#BANNER:GHOSTS (VINCENT DE MOOR REMIX)-bn.png;
#BACKGROUND:GHOSTS (VINCENT DE MOOR REMIX)-bg.png;
#JACKET:GHOSTS (VINCENT DE MOOR REMIX)-jacket.png;
#DISCIMAGE:GHOSTS (VINCENT DE MOOR REMIX)-original.png;
#MUSIC:GHOSTS (VINCENT DE MOOR REMIX).ogg;
#SAMPLESTART:45.19;
#SAMPLELENGTH:20;
#DISPLAYBPM:138;
#BPMS:0=138.011,132=139.535,136=137.959;
#BGCHANGES:0=GHOSTS (VINCENT DE MOOR REMIX).mp4=1=0=0=0,
;

//---------------dance-single - ----------------
#NOTES:
     dance-single:
     :
     Beginner:
     3:
     :
0000
0000
0000
0000
,
0000
0000
0000
0000
,
0010
0000
0000
0000
,
0100
0000
0000
0000
,
0010
0000
0000
0000
,
0100
0000
0000
0000
,
1000
0000
0000
0000
,
0001
0000
0000
0000
,
0100
0000
0000
0000
,
0010
0000
0000
0000
,
1000
1000
1000
0000
,
0001
0001
0001
0000
,
0100
0100
0100
0000
,
0010
0010
0010
0000
,
1000
0000
1000
0000
,
0001
0000
0001
0000
,
0100
0000
0010
0000
,
0100
0000
0010
0000
,
1000
0000
1000
0000
,
0100
0000
0100
0000
,
0001
0000
0001
0000
,
0010
0000
0010
0000
,
1000
1000
1000
0000
,
0100
0100
0100
0000
,
0001
0001
0001
0000
,
0010
0010
0010
0000
,
1000
0000
0000
0000
,
0001
0000
0000
0000
,
0100
0000
0000
0000
,
0010
0000
0000
0000
,
1000
0000
0000
0000
,
0001
0000
0000
0000
,
0010
0000
0000
0000
,
0100
0000
0100
0000
,
0001
0000
0001
0000
,
0100
0000
0100
0000
,
1000
0000
1000
0000
,
0010
0000
0010
0000
,
0001
0001
0001
0000
,
0100
0100
0100
0000
,
1000
1000
1000
0000
,
0010
0010
0010
0000
,
0100
0000
0010
0010
,
0010
0000
0001
0001
,
0001
0000
0100
0000
,
1000
0000
0001
0000
,
0100
0000
0010
0010
,
0010
0000
0100
0100
,
0100
0000
0001
0000
,
1000
0000
0100
0100
;

//---------------dance-single - ----------------
#NOTES:
     dance-single:
     :
     Easy:
     5:
     :
0000
0000
0000
0000
,
0000
0000
0000
0000
,
0000
0000
0000
0000
,
0000
0000
0000
0000
,
0000
0000
0000
0000
,
0000
0000
0000
0000
,
2000
3000
0000
0000
,
0002
0003
0000
0000
,
0200
0300
0000
0000
,
0020
0030
0000
0000
,
1000
1000
1000
0000
,
0001
0001
0001
0000
,
0100
0100
0100
0000
,
0010
0010
0010
0000
,
1000
0000
1000
0000
,
0001
0000
0001
0000
,
0100
0000
0010
0000
,
0100
0000
0010
0000
,
1000
0100
1000
0001
,
1000
0100
1000
0001
,
1000
0100
1000
0001
,
1000
0100
1000
0001
,
0100
0010
1000
0001
,
0100
0010
1000
0001
,
0100
0010
1000
0001
,
0100
0010
0100
0010
,
2000
3000
0000
0000
,
0002
0003
0000
0000
,
0200
0300
0000
0000
,
0020
0030
0000
0000
,
2000
3000
0000
0000
,
0002
0003
0000
0000
,
0020
0030
0000
0000
,
0200
0300
0100
0100
,
1000
0001
1000
0100
,
1000
0001
1000
0100
,
1000
0001
1000
0100
,
0010
0001
0100
0001
,
1000
0010
1000
0001
,
1000
0010
1000
0001
,
1000
0010
1000
0001
,
0010
0100
1000
0001
,
0100
0000
0010
0010
,
1000
0000
0001
0001
,
0010
0000
0100
0000
,
1000
0000
0001
0000
,
0100
0000
0010
0010
,
1000
0000
0100
0100
,
0010
0000
0001
0000
,
1000
0000
0100
0010
,
0000
0000
0000
0000
;

//---------------dance-single - ----------------
#NOTES:
     dance-single:
     :
     Medium:
     8:
     :
0000
0000
0000
0000
,
0000
0000
0000
0000
,
0000
0000
0000
0000
,
0000
0000
0000
0000
,
0000
0000
0000
0000
,
0000
0000
0000
0000
,
0020
0000
0000
0030
,
0200
0000
0000
0300
,
0020
0000
0000
0030
,
0200
0000
0000
0300
,
1001
0100
0100
0100
,
1001
0100
0100
0100
,
1001
0100
0100
0100
,
1001
0100
0100
0100
,
1001
0100
1001
0010
,
1001
0100
1001
0010
,
1001
0100
1001
0010
,
1001
0100
0010
1001
,
0100
0000
0010
0000
0001
0000
1000
0100
,
0010
0000
0001
0000
1000
0000
0001
0100
,
0010
0000
1000
0000
0100
0000
0010
0001
,
1000
0000
0010
0000
0001
0000
0010
0100
,
1000
0010
1000
0000
0001
0000
0010
0100
,
1000
0001
0100
0000
1000
0000
0100
0010
,
0001
0100
0010
0000
1000
0000
0001
0010
,
0100
1000
0001
0000
0100
0010
1000
0001
,
0020
0000
0000
0000
,
0000
0000
0000
0000
,
0000
0000
0000
0000
,
0000
0000
0000
0030
,
0100
0000
1000
0000
0001
0100
0001
0000
,
1000
0000
0010
0000
0100
0001
0100
0000
,
0010
1000
0001
1000
,
0100
0010
0001
0100
0010
1000
0001
0000
,
1000
0000
0000
0100
0000
0000
0010
0000
0001
0000
0000
0100
0000
0000
0010
0000
,
1000
0000
0000
0001
0000
0000
0100
0000
0001
0000
0000
1000
0000
0000
0100
0000
,
0010
0000
0000
0001
0000
0000
0100
0000
0010
0000
0000
1000
0000
0000
0100
0000
,
0010
0000
0000
0001
0000
0000
1000
0000
0010
0000
0000
1000
0000
0000
0001
0000
,
0100
0000
0000
0010
0000
0000
0010
0000
1000
0000
0000
0100
0000
0000
0100
0000
,
0010
0000
0000
0001
0000
0000
0001
0000
0100
0000
0000
1000
0000
0000
1000
0000
,
0001
0000
0000
0010
0000
0000
0010
0000
0100
0000
0000
0001
0000
0000
0001
0000
,
1000
0000
0000
0010
0000
0000
0010
0000
0001
0000
0000
0010
0000
0000
0100
0000
,
1000
0001
0100
0010
1000
0001
0010
0000
,
0001
1000
0100
0001
0000
0100
1000
0000
,
0001
0100
1000
0100
,
0010
0001
0100
0010
0000
1000
1000
0000
,
0001
0100
0010
1000
0100
0000
0010
0000
,
1000
0010
0100
0001
0010
0000
0100
0000
,
1000
0001
0001
1000
,
0010
0000
0000
0100
0000
0000
0001
0000
0010
0000
0000
0100
0000
0000
1001
0000
,
0000
0000
0000
0000
;

//---------------dance-single - ----------------
#NOTES:
     dance-single:
     :
     Hard:
     12:
     :
0000
0000
0000
0000
,
0000
0000
0000
0000
,
0000
0000
0000
0000
,
0000
0000
0000
0000
,
0000
0000
0000
0000
,
0000
0000
0000
0000
,
1000
0100
2000
0000
0000
0000
0000
0000
0000
0000
0000
0000
3000
0000
0000
0000
,
0001
0100
0002
0000
0000
0000
0000
0000
0000
0000
0000
0000
0003
0000
0000
0000
,
1000
0010
2000
0000
0000
0000
0000
0000
0000
0000
0000
0000
3000
0000
0000
0000
,
0001
0010
0002
0000
0000
0000
0000
0000
0000
0000
0000
0000
0003
0000
0000
0000
,
1000
0000
0000
0100
0000
0010
0001
0000
0100
0000
0000
0010
0000
1000
0100
0000
,
0010
0000
0000
0001
0000
0100
0010
0000
1000
0000
0000
0001
0000
0010
0100
0000
,
1000
0000
0000
0010
0000
0100
0001
0000
0010
0000
0000
0100
0000
1000
0001
0000
,
0100
0000
0000
0010
0000
1000
0100
0000
0010
0000
0000
0001
0000
1000
0010
0000
,
0100
0000
0000
0001
0000
1000
0010
0000
0100
0000
0000
0001
0000
0010
0100
0000
,
1000
0000
0000
0001
0000
0010
0100
0000
1000
0000
0000
0010
0000
0100
0001
0000
,
0010
0000
0000
0100
0000
1000
0010
0000
0100
0000
0000
0001
0000
0010
0100
0000
,
1000
0000
0000
0001
0000
0100
0010
0000
1000
0000
0000
0100
0000
0010
0100
0000
,
2000
0000
0000
0001
0000
0000
0001
0000
0000
0000
0000
0001
3000
0000
0001
0000
,
0020
0000
0000
0100
0000
0000
0100
0000
0000
0000
0000
0100
0030
0000
0100
0000
,
2000
0000
0000
0010
0000
0000
0010
0000
0000
0000
0000
0010
3000
0000
0010
0000
,
0200
0000
0000
0001
0000
0000
0001
0000
0000
0000
0000
0001
0300
0000
0001
0000
,
0020
0000
0000
0100
0030
0000
0001
0000
2000
0000
0000
0010
3000
0000
0001
0000
,
0200
0000
0000
1000
0300
0000
0001
0000
0020
0000
0000
1000
0030
0000
0001
0000
,
0200
0000
0000
0010
0300
0000
0001
0000
2000
0000
0000
0100
3000
0000
0001
0000
,
0020
0000
0000
0100
0030
0000
0001
0000
0100
0000
0000
0010
0000
0000
1001
0000
,
0200
0000
0000
0300
,
0020
0000
0000
0030
,
0002
0000
0000
0003
,
0200
0000
0000
0300
,
0010
1000
0010
1000
0010
0000
0000
0000
0100
0010
0100
0010
0100
0000
0000
0000
,
0001
0100
0001
0100
0001
0000
0000
0000
0010
0100
0010
0100
0010
0000
0000
0000
,
1000
0010
1000
0010
1000
0000
0000
0000
0100
0001
0100
0001
0100
0000
0000
0000
,
0010
0100
0010
0100
0010
0100
0010
0100
0001
1000
0001
1000
0001
1000
0001
0000
,
0010
0000
0000
0100
0000
1000
0010
0000
0100
0000
0000
0001
0000
1000
0100
0000
,
0010
0000
0000
0001
0000
0100
0010
0000
1000
0000
0000
0001
0000
0010
0100
0000
,
1000
0000
0000
0010
0000
0100
0001
0000
0010
0000
0000
0100
0000
1000
0001
0000
,
0100
0000
0000
0010
0000
1000
0100
0000
0010
0000
0000
0001
0000
1000
0100
0000
,
0010
0000
0000
0001
0000
0100
0010
0000
1000
0000
0000
0100
0000
0010
0001
0000
,
1000
0000
0000
0010
0000
0100
0001
0000
1000
0000
0000
0100
0000
0010
0001
0000
,
0100
0000
0000
0010
0000
1000
0001
0000
0010
0000
0000
0100
0000
1000
0010
0000
,
0100
0000
0000
0001
0000
1000
0100
0000
0010
0000
0000
0001
0000
0100
0001
0000
,
2000
0000
0000
0100
0000
0000
0100
0000
0000
0000
0000
0001
3000
0000
0001
0000
,
0200
0000
0000
0010
0000
0000
0010
0000
0000
0000
0000
1000
0300
0000
1000
0000
,
0020
0000
0000
0001
0000
0000
0001
0000
0000
0000
0000
0100
0030
0000
0100
0000
,
0002
0000
0000
0100
0000
0000
0100
0000
0000
0000
0000
1000
0003
0000
1000
0000
,
0020
0000
0000
0100
0030
0000
0100
0000
0002
0000
0000
0100
0003
0000
0100
0000
,
2000
0000
0000
0010
3000
0000
0010
0000
0200
0000
0000
0010
0300
0000
0010
0000
,
0002
0000
0000
1000
0003
0000
0100
0000
0020
0000
0000
0100
0030
0000
0001
0000
,
0100
0000
0000
0010
0000
1000
0001
0000
0010
0000
0000
0100
0000
1000
0001
0000
,
0000
0000
0000
0000
;

//---------------dance-single - ----------------
#NOTES:
     dance-single:
     :
     Challenge:
     14:
     :
0000
0000
0000
0000
,
0000
0000
0000
0000
,
0000
0000
0000
0000
,
0000
0000
0000
0000
,
0000
0000
0000
0000
,
0000
0000
0000
0000
,
0000
0000
0000
0000
,
0000
0000
0000
0000
,
0000
0000
0000
0000
,
0000
0000
0000
0000
,
0001
0100
0001
0100
0000
0010
1000
0000
0001
0000
0000
0010
0000
0001
0100
0000
,
0010
1000
0010
1000
0000
0001
0010
0000
0100
0000
0000
1000
0000
0001
0100
0000
,
0010
0100
0010
0100
0000
0001
0010
0000
0100
0000
0000
1000
0000
0001
1000
0000
,
0100
0010
0100
0010
0000
0001
0100
0000
0010
0000
0000
1000
0000
0100
1000
0000
,
0101
0000
0000
0010
0000
1000
0001
0000
1010
0000
0000
0100
0000
0010
0001
0000
,
1100
0000
0000
0010
0000
0100
1000
0000
0011
0000
0000
0001
0000
1000
0100
0000
,
0110
0000
0000
0001
0000
1000
0010
0000
1001
0000
0000
0100
0000
0010
1000
0000
,
0001
0000
0010
0100
0000
0100
1000
0000
0010
0000
1000
0001
0000
0001
0100
0000
,
0010
0000
0000
1000
0010
0100
0001
0000
0010
0000
0000
0001
0100
0010
1000
0000
,
0100
0000
0000
1000
0010
1000
0001
0000
0010
0000
0000
0100
0010
0001
1000
0000
,
0010
0000
0000
1000
0001
1000
0100
0000
0010
0000
0000
0100
0010
0001
1000
0000
,
0001
0000
0000
0010
0100
1000
0010
0000
0100
0000
0000
0100
0010
1000
0001
0000
,
0010
0000
0000
0001
1000
0001
0100
0000
0010
0000
0000
1000
0100
0010
0001
0000
,
1000
0000
0000
0010
0100
0010
0100
0000
0001
0000
0000
1000
0100
1000
0100
0000
,
0010
0000
0000
0001
0100
0010
1000
0000
0100
0000
0000
0010
0100
1000
0001
0000
,
0100
0000
0000
0010
1000
0010
1000
0000
0100
0000
0000
0010
0001
1000
0010
0000
,
0100
0000
0000
0001
0000
0010
0001
0000
0100
0000
0010
0000
1000
0000
0001
0000
,
0010
0000
0000
0100
0000
1000
0010
0000
0100
0000
0000
0000
0001
0000
1000
0000
,
0001
0000
0010
0100
0000
0010
0100
0000
1000
0000
0010
0100
0000
0010
0100
0000
,
0001
0000
1000
0010
0000
1000
0010
0000
0100
0000
0001
0010
0000
0001
1000
0000
,
0010
1000
0010
0100
0000
0100
0001
0000
0011
0000
0000
0100
0000
1000
0001
0000
,
1010
0000
0000
0100
0000
0010
1000
0000
1100
0000
0000
0001
0000
1000
0100
0000
,
0010
0001
0010
0100
0000
0100
1000
0000
0101
0000
0000
0010
0000
1000
0001
0000
,
0110
0000
0000
1000
0000
1000
0100
0000
1001
0000
0000
0001
0000
0001
0100
0000
,
0010
1000
0010
0100
0000
0100
0001
0000
0010
0000
0000
0100
0010
0001
1000
0000
,
0010
1000
0010
1000
0000
1000
0100
0000
0010
0000
0000
0001
0100
0010
0100
0000
,
0001
1000
0010
1000
0000
0100
0010
0000
0001
0000
0000
0100
0010
1000
0001
0000
,
0010
0100
0010
0001
0000
1000
0001
0000
0100
0000
0000
0010
1000
0001
0100
0000
,
0010
0000
1000
0100
0000
0100
0010
0000
0001
0000
1000
0001
0000
0001
0100
0000
,
0010
0000
1000
0001
0000
0001
0010
0000
0100
0000
0010
0001
0000
0001
1000
0000
,
0010
0000
1000
0001
0000
1000
0100
0000
0010
0000
0100
1000
0000
0001
1000
0000
,
0010
0000
1000
0001
0000
0001
0010
0000
0100
0000
1000
0010
0000
1000
0010
0000
,
0100
0001
0010
0100
0000
1000
0010
0000
0100
0000
0001
1000
0000
1000
0010
0000
,
1000
0100
0010
0001
0000
0100
0010
0000
0100
0000
0001
0010
0000
0001
1000
0000
,
0010
1000
0010
0100
0000
0001
0010
0000
0100
0000
1000
0010
0000
0100
0001
0000
,
1000
0100
1000
0010
0000
1000
0001
0000
0010
0000
0100
0010
0000
0100
0010
0000
,
0001
0000
0000
1000
0000
0010
0100
0000
0010
0000
0000
1000
0000
0100
0010
0000
,
0001
0000
0000
0010
0000
0001
1000
0000
0010
0000
0000
0100
0000
0100
0010
0000
,
1000
0000
0000
0001
0000
0010
0100
0000
1000
0000
0000
0001
0000
0100
0010
0000
,
1000
0000
0000
1000
0000
0010
0100
0000
0001
0000
0000
0001
0000
0010
0100
0000
;

//---------------dance-double - ----------------
#NOTES:
     dance-double:
     :
     Easy:
     5:
     :
00000000
00000000
00000000
00000000
,
00000000
00000000
00000000
00000000
,
00000000
00000000
00000000
00000000
,
00000000
00000000
00000000
00000000
,
00000000
00000000
00000000
00000000
,
00000000
00000000
00000000
00000000
,
20000000
00000000
30000000
00000000
,
02000000
00000000
03000000
00000000
,
00020000
00000000
00030000
00000000
,
00002000
00000000
00003000
00000000
,
00000100
00000001
00000100
00000001
,
00001000
00000010
00000001
00000010
,
00000100
00010000
00000100
00010000
,
00001000
00000010
00010000
00100000
,
10000000
01000000
00100000
00000000
,
00010000
01000000
00100000
00000000
,
10000000
01000000
00100000
00000000
,
00001000
00010000
00001000
00010000
,
01000000
10000000
01000000
10000000
,
00010000
00100000
10000000
00100000
,
01000000
00001000
01000000
00001000
,
00010000
00100000
00001000
00000010
,
00000001
00000100
00000010
00000000
,
00001000
00000100
00000010
00000000
,
00000001
00000100
00000010
00000000
,
00010000
00001000
00010000
00001000
,
00100000
00000000
00000000
00000000
,
01000000
00000000
00000000
00000000
,
10000000
00000000
00000000
00000000
,
00010000
00000000
00000000
00000000
,
01000000
00000000
00000000
00000000
,
00001000
00000000
00000000
00000000
,
00000010
00000000
00000000
00000000
,
00000001
00000000
00000000
00000000
,
00000100
00000001
00000100
00000001
,
00001000
00000010
00000001
00000010
,
00000100
00001000
00000100
00001000
,
00000001
00000010
00001000
00000010
,
00000100
00001000
00010000
00000000
,
01000000
10000000
00010000
00000000
,
01000000
00001000
00010000
00000000
,
00000010
00000001
00001000
00000100
,
00010000
01000000
01000000
01000000
,
00010000
00001000
00000100
00000100
,
00010000
01000000
01000000
01000000
,
00010000
00001000
00000100
00000100
,
00000001
00000010
00000010
00000010
,
00001000
00010000
00100000
00100000
,
10000000
01000000
01000000
01000000
,
00010000
00001000
00000100
00000001
,
00000000
00000000
00000000
00000000
;

//---------------dance-double - ----------------
#NOTES:
     dance-double:
     :
     Medium:
     7:
     :
00000000
00000000
00000000
00000000
,
00000000
00000000
00000000
00000000
,
00000000
00000000
00000000
00000000
,
00000000
00000000
00000000
00000000
,
00000000
00000000
00000000
00000000
,
00000000
00000000
00000000
00000000
,
00000001
00000001
00000001
00000000
,
00001000
00001000
00001000
00000000
,
00000100
00000100
00000100
00000000
,
00010000
00010000
00020000
00030000
,
00001000
00000010
00000001
00000100
,
00001000
00010000
01000000
10000000
,
00010000
01000000
10000000
01000000
,
00100000
00010000
01000000
00100000
,
10000000
01000000
00010000
01000000
,
10000000
00100000
00010000
00100000
,
10000000
01000000
00010000
00001000
,
00000100
00000001
00001000
00000100
,
00000010
00000001
00000000
00000001
00000000
00000100
00000000
00000100
,
00000000
00000010
00000000
00000010
00000000
00001000
00000000
00001000
,
00000000
00000100
00000000
00000100
00000000
00000010
00000000
00000010
,
00000000
00000001
00000000
00000001
00000000
00001000
00000000
00001000
,
00000100
00010000
00000000
00010000
00000000
00001000
00000000
00001000
,
00000000
00100000
00000000
00100000
00000000
10000000
00000000
10000000
,
00000000
00010000
00000000
00010000
00000000
01000000
00000000
01000000
,
00000000
00100000
00000000
00100000
00000000
10000000
01000000
00100000
,
00020000
00000000
00000000
00030000
,
00002000
00000000
00000000
00003000
,
00000002
00000000
00000000
00000003
,
00000200
00000000
00000000
00000300
,
00000020
00000030
00010000
00000000
,
00200000
00300000
10000000
00000000
,
02000000
03000000
00010000
00000000
,
00002000
00003000
00000100
00000000
,
00000010
00000000
00000001
00000000
00001000
00000000
00000010
00000100
,
00001000
00000000
00010000
00000000
01000000
00000000
10000000
00010000
,
01000000
00000000
00100000
00000000
00010000
00000000
00001000
00000010
,
00000001
00001000
00000001
00001000
,
00000100
00000000
00010000
00000000
00100000
00000000
10000000
01000000
,
00010000
00000000
00001000
00000000
00000100
00000000
00000001
00000010
,
00000100
00010000
00001000
00100000
,
01000000
00000000
10000000
00000000
00100000
00000000
00010000
00001000
,
00000010
00000000
00000001
00000000
00001000
00000010
00000100
00000000
,
00001000
00010000
01000000
10000000
,
00010000
01000000
10000000
01000000
,
00010000
01000000
10000000
01000000
,
00010000
00001000
00000100
00001001
,
00000100
00000100
00000100
00001001
,
00000100
00010000
01000000
10000000
,
00010000
00000000
00100000
00000000
01000000
00000000
10000000
00010000
,
00000000
00000000
00000000
00000000
;

//---------------dance-double - ----------------
#NOTES:
     dance-double:
     :
     Hard:
     11:
     :
00000000
00000000
00000000
00000000
,
00000000
00000000
00000000
00000000
,
00000000
00000000
00000000
00000000
,
00000000
00000000
00000000
00000000
,
00000000
00000000
00000000
00000000
,
00000000
00000000
00000000
00000000
,
00001000
00001000
00001000
00001000
,
00000100
00000100
00000100
00000100
,
00010000
00010000
00010000
00010000
,
01000000
01000000
01000000
01000000
,
10000000
00100000
01000000
00010000
00100000
01000000
00010000
01000000
,
00010000
00001000
00000100
00000001
00000100
00000010
00001000
00000100
,
00000010
00000001
00000100
00000010
00001000
00000100
00000010
00000001
,
00000100
00001000
00010000
01000000
00010000
00001000
00000100
00000001
,
00001000
00000100
00010000
00000100
00001000
00000010
00000100
00001000
,
00010000
00100000
10000000
01000000
00100000
00010000
01000000
00001000
,
00010000
00000100
00000010
00000001
00000100
00000010
00001000
00000001
,
00000010
00000100
00010000
00001000
00100000
00010000
10000000
10000000
,
01000000
01000000
01000000
01000000
02000000
03000000
00100000
00010000
,
01000000
01000000
01000000
01000000
02000000
03000000
00001000
00010000
,
00000010
00000010
00000010
00000010
00000020
00000030
00001000
00000100
,
00000010
00000010
00000010
00000010
00000020
00000030
00000001
00000100
,
00000010
00001000
00000100
00000010
00000002
00000003
00001000
00000100
,
00010000
00001000
00100000
01000000
20000000
30000000
00100000
01000000
,
00010000
00100000
01000000
10000000
00020000
00030000
01000000
00100000
,
10000000
01000000
00010000
00001000
00000100
00000001
00000010
00000100
,
00001001
00000000
00000000
00000000
,
00011000
00000000
00000000
00000000
,
00110000
00000000
00000000
00000000
,
11000000
00000000
00000000
00000000
,
01010000
00000000
00002000
00003000
,
00010010
00000000
00002000
00003000
,
00000101
00000000
00000020
00000030
,
00001100
00000000
00010000
00001000
,
00100000
01000000
10000000
01000000
00200000
00300000
00010000
01000000
,
00100000
00010000
00001000
00000010
00000002
00000003
00001000
00000010
,
00000100
00000001
00001000
00000100
00000020
00000030
00000001
00000100
,
00000010
00001000
00000100
00010000
00002000
00003000
00100000
00010000
,
01000000
00100000
10000000
01000000
00200000
00300000
00010000
01000000
,
00001000
00010000
01000000
00010000
00002000
00003000
00000100
00000001
,
00000010
00000100
00001000
00000010
00000200
00000300
00000001
00000010
,
00000100
00010000
00000010
00000100
00002000
00003000
00020000
00030000
,
00100000
10000000
01000000
00100000
00010000
01000000
01010000
00000000
,
00100000
10000000
01000000
00010000
00001000
00000100
00000101
00000000
,
00001000
00000100
00000010
00000001
00000100
00000010
00001001
00000000
,
00000100
00000010
00001000
00000100
00010000
00001000
00011000
00000000
,
00100000
01000000
10000000
00010000
01000000
00100000
10010000
00000000
,
01000000
00010000
00001000
00000100
00001000
00010000
00011000
00000000
,
00000010
00000100
00000001
00000010
00000100
00001000
00000001
00000100
,
00000010
00001000
00000100
00000010
00001000
00010000
00100000
10000000
,
00000000
00000000
00000000
00000000
;
