#VERSION:0.83;
#TITLE:GET THE CHANCE!;
#SUBTITLE:;
#ARTIST:MEGU & SEVEN WINDS;
#TITLETRANSLIT:;
#SUBTITLETRANSLIT:;
#ARTISTTRANSLIT:;
#GENRE:;
#ORIGIN:;
#CREDIT:;
#BANNER:GET THE CHANCE!-bn.png;
#BACKGROUND:GET THE CHANCE!-bg.png;
#PREVIEWVID:;
#JACKET:GET THE CHANCE!-jacket.png;
#CDIMAGE:;
#DISCIMAGE:;
#LYRICSPATH:;
#CDTITLE:;
#MUSIC:GET THE CHANCE!.ogg;
#OFFSET:0.000000;
#SAMPLESTART:57.313000;
#SAMPLELENGTH:20.000000;
#SELECTABLE:YES;
#DISPLAYBPM:134.000000;
#BPMS:0.000=134.000;
#STOPS:;
#DELAYS:;
#WARPS:;
#TIMESIGNATURES:0.000=4=4;
#TICKCOUNTS:0.000=4;
#COMBOS:0.000=1;
#SPEEDS:0.000=1.000=0.000=0;
#SCROLLS:0.000=1.000;
#FAKES:;
#LABELS:0.000=Song Start;
#BGCHANGES:;
#KEYSOUNDS:;
#ATTACKS:
;

//---------------dance-single - ----------------
#NOTEDATA:;
#CHARTNAME:;
#STEPSTYPE:dance-single;
#DESCRIPTION:;
#CHARTSTYLE:;
#DIFFICULTY:Hard;
#METER:12;
#RADARVALUES:0.534232,0.524724,0.199205,0.253534,0.289753,413.000000,391.000000,22.000000,28.000000,0.000000,0.000000,0.000000,0.000000,0.000000,0.534232,0.524724,0.199205,0.253534,0.289753,413.000000,391.000000,22.000000,28.000000,0.000000,0.000000,0.000000,0.000000,0.000000;
#CREDIT:;
#DISPLAYBPM:134.000000;
#NOTES:
0000
0000
0000
0000
,
0000
0000
0000
0000
,
0000
0000
0000
0000
,
0000
0000
0000
0000
,
0001
0000
0000
0000
1000
0000
0001
0100
0001
0000
0010
0000
0100
0000
0000
0000
,
1000
0000
0010
0000
1000
0000
0001
0100
0001
0000
0010
0000
0010
0000
0000
0000
,
1001
0000
0000
0000
0100
0000
0010
1000
0010
0000
0100
0000
0001
0000
0000
0000
,
0010
0000
0001
0000
0100
0000
0001
1000
0001
0000
0100
0000
0100
0000
0000
0000
,
0220
0000
0000
0000
0330
0000
1000
0001
2000
0000
0000
0000
3000
0000
0100
0000
,
0010
0001
0200
0000
0000
0000
0310
0000
,
2020
0000
0000
0000
3030
0000
0100
0001
0200
0000
0000
0000
0000
0000
0000
0000
,
0301
0010
0001
0100
1000
0010
1000
0100
,
0220
0000
0000
0000
0330
0000
0001
1000
0002
0000
0000
0000
0003
0000
0100
0000
,
0001
1000
0020
0000
0000
0000
0130
0000
,
0202
0000
0000
0000
0303
0000
1000
0010
2000
0000
0000
0000
0000
0000
0000
0000
,
3001
1000
0010
0100
0001
1000
0010
0100
,
0002
0000
0000
0000
0003
0000
1000
0100
1000
0000
0001
0000
0100
0000
0000
0000
,
0010
0000
1000
0000
0000
0000
0001
0010
0001
0000
0100
0000
1000
0000
0000
0000
,
2200
0000
0000
0000
3300
0000
0001
1000
0001
0000
0100
0000
0010
0000
0000
0000
,
1001
0000
0000
0000
1001
0000
0100
0010
0100
0000
0001
0000
0001
0000
0000
0000
,
0022
0000
0000
0000
0033
0000
0100
0001
0100
0000
0010
0000
1000
0000
0000
0000
,
0100
0000
0010
0000
0000
0000
0001
1000
0001
0000
0010
0000
0100
0000
0000
0000
,
1000
0000
0010
0000
1000
0000
0100
0010
0100
0000
1000
0000
0001
0000
0000
0000
,
0101
0000
0000
0000
0101
0000
1000
0001
1000
0000
0010
0000
0010
0000
0000
0000
,
0110
0000
0001
0000
1000
0000
0001
0010
0001
0000
0100
0000
0000
0000
0010
0000
,
1000
0000
0100
0000
0000
0000
1000
0001
1000
0000
0010
0000
0100
0000
0000
0000
,
0101
0000
0010
0000
1000
0000
0001
1000
0001
0000
0100
0000
0000
0000
0010
0000
,
1010
0000
0000
0000
1010
0000
1000
0001
1000
0000
0100
0000
0010
0000
0000
0000
,
0001
0000
0100
0000
0010
0000
1000
0001
1000
0000
0100
0000
0010
0000
0000
0000
,
0001
0000
1000
0000
0001
0000
0100
0010
0100
0000
0001
0000
1000
0000
0000
0000
,
0100
0000
0010
0000
0001
0000
1000
0010
1000
0000
0002
0000
0000
0000
0000
0000
,
1003
0000
0100
0000
0010
0000
0001
1000
0001
0000
0200
0000
0000
0000
0000
0000
,
0310
0000
0000
1000
0010
0000
0000
0100
0001
0000
0000
0010
0001
0000
0000
1000
,
0001
0000
0000
1000
0100
0000
0000
0010
0001
0000
0100
0000
1000
0000
0010
0000
,
0000
0000
1000
0000
0100
0000
1000
0001
0000
0000
1000
0000
0100
0000
0010
0000
,
0001
0100
0001
0010
1000
0100
0001
0000
,
1000
0000
0000
0001
0100
0000
0000
0001
0010
0000
0000
0100
1000
0000
0000
0010
,
1000
0000
0000
0010
0100
0000
0000
0001
1000
0000
0100
0000
0010
0000
0001
0000
,
0000
0000
0100
0000
0010
0000
0100
0001
0000
0000
1000
0000
0010
0000
0001
0000
,
0000
0000
1000
0000
0010
0000
1000
0100
0000
0000
0010
0000
0001
1000
0000
0000
,
2020
0000
0000
0000
3030
0000
0001
0010
0001
0000
0100
0000
1000
0000
0000
0000
,
0010
1000
0001
1000
0000
0100
0010
0001
,
0100
0000
0000
0000
0010
0000
1000
0100
1000
0000
0000
0000
0001
0000
0010
0000
,
0100
0000
1000
0000
0001
0000
1000
0010
1000
0000
0001
0000
0100
0000
0000
0000
,
2001
0000
3200
0000
1300
0010
0001
0000
,
0100
0000
0001
0000
0010
0000
0001
1000
0001
0000
1000
0000
0100
0000
0000
0000
,
0011
0000
0000
0000
0100
0000
0001
1000
0001
0000
0010
0000
0100
0000
1000
0000
,
0010
1000
0100
0010
0002
0000
0000
0000
,
0013
0000
0001
0000
0100
0000
0010
1000
0010
0000
1000
0000
0100
0000
0000
0000
,
1100
0000
1100
0001
0100
0010
0010
0000
,
1001
0000
0100
0000
0010
0000
1000
0001
1000
0000
0100
0000
0001
0000
0000
0000
,
0100
0000
0100
0000
0100
0000
0001
1000
0001
0000
0010
0000
0010
0000
0000
0000
,
0001
0000
0000
0010
0001
0000
0000
0100
0010
0000
0000
1000
0100
0000
0000
0010
,
0001
0000
0000
0100
0001
0000
0000
1000
0010
0000
0100
0000
0001
0000
1000
0000
,
0000
0000
0100
0000
0010
0000
0001
1000
0000
0000
0001
0000
1000
0000
0100
0000
,
0010
0001
0100
0001
1000
0100
0001
0000
,
0010
0000
0000
0001
0100
0000
0000
0010
1000
0000
0000
0100
1000
0000
0000
0010
,
1000
0000
0000
0001
1000
0000
0000
0100
0010
0000
0001
0000
0100
0000
1000
0000
,
0000
0000
0001
0000
0010
0000
0001
1000
0000
0000
0010
0000
1000
0000
0100
0000
,
0000
0000
0010
0000
0001
0000
1000
0001
0000
0000
1000
0000
0100
0010
0000
0000
,
0022
0000
0000
0000
,
0033
0000
0000
0000
;

//---------------dance-single - ----------------
#NOTEDATA:;
#CHARTNAME:;
#STEPSTYPE:dance-single;
#DESCRIPTION:;
#CHARTSTYLE:;
#DIFFICULTY:Medium;
#METER:9;
#RADARVALUES:0.369952,0.386639,0.181095,0.525177,0.000000,286.000000,266.000000,20.000000,58.000000,0.000000,0.000000,0.000000,0.000000,0.000000,0.369952,0.386639,0.181095,0.525177,0.000000,286.000000,266.000000,20.000000,58.000000,0.000000,0.000000,0.000000,0.000000,0.000000;
#CREDIT:;
#DISPLAYBPM:134.000000;
#NOTES:
0000
0000
0000
0000
,
0000
0000
0000
0000
,
0000
0000
0000
0000
,
0000
0000
0000
0000
,
0001
0000
1000
0000
0001
0010
0100
0000
,
1000
0100
1000
0000
0000
0001
0100
0000
,
0010
0000
0100
0000
0010
1000
0100
0000
,
1000
0001
1000
0000
0000
0010
0100
0000
,
0220
0000
0330
1000
0002
0000
0003
1000
,
0001
1000
0200
0000
0000
0000
0310
0000
,
0022
0000
0033
0001
0200
0000
0000
0000
,
0302
2003
3020
0130
,
2002
0000
3003
1000
0020
0000
0030
0100
,
0001
1000
0002
0000
0000
0000
0013
0000
,
2200
0000
3300
0100
2000
0000
0000
0000
,
3020
2030
3002
0203
,
0320
0000
0030
1000
0001
1000
0000
0000
,
0010
1000
0000
0001
0100
0001
0000
0000
,
2000
0000
3000
0001
0100
0001
0000
0000
,
1001
0000
1001
0000
1000
0001
0100
0000
,
0220
0000
0330
1000
0010
1000
0000
0000
,
0001
0100
0000
0001
1000
0001
0000
0000
,
2020
0000
3030
0100
0010
0100
0000
0000
,
0101
0000
0101
0000
0010
1000
0001
0000
,
0011
0000
0001
0000
1000
0010
0000
1000
,
0001
0000
1000
0100
0000
0010
0001
0000
,
1100
0000
1000
0000
0010
0100
0000
0010
,
1000
0000
0001
0010
0000
0100
1000
0000
,
0110
0000
0001
0000
0100
0010
0000
0100
,
0001
0000
1000
0010
0000
0100
0001
0000
,
0010
0001
0100
0000
0001
0010
1000
0000
,
0100
0010
0001
0000
1000
0020
0000
0000
,
0130
0000
0100
0000
0001
0010
0001
1000
,
0010
0000
0010
0000
1000
0100
1000
0001
,
0000
0010
0002
0000
0203
0000
0310
1000
,
0100
0000
0000
1100
0000
0202
0000
0303
,
1000
0000
1000
0000
0001
0010
0001
0100
,
0010
0000
0010
0000
0100
0001
1000
0100
,
0000
1000
0020
0000
2030
0000
3001
0010
,
0000
0100
2000
0000
3010
0100
0001
0000
,
0022
0000
0033
0000
0001
1000
0001
0200
,
0000
0000
0000
0000
0000
0000
0310
1000
,
0001
0000
0010
0000
0001
0000
0100
0010
,
1000
0001
0000
1000
0000
0100
0000
0000
,
2001
3200
2300
3020
,
0230
0302
0023
0230
,
2300
0000
0001
0000
0010
0000
3001
1000
,
0001
0000
0100
0010
2000
0000
0000
0000
,
3100
0010
0100
0000
1000
0001
1000
0000
,
0020
0000
0030
0100
0001
1000
0000
0000
,
1000
0001
1000
0000
0010
0100
0010
0000
,
0100
0001
0100
0000
0000
0010
1000
0000
,
0001
0000
0001
0000
0010
0100
1000
0100
,
1000
0000
1000
0000
0001
0100
0001
0010
,
0000
0100
2000
0000
3020
0000
0130
0001
,
0010
0000
0000
0011
0000
2200
0000
3300
,
0010
0000
0010
0000
1000
0001
1000
0100
,
1000
0000
1000
0000
0010
0100
0001
0100
,
0000
0010
2000
0000
3002
0000
1003
0100
,
0000
0010
0002
0000
0103
0010
1000
0000
,
0202
0000
0000
0000
,
0303
0000
0000
0000
;

//---------------dance-single - ----------------
#NOTEDATA:;
#CHARTNAME:;
#STEPSTYPE:dance-single;
#DESCRIPTION:;
#CHARTSTYLE:;
#DIFFICULTY:Easy;
#METER:7;
#RADARVALUES:0.258708,0.298807,0.126767,0.235424,0.000000,200.000000,186.000000,14.000000,26.000000,0.000000,0.000000,0.000000,0.000000,0.000000,0.258708,0.298807,0.126767,0.235424,0.000000,200.000000,186.000000,14.000000,26.000000,0.000000,0.000000,0.000000,0.000000,0.000000;
#CREDIT:;
#DISPLAYBPM:134.000000;
#NOTES:
0000
0000
0000
0000
,
0000
0000
0000
0000
,
0000
0000
0000
0000
,
0000
0000
0000
0000
,
0001
1000
0001
1000
,
0010
0000
0010
0000
0000
0100
0000
0000
,
0010
1000
0010
1000
,
0001
0000
0001
0000
0000
0100
0000
0000
,
0002
0000
2000
3003
,
0010
2000
0000
3100
,
0020
0000
0002
0030
,
0100
0100
0100
0103
,
0020
0000
0200
0330
,
1000
0002
0000
0013
,
0200
0000
2000
0300
,
0010
0010
0010
3010
,
1001
0000
0100
0000
,
0001
0000
0000
0000
1000
0100
0000
0000
,
0110
0000
0001
0000
,
1001
1001
0010
0100
,
0001
0000
0010
0000
,
0001
0000
0000
0000
1000
0100
0000
0000
,
0110
0000
0001
0000
,
1001
0000
1001
0000
0000
0100
0010
0000
,
1000
0000
0020
0000
0000
0230
0000
0000
,
0302
0000
0000
2003
0000
0000
3200
0000
,
0310
0000
0002
0000
0000
1003
0000
0000
,
0110
0110
1000
0001
,
1001
0000
0020
0000
0000
0230
0000
0000
,
0302
0000
0000
2003
0000
0000
3200
0000
,
0310
0001
0100
1000
,
0002
0000
0000
0003
,
1000
0010
0001
0100
,
0001
0010
0100
1000
,
0010
0100
0010
1000
,
0001
0000
0000
1000
0000
0001
0000
0000
,
0010
0001
0100
0010
,
1000
0100
1000
0001
,
1000
0010
0100
0001
,
0010
0001
0100
1000
,
1001
0000
0010
1000
,
0100
0010
0100
1000
,
0001
0001
0001
0100
,
1000
1000
1000
0000
,
0010
1000
0010
0100
,
0001
0000
0001
1000
,
0020
1000
1000
1030
,
1000
0100
0002
0003
,
0010
0010
0001
0001
,
1002
0000
0000
0000
1003
0001
0000
0000
,
0100
0100
0010
0010
,
2001
0000
0000
0000
0000
3100
0000
0000
,
0010
0001
0100
0010
,
1000
0100
1000
0001
,
0100
0010
0100
0001
,
1000
0000
0000
0010
0000
0100
0000
0000
,
0001
0010
0001
0100
,
1000
0010
1000
0100
,
0010
0001
0100
1000
,
0001
1000
0010
0100
,
0110
0000
0000
0000
;

//---------------dance-single - ----------------
#NOTEDATA:;
#CHARTNAME:;
#STEPSTYPE:dance-single;
#DESCRIPTION:;
#CHARTSTYLE:;
#DIFFICULTY:Beginner;
#METER:2;
#RADARVALUES:0.098309,0.135822,0.018110,0.054329,0.000000,76.000000,74.000000,2.000000,6.000000,0.000000,0.000000,0.000000,0.000000,0.000000,0.098309,0.135822,0.018110,0.054329,0.000000,76.000000,74.000000,2.000000,6.000000,0.000000,0.000000,0.000000,0.000000,0.000000;
#CREDIT:;
#DISPLAYBPM:134.000000;
#NOTES:
// measure 0
0000
0000
0000
0000
,  // measure 1
0000
0000
0000
0000
,  // measure 2
0000
0000
0000
0000
,  // measure 3
0000
0000
0000
0000
,  // measure 4
0001
0000
0001
0000
,  // measure 5
0001
0000
0000
0000
,  // measure 6
1000
0000
1000
0000
,  // measure 7
1000
0000
0000
0000
,  // measure 8
0010
0000
0010
0000
,  // measure 9
0010
0000
0000
0000
,  // measure 10
1000
0000
0010
0000
,  // measure 11
0000
0000
0000
0000
,  // measure 12
0100
0000
0100
0000
,  // measure 13
0100
0000
0000
0000
,  // measure 14
0001
0000
0100
0000
,  // measure 15
0000
0000
0000
0000
,  // measure 16
0020
0000
0000
0000
,  // measure 17
0030
0000
1000
0000
,  // measure 18
0200
0000
0000
0000
,  // measure 19
0300
0000
0010
0000
,  // measure 20
0002
0000
0000
0000
,  // measure 21
0003
0000
1000
0000
,  // measure 22
0010
0000
0000
0000
,  // measure 23
0100
0000
0000
0000
,  // measure 24
0020
0000
0000
0000
,  // measure 25
0030
0000
1000
0000
,  // measure 26
0002
0000
0000
0000
,  // measure 27
0003
0000
0010
0000
,  // measure 28
0200
0000
0000
0000
,  // measure 29
0300
0000
0010
0000
,  // measure 30
0001
0000
0000
0000
,  // measure 31
1000
0000
0000
0000
,  // measure 32
0010
0000
0010
0000
,  // measure 33
1000
0000
1000
0000
,  // measure 34
0001
0000
0000
0000
,  // measure 35
1000
0000
0000
0000
,  // measure 36
0100
0000
0100
0000
,  // measure 37
1000
0000
1000
0000
,  // measure 38
0010
0000
0000
0000
,  // measure 39
0100
0000
0000
0000
,  // measure 40
1001
0000
0000
0000
,  // measure 41
0010
0000
0000
0000
,  // measure 42
1000
0000
1000
0000
,  // measure 43
0001
0000
0000
0000
,  // measure 44
0100
0000
0100
0000
,  // measure 45
0010
0000
0010
0000
,  // measure 46
0100
0000
0000
0000
,  // measure 47
0001
0000
0000
0000
,  // measure 48
1000
0000
1000
0000
,  // measure 49
1000
0000
0000
0000
,  // measure 50
0001
0000
0001
0000
,  // measure 51
0001
0000
0000
0000
,  // measure 52
1000
0000
0010
0000
,  // measure 53
0100
0000
0010
0000
,  // measure 54
1000
0000
0000
0000
,  // measure 55
0001
0000
0000
0000
,  // measure 56
0010
0000
0100
0000
,  // measure 57
0010
0000
0001
0000
,  // measure 58
1000
0000
0000
0000
,  // measure 59
0001
0000
0000
0000
,  // measure 60
1001
0000
0000
0000
;
