#TITLE:Fuzz Buster;
#ARTIST:Smashtrax;
#BANNER:Fuzz Buster-bn.png;
#BACKGROUND:Fuzz Buster-bg.png;
#JACKET:Fuzz Buster-jacket.png;
#MUSIC:Fuzz Buster.ogg;
#SAMPLESTART:33.102;
#SAMPLELENGTH:20;
#DISPLAYBPM:145;
#BPMS:0=145.01;
#BGCHANGES:;

//---------------dance-single - ----------------
#NOTES:
     dance-single:
     :
     Beginner:
     4:
     :
0000
0000
0000
0000
,
0000
0000
0000
0000
,
0010
0000
1000
0000
,
0001
0000
0100
0000
,
0001
0000
0001
0000
,
1000
1000
0000
0000
,
0100
0000
0100
0000
,
0010
0010
0000
0000
,
0100
0000
0100
0000
,
1000
1000
0000
0000
,
0001
0000
0001
0000
,
0010
0010
0000
0000
,
2000
0000
3000
0000
,
0002
0000
0003
0000
,
1001
0000
0000
0000
,
0001
0000
0010
0000
,
0001
0000
1000
0000
,
0010
0000
1000
0000
,
0200
0000
0300
0000
,
0020
0000
0030
0000
,
0001
0000
1000
0000
,
0001
0001
0000
0000
,
0010
0000
0001
0000
,
0100
0100
0000
0000
,
1000
0000
0010
0000
,
1000
1000
0000
0000
,
0100
0000
1000
0000
,
0001
0001
0000
0000
,
0200
0000
0300
0000
,
0020
0000
0030
0000
,
1001
0000
0000
0000
,
1000
0000
0010
0000
,
1000
0000
0100
0000
,
0001
0000
0010
0000
,
0010
0000
0000
0000
,
0000
0000
0000
0000
,
0001
0001
0001
0001
,
0001
0000
1000
0000
,
0010
0010
0010
0010
,
0010
0000
0100
0000
,
1000
1000
1000
1000
,
1000
0000
0001
0000
,
0100
0100
0100
0100
,
0100
0000
0010
0000
,
0110
0000
0000
0000
,
1000
0000
0001
0000
,
0010
0010
0010
0000
,
0001
0000
0100
0000
,
1000
1000
1000
0000
,
0010
0000
0100
0000
,
0001
0001
0001
0000
,
1000
0000
0100
0000
,
0010
0010
0010
0000
,
0110
0000
0000
0000
,
1000
1000
1000
1000
,
1000
0000
0010
0000
,
0100
0100
0100
0100
,
0100
0000
0001
0000
,
0010
0010
0010
0010
,
0010
0000
1000
0000
,
0001
0001
0001
0001
,
0001
0000
0100
0000
,
0010
0000
0000
0000
;

//---------------dance-single - ----------------
#NOTES:
     dance-single:
     :
     Easy:
     7:
     :
0000
0000
0000
0000
,
0000
0000
0000
0000
,
0010
1000
0100
0001
,
0010
0001
0100
1000
,
0002
0003
2000
3000
,
0001
0100
0001
0100
0000
0000
0000
0000
,
0020
0030
2000
3000
,
0100
0010
0100
0010
0000
0000
0000
0000
,
0002
0003
0020
0030
,
0001
1000
0001
1000
0000
0000
0000
0000
,
0200
0300
0020
0030
,
0100
1000
0100
1000
0000
0000
0000
0000
,
0001
0000
0000
0010
0000
0000
1000
0000
,
0100
0000
0000
0010
0000
0000
0001
0000
,
1001
0000
0001
0000
0010
0001
0100
0000
,
0001
0000
0010
0000
1000
0100
1000
0000
,
0100
0000
0010
0000
0001
0100
0010
0000
,
1000
0000
0001
0000
0010
0001
1000
0000
,
0010
0100
0002
0003
,
1000
0100
1000
0000
0002
0000
0003
0000
,
2020
3030
0202
0303
,
0001
0010
0100
1000
0000
0000
0000
0000
,
2200
3300
0022
0033
,
0100
0010
1000
0001
0000
0000
0000
0000
,
0202
0303
2200
3300
,
1000
0001
0100
0010
0000
0000
0000
0000
,
2020
3030
0022
0033
,
0010
0001
1000
0100
0000
0000
0000
0000
,
1000
0000
0000
0010
0000
0000
0100
0000
,
0001
0000
0000
0010
0000
0000
1000
0000
,
0110
0000
1000
0000
0001
0100
0001
0000
,
0010
0000
0100
0000
1000
0010
0001
0000
,
1000
0000
0001
0000
1000
0100
0010
0000
,
0100
0000
1000
0000
0001
0100
0001
0000
,
0010
0010
0010
0010
,
0010
0000
0000
0000
,
1001
0100
0100
0100
,
0001
0010
1000
1000
,
0010
1000
0001
0010
,
0001
0100
1000
0010
,
1000
1000
0001
0010
,
1000
0100
0001
1000
,
0010
0010
0010
0100
,
0010
1000
0100
0001
,
1000
0001
0000
0000
0000
0100
0010
0000
,
2020
3030
2020
3030
,
0001
0100
0002
0000
2003
0000
3000
0000
,
0202
0303
0202
0303
,
0010
0001
2000
0000
3002
0000
0003
0000
,
0022
0033
0022
0033
,
0100
1000
0002
0000
2003
0000
3000
0000
,
2200
3300
2200
3300
,
0010
0100
0020
0000
2030
0000
3000
0000
,
0101
0000
0000
1100
0000
0000
0101
0000
,
1000
0001
0100
0000
0100
0000
0100
0000
,
0001
0010
1000
0100
,
0010
0001
1000
0000
0001
0000
1000
0000
,
0010
1000
0100
0001
,
0010
0100
1000
0000
1000
0000
1000
0000
,
1000
0100
1000
0010
,
0001
0010
0001
0000
0001
0000
0001
0000
,
1000
0010
1000
0001
,
0100
0010
0000
0000
0000
0000
0000
0000
;

//---------------dance-single - ----------------
#NOTES:
     dance-single:
     :
     Medium:
     10:
     :
0000
0000
0000
0000
,
0000
0000
0000
0000
,
0010
0000
1000
0100
0001
0000
1000
0000
,
0001
0000
0010
1000
0100
0000
0010
0000
,
0001
0100
0000
0010
1000
0001
0000
1000
,
0100
0010
0100
0001
1000
0000
0110
0000
,
1000
0001
0000
0010
0001
0100
0000
0001
,
0010
1000
0100
0010
0002
0000
1003
0001
,
0010
0001
0000
0100
0001
0010
0000
1000
,
0100
0001
0010
0100
1000
0001
2000
0000
,
3010
0100
0000
0001
1000
0010
0000
1000
,
0100
0010
0001
0100
1000
0000
1001
0000
,
0010
1000
0100
0001
0000
0001
0010
0100
,
1000
0010
1000
0001
0000
0001
0010
0100
,
1001
0000
1000
0010
0000
0100
0001
1000
,
0001
0000
0010
0100
0000
0010
0001
1000
,
0010
1000
0010
0100
0001
0010
0001
1000
,
0100
0010
0001
0100
0000
0001
1000
0001
,
0010
0100
2000
0000
3002
0000
1003
0010
,
0000
0001
0200
0000
0320
1000
1030
0000
,
0010
1000
0000
0100
0001
1000
0000
0010
,
1000
0100
1000
0001
0100
0010
0110
0000
,
0001
1000
0000
0010
1000
0100
1000
0010
,
0001
0100
0001
1000
0010
0100
0101
0000
,
1000
0001
0010
0100
1000
0001
0000
0100
,
0010
0100
0001
0010
1000
0001
0100
0000
,
1010
1000
0000
0001
0010
1000
0000
0100
,
0010
0001
0100
0010
1000
0100
0001
0000
,
0010
0001
1000
0001
0000
1000
0100
0010
,
0001
0100
0001
0010
0000
1000
0100
0001
,
0011
0000
1000
0001
0000
1000
0100
0000
,
0010
0001
1000
0010
0000
1000
0100
1000
,
0100
0010
0001
0100
0001
0010
1000
0100
,
0010
0001
0010
0100
1000
0001
1000
0100
,
0010
0010
0010
0010
,
0010
0010
0010
0010
,
1001
0100
0001
0000
0001
0000
0001
0100
,
0000
0010
1000
0001
0000
1000
0100
0000
,
0010
0001
0100
0000
0100
0000
0100
0010
,
0000
1000
0100
1000
0000
0001
0010
0000
,
0100
1000
0001
1000
0001
0000
0010
0100
,
1000
0000
0010
0100
0000
0001
1000
0001
,
0010
0100
1000
0001
0000
1000
0001
0010
,
0000
1100
0000
0101
0000
1000
0001
0010
,
0001
0100
1001
0000
0000
1000
0001
0000
,
1000
1000
0000
0000
0001
0001
0000
0010
,
0001
0100
0001
0100
0001
0100
0000
0000
,
0010
0010
0000
0000
0100
0100
0000
0001
,
1000
0010
1000
0010
1000
0010
0000
0000
,
0100
0100
0000
0000
0001
0001
0000
1000
,
0100
0010
0100
0010
0100
0010
0000
0000
,
0001
0001
0000
0000
0010
0010
0000
0100
,
1000
0001
1000
0001
1000
0001
0000
0000
,
1000
0100
0100
1000
0100
0100
1100
0000
,
0001
0010
1000
0000
1000
0000
0001
1000
,
0000
0010
1000
0100
0000
0001
0001
0000
,
0010
0001
0100
0001
0100
0000
0010
1000
,
0000
0110
0000
1001
0000
0010
0100
0000
,
0001
1000
0001
0010
0100
1000
0010
0200
,
0000
0302
0000
2003
0000
3010
0100
0001
,
1000
0100
1000
0002
0000
0013
0000
0001
,
0100
0001
0010
1000
0100
0010
0001
1000
,
0100
0010
0000
0000
0000
0000
0000
0000
;

//---------------dance-single - ----------------
#NOTES:
     dance-single:
     :
     Hard:
     13:
     :
0000
0000
0000
0000
,
0000
0000
0000
0000
,
0010
0010
1000
0100
0001
0010
1000
0000
,
0001
0001
0010
0001
0100
1000
0010
0000
,
1001
0000
0100
0000
0010
0000
1000
0000
1001
0000
0100
0000
0010
0000
0001
1000
,
0001
0100
0001
0010
0100
1000
0001
0000
,
0110
0001
1000
0010
0110
1000
0001
0100
,
0010
1000
0100
0001
1000
0001
0100
0000
,
0101
0010
1000
0100
1100
0010
0001
0100
,
0010
0000
0100
0000
1001
0000
0010
0000
1000
0100
1000
0000
0001
0000
0000
0000
,
0011
1000
0001
0100
1010
0010
1000
0001
,
1000
0000
0100
0000
0010
0000
0001
0100
0001
0000
0010
0000
1000
0000
0000
0000
,
0001
0100
1000
0001
0010
1000
0100
0010
,
1000
0100
0001
1000
0010
0001
0100
0010
,
0100
0000
0001
0000
0010
0000
1000
0000
0100
0010
0001
0000
0100
0000
0010
0000
,
1000
0000
0001
0000
0010
0000
1000
0000
0100
0010
0001
0000
1000
0000
0010
0000
,
1000
0000
0001
0000
0010
0000
0100
0000
1000
0010
0100
0000
0001
0000
1000
0001
,
0100
0000
0010
0000
0001
0000
0100
0001
1000
0000
0010
0000
0100
0010
1000
0001
,
0010
0100
2000
0000
3002
0000
0103
0010
,
0100
0000
0001
0000
2000
0000
0000
0000
3001
0010
0001
0010
0001
0010
0001
0010
,
0001
0000
0100
0000
0010
0000
1000
0000
0110
0000
0001
0000
1000
0000
0100
0010
,
0001
0100
1000
0001
1000
0010
0100
0000
,
1010
0000
0001
0000
1000
0000
0100
0000
0011
0000
0001
0000
0100
0000
0010
1000
,
0010
0000
0100
0000
0001
0000
1000
0000
0100
0010
0001
0000
1000
0000
0000
0000
,
0101
0001
0010
1000
1100
0010
1000
0001
,
0100
0000
0001
0000
0110
0000
1000
0010
1000
0000
0001
0000
0100
0000
0000
0000
,
1001
0010
0001
0100
0110
1000
0010
0001
,
0100
0000
0010
0000
1000
0000
0001
0010
0001
0000
0100
0000
1000
0000
0000
0000
,
0001
0010
1000
0001
0100
1000
0010
0100
,
1000
0010
0001
1000
0100
0001
0010
0100
,
1100
0000
0001
0000
1000
0000
0010
0000
1000
0100
0001
0000
0010
0000
0100
0000
,
1000
0000
0001
0000
0010
0000
0001
0000
0100
0010
1000
0000
0001
0000
0100
0000
,
0001
0000
0010
0000
1000
0000
0100
0000
1000
0010
0100
0000
0001
0000
0010
0100
,
1000
0000
0001
0000
1000
0000
0010
0100
0001
0000
1000
0000
0010
0100
0010
0100
,
0020
0000
0000
0000
0000
0000
0000
0030
0020
0000
0000
0000
0000
0000
0030
0000
0020
0000
0000
0000
0000
0030
0000
0000
0020
0000
0000
0000
0030
0000
0000
0000
,
0020
0000
0000
0030
0000
0000
0000
0000
0020
0000
0030
0000
0000
0000
0000
0000
0020
0030
0000
0000
0000
0000
0000
0000
0010
0000
0000
0000
0000
0000
0000
0000
,
1001
0000
0100
0000
0001
0000
0100
0000
1000
0000
0100
0000
0001
0000
0010
0100
,
1000
0000
0001
0000
0010
0000
1000
0000
0010
0000
0100
0000
0010
0000
0001
0100
,
0010
1000
0100
0001
0100
0010
0100
0001
,
0100
0010
0001
0100
1000
0100
0001
1000
,
0110
0000
0001
0000
0010
0000
1000
0000
0100
0000
0001
0000
0100
0000
1000
0001
,
0010
0100
1000
0010
0100
1000
0100
0001
,
0010
0000
1000
0000
0010
0000
0100
0000
0010
0000
1000
0000
0010
0000
0001
0100
,
1000
0000
0100
0000
0001
0000
0010
0000
0100
0000
0001
0000
0100
1000
0001
1000
,
0100
0000
0010
0000
0001
0000
0000
0000
1000
0000
1010
0000
1010
0000
0000
0100
,
0001
1000
0110
0000
0001
1000
0110
0001
,
1000
0000
1000
0000
0001
0000
0001
0000
0010
0000
0010
0000
0100
0000
1000
0001
,
1000
0010
0101
0000
1000
0010
0101
1000
,
0001
0000
0001
0000
0010
0000
0010
0000
1000
0000
1000
0000
0100
0000
0010
0001
,
0010
0100
1100
0000
0010
0100
1100
0010
,
1000
0000
1000
0000
0001
0000
0001
0000
0010
0000
0010
0000
0001
0000
0100
0010
,
0100
0001
1001
0000
0010
1000
1001
0100
,
0001
0000
0001
0000
0010
0000
0010
0000
1000
0000
1000
0000
0100
0000
0000
0010
,
0001
0100
0100
0001
1000
1000
0110
0000
,
1001
0010
1000
0100
0001
0100
1000
0010
,
0100
0000
1000
0000
0100
0000
0001
0000
0100
0000
1000
0000
0100
0000
0001
0010
,
0100
0001
0100
0010
0100
0001
0100
1000
,
0100
0001
0100
0010
1000
0010
0001
1000
,
0010
0000
0001
0000
0010
0000
0100
0000
0001
0000
0010
0000
1000
0000
0100
0010
,
0001
0100
1000
0001
1000
0100
0001
0010
,
0100
1000
0010
1000
0010
0001
0010
1000
,
0100
0000
0010
0000
0001
0000
1000
0010
1000
0000
0001
0000
0010
0100
1000
0001
,
0100
0010
0000
0000
0000
0000
0000
0000
;
