#TITLE:Funkytown;
#ARTIST:Lipps, Inc;
#BANNER:Funkytown-bn.png;
#BACKGROUND:Funkytown-bg.png;
#JACKET:Funkytown-jacket.png;
#MUSIC:Funkytown.ogg;
#SAMPLESTART:13.498;
#SAMPLELENGTH:20;
#DISPLAYBPM:122;
#BPMS:0=122.5,4=122.2;
#BGCHANGES:;

//---------------dance-single - ----------------
#NOTES:
     dance-single:
     :
     Beginner:
     2:
     :
0000
0000
0000
0000
,
0000
0000
0000
0000
,
0000
0000
0000
0000
,
1000
0000
0000
0000
,
1000
0000
0000
0000
,
0001
0000
0000
0000
,
0001
0000
0000
0000
,
0010
0000
0010
0000
,
0010
0000
0000
0000
,
0001
0000
0000
0000
,
0001
0000
0000
0000
,
1000
0000
1000
0000
,
1000
0000
0000
0000
,
0001
0000
0000
0000
,
0001
0000
0000
0000
,
0010
0000
0010
0000
,
0010
0000
0010
0000
,
0100
0000
0000
0000
,
0100
0000
0000
0000
,
1000
0000
1000
0000
,
1000
0000
1000
0000
,
0001
0000
0000
0000
,
0001
0000
0000
0000
,
1001
0000
0000
0000
,
1001
0000
0000
0000
,
0110
0000
0000
0000
,
0110
0000
0000
0000
,
0020
0000
0000
0030
,
0010
0000
0000
0000
,
1000
1000
0000
0000
,
1000
1000
0000
0000
,
0001
0000
0001
0000
,
1000
0000
1000
0000
,
0010
0010
0000
0000
,
0010
0010
0000
0000
,
0100
0100
0000
0000
,
0100
0100
0000
0000
,
0001
0001
0000
0000
,
0001
0001
0000
0000
,
1000
1000
0000
0000
,
1000
1000
0000
0000
,
0100
0000
0100
0000
,
0100
0000
0000
0000
,
0010
0000
0010
0000
,
0010
0000
0000
0000
,
0002
0000
0000
0003
,
0001
0000
0000
0000
,
2000
0000
0000
3000
,
1000
0000
1000
0000
,
1000
0000
0000
0000
;

//---------------dance-single - ----------------
#NOTES:
     dance-single:
     :
     Easy:
     5:
     :
0000
0000
0000
0000
,
0000
0000
0000
0000
,
0000
0000
0000
0000
,
2000
0000
0000
3000
,
1000
0000
0000
0000
,
0002
0000
0000
0003
,
0001
0000
0000
0000
,
0010
0010
0001
0001
,
1000
1000
0001
0000
,
0200
0000
0000
0300
,
0100
0000
0000
0000
,
0010
0010
1000
1000
,
0001
0001
1000
0000
,
0020
0000
0000
0030
,
0010
0000
0000
0000
,
1000
1000
0010
0010
,
0100
0100
0001
0001
,
0020
0000
0000
0030
,
0010
0000
0000
0000
,
0001
0001
0010
0010
,
0100
0100
1000
1000
,
2002
0000
0000
3003
,
1001
0000
0000
0000
,
0100
0010
0100
0010
,
0200
0000
0000
0300
,
1000
0001
1000
0001
,
2000
0000
0000
3000
,
0001
0001
1000
1000
,
0010
0010
0100
0100
,
1001
0000
0000
0000
,
0110
0000
0000
0000
,
0010
0100
0010
0100
,
0010
0001
1000
0001
,
1000
0010
0000
0000
,
0001
0100
0000
0000
,
1000
0100
0000
0000
,
0001
0010
0000
0000
,
1000
0100
0000
0000
,
0001
0100
0000
0000
,
1000
0010
0000
0000
,
0001
0010
0000
0000
,
1000
0100
1000
1000
,
0001
0100
0000
0000
,
0001
0010
0001
0001
,
1000
0010
0000
0000
,
2000
0000
0000
3010
,
0010
0010
0010
0000
,
0002
0000
0000
0103
,
0100
0100
0100
0000
,
1001
0000
0000
0000
;

//---------------dance-single - ----------------
#NOTES:
     dance-single:
     :
     Medium:
     7:
     :
0000
0000
0000
0000
,
0000
0000
0000
0000
,
0000
0000
0000
0000
,
0010
0011
0001
1001
,
1000
0002
0000
0003
,
0100
0110
0010
1010
,
1000
0200
0000
0300
,
0010
0001
0010
0001
,
0100
0000
0010
0000
1000
0001
0100
0000
,
2000
0001
0100
3001
,
0100
0010
1000
0001
0000
0000
0000
0000
,
0010
1000
0010
1000
,
0100
0000
0010
0000
0001
1000
0100
0000
,
0002
1000
0100
1003
,
0100
0010
0001
1000
0000
0000
0000
0000
,
0010
1000
0001
0100
,
0010
1000
0001
0100
,
0020
1000
0130
2000
,
0100
0000
0001
3001
0000
0000
0000
0000
,
0100
0001
1000
0010
,
0100
0001
1000
0010
,
0200
0001
0310
0002
,
0010
0000
1000
1003
0000
0000
0000
0000
,
1000
0100
1000
0100
0000
0000
0110
0000
,
0001
0010
0011
0000
,
0001
0100
0001
0100
0000
0000
0110
0000
,
1000
0010
1010
0000
,
0002
0013
2000
3010
,
0002
0103
2000
3100
,
1001
0000
1000
1000
1000
0000
0010
0000
,
0100
0100
0001
1000
1000
0000
0100
0000
,
1000
0010
1000
0010
,
0100
0001
0100
0001
,
2000
3010
1000
0001
,
0002
0103
0010
1010
,
2000
3100
1000
0001
,
0002
0013
0100
0110
,
1200
1300
0100
0010
,
0120
0130
0001
0011
,
0201
0301
0100
0010
,
1020
1030
0001
1001
,
0020
0000
0030
0001
1000
0000
1000
0000
,
0002
0000
0003
0100
0010
0000
0010
0000
,
0200
0000
0300
1000
0001
0000
0001
0000
,
2000
0000
3000
0010
1000
0000
0001
0000
,
1002
0000
0000
0010
,
1000
0010
1003
0001
,
2001
0000
0000
0100
,
0001
0100
3001
1000
,
1001
0000
0000
0000
;

//---------------dance-single - ----------------
#NOTES:
     dance-single:
     :
     Hard:
     9:
     :
0000
0000
0000
0000
,
0000
0000
0000
0000
,
0000
0000
0000
0000
,
0010
1000
0100
0010
,
0001
0100
0001
0100
0000
0000
0000
0000
,
0010
0001
0100
0010
,
1000
0100
1000
0100
0000
0000
0000
0000
,
1000
0001
0100
0010
,
1000
0001
0010
0100
,
1000
0100
2000
0001
0000
3001
0000
0100
,
0010
0100
0010
0100
0000
0000
0000
0000
,
0001
1000
0010
0100
,
0001
1000
0100
0010
,
0001
0010
0002
1000
0000
1003
0000
0010
,
0100
0010
0100
0010
0000
0000
0000
0000
,
1000
1100
1000
1100
,
0001
0101
0001
0101
,
1000
0100
1000
0100
0000
0010
0000
0001
,
0100
0001
0100
0010
0000
0000
0000
0000
,
0001
0011
0001
0011
,
1000
1010
1000
1010
,
0001
0010
0001
0010
0000
0100
0000
1000
,
0010
1000
0010
0100
0000
0000
0000
0000
,
0010
0001
1000
0001
0000
1000
0000
0010
,
1000
0001
1000
0100
0000
0000
0000
0000
,
0010
1000
0001
1000
0000
0001
0000
0010
,
0001
1000
0001
0100
0000
0000
2000
3000
,
0200
0300
0002
0003
0020
0030
2000
3000
,
0200
0300
0002
0003
0020
0030
1000
0000
,
0001
0000
0011
0010
0001
0000
1001
0000
,
1000
0010
0100
0001
0100
0000
1100
0000
,
0001
0001
0010
0010
0100
0100
1000
1000
,
0010
0010
0100
0100
0001
0001
1000
0000
,
0002
0000
0000
0013
0001
0000
0100
0000
1000
0000
0100
0000
0010
0000
1000
0000
,
0200
0000
0310
0001
0001
1000
0000
0000
,
2000
0000
0000
3010
1000
0000
0100
0000
0001
0000
0100
0000
0010
0000
0001
0000
,
0200
0000
0310
1000
1000
0001
0000
0000
,
0101
0000
0000
0100
0001
0000
1000
0000
0100
0000
1000
0000
0001
0000
0100
0000
,
0020
0000
0130
0010
0010
1000
0000
0000
,
1100
0000
0000
0100
1000
0000
0001
0000
0100
0000
0001
0000
1000
0000
0100
0000
,
0020
0000
0130
0010
0010
0001
0000
0000
,
0010
0000
0000
0100
0010
0000
1000
0000
0100
0000
1000
0000
0010
0000
0100
0000
,
0001
0000
0000
0100
0001
0000
1000
0000
0010
0000
0010
0000
1000
0000
0000
0000
,
0100
0000
0000
0010
0100
0000
0001
0000
0010
0000
0001
0000
0100
0000
0010
0000
,
1000
0000
0000
0010
1000
0000
0001
0000
0100
0000
0100
0000
0001
0000
0000
0000
,
1000
0010
0000
1000
0000
0010
0000
1000
0020
0000
0000
0000
1000
0000
0000
0000
,
0100
1000
0001
1030
,
0001
0100
0000
0001
0000
0100
0000
0001
0200
0000
0000
0000
0001
0000
0000
0000
,
0010
0001
1000
0301
,
0110
0000
0000
0000
;

//---------------dance-single - ----------------
#NOTES:
     dance-single:
     :
     Challenge:
     13:
     :
0000
0000
0000
0000
,
0000
0000
0000
0000
,
0000
0000
0000
0000
,
0001
0100
1000
1010
0000
0101
0000
0010
,
0001
0100
1000
0010
0000
0100
0001
0100
,
0001
0010
1000
1100
0000
0011
0000
0100
,
0001
0010
1000
0100
0000
1000
0010
2000
,
0000
3100
1000
0010
0100
1000
0100
0010
,
1000
0000
0000
0010
0000
0000
0001
0000
0100
0000
0010
0000
2000
0000
0000
0000
,
3001
1000
0100
0110
0000
1001
0000
0010
,
1000
0100
0001
0010
0000
0001
1000
0002
,
0000
0013
0001
0100
0010
0100
1000
0100
,
0001
0100
0010
0100
0002
1000
1003
0000
,
0010
1000
0001
0101
0000
1100
0000
0100
,
1000
0000
0010
0000
0001
0000
0100
0000
0000
0000
0020
1000
0000
1030
0010
0000
,
0100
0100
0001
0001
0010
0010
0100
0100
,
1000
1000
0010
0010
1000
1000
0001
0001
,
0010
0001
0100
1001
0000
0110
0000
1000
,
0010
1000
0100
0001
0000
0010
0100
2000
,
0000
0001
3001
0100
0010
0010
0010
1000
,
0100
0000
0100
0000
0100
0000
0000
0000
0010
0001
0000
0001
1000
0000
0010
0000
,
0100
0001
0010
1001
0000
1100
0000
1000
,
0100
0001
0010
1000
0000
0100
0010
0001
,
1000
0010
0001
0101
0000
0011
0000
0100
,
0010
1000
0100
0001
0000
1000
0010
1000
,
0100
0010
0001
0110
0000
1100
0000
1000
,
0100
1000
0010
0001
0000
0100
0010
0100
,
0001
0100
0001
0100
1000
0100
1000
0100
,
0001
0010
0001
0010
1000
0010
1000
0010
,
0100
0010
0011
0101
1001
0000
0110
0000
,
1010
1010
1001
0101
0101
0000
0110
0000
,
1000
1000
0100
0100
0001
0001
0100
0100
,
1000
1000
0010
0010
0001
0001
0010
0010
,
2000
0001
0000
3001
0100
0010
1000
0000
0100
0000
0100
0000
0010
0000
0001
0000
,
0200
0010
0000
0310
1000
0000
0001
0000
0011
0000
2200
0000
0000
3000
0000
0000
,
0320
0001
0000
0031
1000
0000
0010
0000
0100
0000
0100
0000
0001
0000
1000
0000
,
0002
0100
0000
0103
0010
0000
1000
0000
1010
0000
0202
0000
0000
0003
0000
0000
,
0320
1000
0000
1030
0100
0000
0010
0000
0001
0000
0001
0000
1000
0000
0010
0000
,
0200
0001
0000
0301
1000
0000
0010
0000
0101
0000
2200
0000
0000
3000
0000
0000
,
2300
0001
0000
3001
0010
0000
0100
0000
1000
0000
1000
0000
0010
0000
0100
0000
,
0002
0010
0000
0013
0100
0000
1000
0000
1010
0000
0022
0000
0000
0030
0000
0000
,
1003
0001
1000
0001
0100
0000
0010
0000
1000
0000
1000
0000
0001
0000
0001
0000
,
0010
0001
0010
0001
0100
0000
0010
0000
1010
0000
0110
0000
0101
0000
0000
0000
,
1000
0100
1000
0100
0010
0000
0001
0000
0100
0000
0100
0000
0010
0000
0010
0000
,
1000
0001
1000
0001
0010
0000
0100
0000
1100
0000
1001
0000
0011
0000
0000
0000
,
0100
0010
0000
1010
0000
0101
0000
0001
1000
0000
0000
0000
0010
0000
0100
0000
,
0010
0000
0001
0000
0010
0000
1000
0000
0010
1000
0000
0100
0001
0000
0000
0000
,
0010
0100
0000
1100
0000
0011
0000
0001
1000
0000
0000
0000
0010
0000
0100
0000
,
0010
0001
0010
1000
0020
0100
0230
0000
,
0301
1000
0000
0001
1000
0000
0000
0000
0000
0000
0000
0000
0000
0000
0000
0000
;

//---------------dance-double - ----------------
#NOTES:
     dance-double:
     :
     Easy:
     5:
     :
00000000
00000000
00000000
00000000
,
00000000
00000000
00000000
00000000
,
00000000
00000000
00000000
00000000
,
00000001
00000000
00000100
00000000
,
00001000
00000000
00000000
00000000
,
00010000
00000000
01000000
00000000
,
10000000
00000000
00000000
00000000
,
00100000
00000000
01000000
00000000
,
00100000
10000000
01000000
00000000
,
00020000
00000000
00000000
00030000
,
00001000
00000000
00000000
00000000
,
00000100
00000000
00000010
00000000
,
00000100
00000001
00000010
00000000
,
00002000
00000000
00000000
00003000
,
00010000
00000000
00000000
00000000
,
01000000
01000000
10000000
10000000
,
00010000
00010000
00100000
00100000
,
00002000
00000000
00000000
00003000
,
00010000
00000000
00000000
00000000
,
00000100
00000100
00001000
00001000
,
00000001
00000001
00000010
00000010
,
00000200
00000000
00000000
00000300
,
00000010
00000000
00000000
00000000
,
00000001
00001000
00000001
00001000
,
00000200
00000000
00000000
00000300
,
00010000
00001000
00010000
00001000
,
02000000
00000000
00000000
03000000
,
00010000
10000000
00010000
10000000
,
00100000
00100000
01000000
01000000
,
10010000
00000000
00000000
00000000
,
10010000
00000000
00000000
00000000
,
10000000
01000000
00100000
00010000
,
10000000
01000000
00100000
00010000
,
10000000
10000000
00000000
00000000
,
01000000
00010000
00000000
00000000
,
00001000
00001000
00000000
00000000
,
00000100
00000001
00000000
00000000
,
00000001
00000001
00000000
00000000
,
00000010
00001000
00000000
00000000
,
00010000
00010000
00000000
00000000
,
00100000
10000000
00000000
00000000
,
10000000
01000000
00100000
00001000
,
00010000
00001000
00000000
00000000
,
00010000
00001000
00010000
00000100
,
00000010
00000001
00000000
00000000
,
00001001
00000000
00000000
00000100
,
00000010
00000100
00000010
00000000
,
00011000
00000000
00000000
00010000
,
00001000
00010000
00001000
00000000
,
00011000
00000000
00000000
00000000
;

//---------------dance-double - ----------------
#NOTES:
     dance-double:
     :
     Medium:
     7:
     :
00000000
00000000
00000000
00000000
,
00000000
00000000
00000000
00000000
,
00000000
00000000
00000000
00000000
,
01000000
01000000
10000000
00100000
,
00020000
00000000
00000000
00031000
,
00000010
00000010
00000001
00000100
,
00002000
00000000
00000000
00013000
,
00010000
00001000
00010000
00010000
,
00000100
00000010
00000100
00000100
,
00002000
00000000
00000000
00003001
,
00000100
00000100
00001000
00000000
,
00010000
00001000
00010000
00010000
,
00100000
10000000
01000000
10000000
,
00020000
00000000
00000000
10030000
,
01000000
01000000
00010000
00000000
,
00001000
00010000
00001000
00010000
,
00000010
00001000
00000100
00000010
,
00000002
00000100
00000103
00002000
,
00010000
00010000
00013000
00000000
,
01000000
10000000
00100000
00010000
,
00001000
00000010
00000001
00000100
,
00002000
00010000
00013000
02000000
,
10000000
10000000
13000000
00000000
,
00100000
01000000
00100000
01000000
,
00001000
00010000
00001000
00010000
00000000
00000000
00000000
00000000
,
00000100
00000010
00000100
00000010
,
00000001
00001000
00000001
00001000
00000000
00000000
00000000
00000000
,
00000010
00001000
00000010
00001000
,
00000100
00010000
00000100
00010000
,
00001000
00000000
01000000
01000000
01000000
00000000
00100000
00000000
,
10000000
01000000
00010000
00001000
,
00010000
00000000
00000100
00000100
00000100
00000000
00000010
00000000
,
00000001
00000100
00001000
00010000
,
01000000
11000000
10000000
00100000
,
01000000
01000000
00002000
00003000
,
00010000
00011000
00001000
00000010
,
00000001
00000001
00000200
00000300
,
00000010
00001010
00001000
00000100
,
00010000
00010000
00002000
00003000
,
00100000
01100000
01000000
10000000
,
00100000
01000000
00002000
00003000
,
00020000
00000000
00031000
00000100
,
00000001
00000000
00000000
00000010
00000100
00000010
00000100
00000000
,
00000002
00000000
00000013
00001000
,
00010000
00000000
00000000
00100000
10000000
00100000
10000000
00000000
,
10020000
00000000
00000000
01000000
,
01000000
01000000
01030000
00001000
,
00021000
00000000
00000000
00001000
,
00001000
00001000
00031000
00000100
,
00001001
00000000
00000000
00000000
;

//---------------dance-double - ----------------
#NOTES:
     dance-double:
     :
     Hard:
     9:
     :
00000000
00000000
00000000
00000000
,
00000000
00000000
00000000
00000000
,
00000000
00000000
00000000
00000000
,
00000100
00000010
00000100
00002000
00000000
00003002
00000000
00000103
,
00001000
00010000
00001000
00010000
00000000
00000000
00000000
00000000
,
01000000
00100000
01000000
20000000
00000000
30020000
00000000
10030000
,
01000000
00100000
01000000
00100000
00000000
00000000
00010000
00100000
,
00000000
00001000
00000000
00010000
00000000
00000010
00000000
00000100
,
00000000
00000001
00000000
00000010
00000000
00000100
00000000
00001000
,
00000100
00000010
00000100
00002000
00000000
00003002
00000000
00000103
,
00001000
00010000
00001000
00010000
00000000
00000000
00001000
00100000
,
00000000
01000000
00000000
10000000
00000000
00010000
00000000
00100000
,
00000000
00001000
00000000
00010000
00000000
00000010
00000000
00001000
,
00000100
00000010
00000100
00002000
00000000
00003002
00000000
00000103
,
00001000
00010000
00001000
00010000
00000000
00000000
00000000
00000000
,
00100000
00100000
10000000
10000000
,
01000000
00000000
01000000
00000000
00010000
00000000
00010000
00000100
,
00000010
00000001
00000100
00002000
00000000
00003200
00000000
00000301
,
00001000
00000010
00001000
00000010
00000000
00000000
00000000
00000000
,
00000100
00000001
00000100
00000000
00000010
00010000
00000010
00000000
,
00010000
00001000
00010000
00000000
00001000
00010000
00001000
00010000
,
00100000
10000000
01000000
00020000
00000000
02030000
00000000
13000000
,
00010000
00100000
00010000
00100000
00000000
00000000
00000000
00000000
,
00010000
10000000
01000000
00010000
00000000
00011000
00000000
00001000
,
00000100
00000001
00000010
00000100
00000000
00000000
00000000
00000000
,
00001000
00000001
00000100
00001000
00000000
00011000
00000000
00010000
,
01000000
10000000
00100000
01000000
00000000
00000000
00000000
00000000
,
00001000
00011000
00010000
01010000
,
01000000
11000000
10000000
10100000
,
00100000
00000000
01000000
01000000
01000000
00000000
00100000
00000000
,
10000000
01000000
00010000
00001000
00000100
00000000
00000001
00000000
,
00000010
00000000
00000100
00000100
00000100
00000000
00000010
00000000
,
00000001
00000100
00001000
00010000
01000000
00000000
10000000
00000000
,
00100000
00000000
00000000
00100000
10000000
00000000
00010000
00000000
10000000
00000000
00100000
00000000
01000000
00000000
00001000
00000000
,
00010000
00000000
00000000
00010000
00001000
00000000
00100000
00000000
00100000
00000000
00200000
00000000
00000000
00000000
00300000
00000000
,
00100000
00000000
00000000
00100000
01000000
00000000
10000000
00000000
00010000
00000000
01000000
00000000
00001000
00000000
00010000
00000000
,
00000100
00000000
00000000
00000100
00001000
00000000
00000010
00000000
00000010
00000000
00000010
00000000
00000000
00000000
00000000
00000000
,
00000100
00000000
00000000
00000100
00000001
00000000
00001000
00000000
00000001
00000000
00000100
00000000
00000010
00000000
00010000
00000000
,
00001000
00000000
00000000
00001000
00010000
00000000
00000100
00000000
00000100
00000000
00000200
00000000
00000000
00000000
00000300
00000000
,
00000100
00000000
00000000
00000100
00000010
00000000
00000001
00000000
00001000
00000000
00000010
00000000
00010000
00000000
00001000
00000000
,
00100000
00000000
00000000
00100000
00010000
00000000
01000000
00000000
01000000
00000000
01000000
00000000
00000000
00000000
00000000
00000000
,
00000000
00000000
00000000
00100000
10000000
00100000
10000000
01000000
,
00000000
00000000
00000000
00100000
00001000
00010000
00001000
00000000
,
00000000
00000000
00000000
00010000
00000010
00001000
00000010
00001000
,
00000000
00000000
00000000
00000100
00000010
00000001
00000100
00000000
,
00000001
00001000
00000000
00000010
00000000
00000010
00000000
00000100
00000001
00000000
00000000
00000000
00000001
00000000
00000000
00000000
,
00000100
00001000
00010000
01000000
,
10000000
00010000
00000000
00100000
00000000
00100000
00000000
01000000
10000000
00000000
00000000
00000000
10000000
00000000
00000000
00000000
,
01000000
00010000
00001000
00000100
,
00000001
00000000
00000000
00000000
;
