#TITLE:Fun, Fun, Fun;
#SUBTITLE:;
#ARTIST:The Beach Boys;
#MUSIC:Fun, Fun, Fun.ogg;
#BANNER:Fun, Fun, Fun-bn.png;
#BACKGROUND:Fun, Fun, Fun-bg.png;
#LYRICSPATH:;
#CDTITLE:;
#SAMPLESTART:17.899000;
#SAMPLELENGTH:20.000000;
#OFFSET:0.98;
#BPMS:0.000000=160.000000,
4.000000=162.000000,
28.000000=159.000000,
68.000000=158.000000,
80.000000=156.000000,
140.000000=154.000000,
144.000000=155.000000,
184.000000=157.800003,
188.000000=155.500000,
192.000000=154.300003,
196.000000=156.699997,
204.000000=153.000000,
212.000000=154.500000,
228.000000=153.320007
;
#STOPS:;
#TIMESIGNATURES:;
#BGCHANGES:;
#FGCHANGES:;
#ATTACKS:;
#SPEEDS:;
#SCROLLS:;
#DISPLAYBPM:153.000000:162.000000;
#KEYSOUNDS:;

//---------------dance-single - ---------------
#NOTES:
     dance-single:
     :
     Beginner:
     4:
     0,0,0,0,0:
// measure 0
0000
0000
0000
0000
,  // measure 1
0000
0000
0000
0000
,  // measure 2
0000
0000
0000
0000
,  // measure 3
1001
0000
0000
0000
,  // measure 4
0110
0000
0000
0000
,  // measure 5
0010
0000
0010
0000
,  // measure 6
0010
0000
0010
0000
,  // measure 7
0100
0000
0100
0000
,  // measure 8
0100
0000
0100
0000
,  // measure 9
0001
0001
0001
0000
,  // measure 10
1000
1000
1000
0000
,  // measure 11
0001
0000
0100
0000
,  // measure 12
0010
0000
0000
0000
,  // measure 13
1000
1000
1000
0000
,  // measure 14
0001
0001
0001
0000
,  // measure 15
0100
0000
0000
0000
,  // measure 16
0000
0000
0000
0000
,  // measure 17
0010
0000
1000
0000
,  // measure 18
0001
0000
0010
0000
,  // measure 19
0100
0000
0000
0000
,  // measure 20
0000
0000
0000
0000
,  // measure 21
1000
1000
1000
0000
,  // measure 22
0010
0010
0010
0000
,  // measure 23
0100
0000
0000
0000
,  // measure 24
0000
0001
0001
0000
,  // measure 25
1000
1000
1000
1000
,  // measure 26
1000
0000
0001
0000
,  // measure 27
0200
0000
0000
0000
,  // measure 28
0300
0000
0000
0000
,  // measure 29
0010
0010
0010
0000
,  // measure 30
0100
0100
0100
0000
,  // measure 31
0002
0000
0003
0000
,  // measure 32
2000
0000
3000
0000
,  // measure 33
0001
0001
0001
0000
,  // measure 34
0010
0010
0010
0000
,  // measure 35
0200
0000
0300
0000
,  // measure 36
2000
0000
3000
0000
,  // measure 37
0010
0010
0010
0000
,  // measure 38
1000
1000
1000
0000
,  // measure 39
0002
0000
0003
0000
,  // measure 40
0000
0100
0100
0000
,  // measure 41
0010
0010
0010
0010
,  // measure 42
0010
0000
1000
0000
,  // measure 43
0200
0000
0000
0000
,  // measure 44
0300
0000
0000
0000
,  // measure 45
0000
0000
1000
0000
,  // measure 46
0001
0000
1000
0000
,  // measure 47
0000
0000
0010
0000
,  // measure 48
0100
0000
0010
0000
,  // measure 49
0000
0000
0100
0000
,  // measure 50
0001
0000
1000
0000
,  // measure 51
0000
0001
0001
0000
,  // measure 52
0000
1000
1000
0000
,  // measure 53
0001
0000
0100
0000
,  // measure 54
0010
0010
0010
0000
,  // measure 55
2000
0000
3000
0000
,  // measure 56
0002
0000
0003
0000
,  // measure 57
0010
0010
0010
0000
,  // measure 58
0100
0100
0100
0000
,  // measure 59
2000
0000
3000
0000
,  // measure 60
0020
0000
0030
0000
,  // measure 61
1000
1000
1000
0000
,  // measure 62
0001
0001
0001
0000
,  // measure 63
0200
0000
0300
0000
,  // measure 64
0000
0010
0010
0000
,  // measure 65
1000
1000
1000
1000
,  // measure 66
1000
0000
0100
0000
,  // measure 67
0020
0000
0000
0030
,  // measure 68
0000
0001
0001
0000
,  // measure 69
0100
0100
0100
0100
,  // measure 70
0100
0000
0001
0000
,  // measure 71
2000
0000
0000
0000
,  // measure 72
3000
0000
0000
0010
,  // measure 73
0020
0000
0000
0000
,  // measure 74
0000
0000
0000
0000
,  // measure 75
0030
0000
0000
0000
;

//---------------dance-single - ---------------
#NOTES:
     dance-single:
     :
     Easy:
     7:
     0.329923,0.388562,0.245056,0.007426,0.000000,311.000000,278.000000,33.000000,1.000000,0.000000,0.000000,0.329923,0.388562,0.245056,0.007426,0.000000,311.000000,278.000000,33.000000,1.000000,0.000000,0.000000:
// measure 0
0000
0000
0000
0000
,  // measure 1
0000
0000
0000
0000
,  // measure 2
0000
0000
0000
0000
,  // measure 3
1001
0000
0000
0000
,  // measure 4
1000
0001
1000
0001
,  // measure 5
0100
0100
0001
0001
,  // measure 6
1000
1000
0010
0100
,  // measure 7
0010
0010
1000
1000
,  // measure 8
0100
0100
0010
0001
,  // measure 9
0100
0001
0100
1000
,  // measure 10
0010
1000
0100
0010
,  // measure 11
0001
0100
0001
1000
,  // measure 12
0010
0010
1000
1000
,  // measure 13
0001
0100
0001
0100
,  // measure 14
0010
1000
0010
1000
,  // measure 15
0100
0010
0001
0001
,  // measure 16
0100
0001
1000
1000
,  // measure 17
0010
1000
0100
0010
,  // measure 18
0001
0100
0001
1000
,  // measure 19
0100
1000
0010
1000
,  // measure 20
0001
0001
1000
1000
,  // measure 21
0010
1000
0100
0010
,  // measure 22
0001
0100
0001
1000
,  // measure 23
0010
0010
1000
1000
,  // measure 24
0001
1000
0010
0100
,  // measure 25
1001
1001
1001
1001
,  // measure 26
0010
1000
0010
0100
,  // measure 27
0110
0110
0110
0110
,  // measure 28
0001
0010
0001
0100
,  // measure 29
1000
0100
0001
0010
,  // measure 30
0001
1000
0010
1000
,  // measure 31
0100
0100
0100
0100
,  // measure 32
0010
0010
0010
0010
,  // measure 33
0001
0100
0001
0010
,  // measure 34
0001
1000
0010
1000
,  // measure 35
0100
0100
0100
0100
,  // measure 36
1000
1000
1000
1000
,  // measure 37
0010
1000
0100
0001
,  // measure 38
0010
0001
1000
0001
,  // measure 39
0100
0100
0010
0010
,  // measure 40
0100
0001
0010
1000
,  // measure 41
1001
1001
1001
1001
,  // measure 42
0001
0001
1000
1000
,  // measure 43
0110
0110
0110
0110
,  // measure 44
0010
1000
0010
0100
,  // measure 45
0001
0010
0001
0100
,  // measure 46
0010
1000
0100
0100
,  // measure 47
0010
0001
1000
0001
,  // measure 48
0100
0100
0100
0010
,  // measure 49
0100
0001
0010
1000
,  // measure 50
0100
0010
0001
1000
,  // measure 51
0010
1010
0101
0001
,  // measure 52
0010
0011
1100
0001
,  // measure 53
0100
0010
0100
0001
,  // measure 54
0010
0001
0100
1000
,  // measure 55
0001
0001
1000
1000
,  // measure 56
0001
1000
0010
1000
,  // measure 57
0100
0100
0010
0001
,  // measure 58
0100
0001
0010
0100
,  // measure 59
1000
1000
0001
0001
,  // measure 60
1000
0010
0001
1000
,  // measure 61
0001
0010
0001
0100
,  // measure 62
0010
1000
0100
0010
,  // measure 63
0001
0001
0100
0001
,  // measure 64
0010
0100
0100
1000
,  // measure 65
1001
1001
1001
1001
,  // measure 66
0010
0010
1000
0001
,  // measure 67
0110
0110
0110
0110
,  // measure 68
0010
0100
0010
1000
,  // measure 69
1001
1001
1001
1001
,  // measure 70
0001
0010
0001
0100
,  // measure 71
0010
1000
0100
0010
,  // measure 72
0001
1000
0001
0100
,  // measure 73
0020
0000
0000
0000
,  // measure 74
0000
0000
0000
0030
;

//---------------dance-single - ---------------
#NOTES:
     dance-single:
     :
     Medium:
     10:
     0.428582,0.444071,0.401000,0.081685,0.000000,404.000000,350.000000,54.000000,11.000000,0.000000,0.000000,0.428582,0.444071,0.401000,0.081685,0.000000,404.000000,350.000000,54.000000,11.000000,0.000000,0.000000:
// measure 0
0000
0000
0000
0000
,  // measure 1
0000
0000
0000
0000
,  // measure 2
0000
0000
0000
0000
,  // measure 3
1001
0000
0000
0000
,  // measure 4
1100
0101
1100
0101
,  // measure 5
0010
0000
0000
1000
0000
0000
0100
0000
,  // measure 6
0000
0001
0000
0000
0110
0000
0001
1000
,  // measure 7
0001
0000
0000
0010
0000
0000
1000
0000
,  // measure 8
0000
0100
0000
0001
0000
1000
0100
0000
,  // measure 9
1001
0000
0001
0100
0001
0000
1000
0000
,  // measure 10
0100
0010
0001
0000
1000
0001
0000
0100
,  // measure 11
0000
0010
1000
0000
0100
0000
1000
0001
,  // measure 12
0000
0100
0000
0100
0000
0100
0001
1000
,  // measure 13
0001
0000
0010
0100
1000
0000
0010
1000
,  // measure 14
0100
0000
1000
0000
0001
0100
0010
1000
,  // measure 15
0000
1100
0000
0000
0001
0000
0100
0000
,  // measure 16
0010
0000
1000
0000
0100
0010
0100
0010
,  // measure 17
0001
0000
1000
0010
0000
1000
0100
0000
,  // measure 18
0010
0000
0001
0000
1000
0001
0100
0010
,  // measure 19
0000
1010
0000
0010
0100
0000
0000
0001
,  // measure 20
1000
0000
0010
0000
1000
0100
0010
0001
,  // measure 21
0100
0000
0010
1000
0000
0001
0010
0000
,  // measure 22
0100
0000
0010
0000
0001
1000
0001
0100
,  // measure 23
0000
0101
0000
0000
0010
1000
0100
0000
,  // measure 24
1000
0020
0230
0301
,  // measure 25
0011
1100
0011
1100
,  // measure 26
0001
0100
0001
0000
1000
0100
1000
0000
,  // measure 27
1010
0101
1010
0101
,  // measure 28
0001
0010
0001
0000
1000
0010
1000
0000
,  // measure 29
0110
0000
1001
0000
0100
0010
1000
0000
,  // measure 30
0001
0000
0010
0000
0001
1000
0010
0100
,  // measure 31
0000
0001
0000
1000
0000
0001
0000
0010
,  // measure 32
0100
1000
0001
1000
0000
0010
0100
0001
,  // measure 33
1000
0000
1100
0000
0101
0000
0100
0010
,  // measure 34
0000
1000
0001
0000
0010
0100
1000
0001
,  // measure 35
0000
0100
0000
0010
0000
0100
0000
0010
,  // measure 36
1000
0001
1000
0100
0000
0010
0001
1000
,  // measure 37
0001
0000
1010
0000
1000
0001
1000
0000
,  // measure 38
0010
0000
0100
0000
0001
0010
0100
1000
,  // measure 39
0000
0001
0000
1000
0000
0010
0000
1000
,  // measure 40
0100
2000
3002
0103
,  // measure 41
0101
1010
0101
1010
,  // measure 42
1000
0100
1000
0000
0001
0100
0001
0000
,  // measure 43
0011
1100
0011
1100
,  // measure 44
0001
0010
0001
0000
1000
0010
1000
0000
,  // measure 45
0010
0100
0001
0000
0010
0100
1000
0000
,  // measure 46
0001
1000
0000
0001
0000
0100
0010
0000
,  // measure 47
1000
0100
0001
0000
1000
0010
0001
0000
,  // measure 48
0100
0010
0000
0100
0000
0001
1000
0000
,  // measure 49
0001
0000
0011
0000
1000
0010
0100
0000
,  // measure 50
0001
0010
0000
0100
0000
1000
0001
0000
,  // measure 51
1000
0001
0100
0000
0010
0100
0000
0000
,  // measure 52
0000
0001
1000
0000
0010
1000
0100
0000
,  // measure 53
0001
1000
0001
0200
0000
0000
0310
0100
,  // measure 54
0001
0000
1001
0000
0110
0000
1000
0001
,  // measure 55
0000
0010
0000
0100
0000
0010
0000
0100
,  // measure 56
1000
0001
1000
0010
0000
0100
0001
1000
,  // measure 57
0001
0000
0011
0000
1100
0000
0001
0100
,  // measure 58
1000
0000
0010
0000
1000
0001
0100
0010
,  // measure 59
0000
1000
0000
0001
0000
1000
0000
0001
,  // measure 60
0010
0100
0010
0001
0000
1000
0100
1000
,  // measure 61
0010
0000
0010
0100
0001
0000
0011
0000
,  // measure 62
1010
0000
1000
0100
1000
0000
0001
0100
,  // measure 63
0000
0010
0000
1000
0000
0010
0000
0100
,  // measure 64
0001
0020
0230
1300
,  // measure 65
1100
0101
1100
0101
,  // measure 66
0010
1000
0100
0000
0010
0001
0100
0000
,  // measure 67
1010
0011
1010
0011
,  // measure 68
0100
0001
0020
0000
0230
0000
1300
0000
,  // measure 69
1001
0110
1001
0110
,  // measure 70
0010
1000
0100
0000
0010
0001
0100
0000
,  // measure 71
0101
1100
0101
1100
,  // measure 72
0001
0010
0100
1000
0100
0010
0002
0000
,  // measure 73
2000
0000
0000
0000
,  // measure 74
0000
0000
0000
3003
;

//---------------dance-single - ---------------
#NOTES:
     dance-single:
     :
     Hard:
     13:
     0.506024,0.499579,0.259907,0.148519,0.000000,477.000000,442.000000,35.000000,20.000000,0.000000,0.000000,0.506024,0.499579,0.259907,0.148519,0.000000,477.000000,442.000000,35.000000,20.000000,0.000000,0.000000:
// measure 0
0000
0000
0000
0000
,  // measure 1
0000
0000
0000
0000
,  // measure 2
0000
0000
0000
0000
,  // measure 3
1001
0000
0000
0000
,  // measure 4
1100
0101
1100
0101
,  // measure 5
0010
0000
1000
0100
0000
0100
0001
0000
,  // measure 6
0001
0010
0000
0010
1000
0000
1000
0001
,  // measure 7
0100
0000
0001
0010
0000
0010
1000
0000
,  // measure 8
1000
0100
0000
0100
0001
0010
1000
0010
,  // measure 9
0001
0100
0010
0100
1000
0100
0001
0000
,  // measure 10
1000
0001
0100
0000
0010
1000
0000
0110
,  // measure 11
0000
0001
0010
0100
0010
0100
1000
0001
,  // measure 12
0000
0100
0010
0100
0010
1000
0001
0010
,  // measure 13
1000
0010
0001
0100
0010
0000
0010
1000
,  // measure 14
0100
0000
0100
1000
0010
0100
0001
1000
,  // measure 15
0000
0101
0010
0000
1000
0100
0001
0000
,  // measure 16
0010
0001
0100
0000
0001
0010
0100
1000
,  // measure 17
0010
0100
0001
1000
0000
0001
0001
0000
,  // measure 18
0100
0010
0100
0001
1000
0100
0010
0001
,  // measure 19
0000
0011
1000
0000
0001
0100
0010
0000
,  // measure 20
1000
0000
0100
0000
1000
0001
0100
0010
,  // measure 21
1000
0100
0010
0001
0000
0100
0100
0000
,  // measure 22
0001
0010
0001
0100
0010
1000
0001
0100
,  // measure 23
0000
1010
0100
0000
0001
0010
1000
0000
,  // measure 24
0100
0010
0002
0000
2003
0000
3001
0000
,  // measure 25
0011
0000
1100
0000
0101
0000
1000
0001
,  // measure 26
0100
0100
0100
0010
1000
0100
1000
0002
,  // measure 27
0100
0000
1000
0000
0100
0000
1003
0001
,  // measure 28
0010
0100
0010
0001
1000
0010
1000
0001
,  // measure 29
0100
0010
1000
0000
1000
0100
1000
0001
,  // measure 30
0100
0000
0001
0010
0001
0100
0010
1000
,  // measure 31
0100
0010
0001
0001
0000
1001
0000
0100
,  // measure 32
0010
1000
0001
0100
0000
0010
0010
1000
,  // measure 33
0001
0100
1000
0000
0010
0100
0010
1000
,  // measure 34
0000
0001
0100
0010
1000
0100
0001
0100
,  // measure 35
1000
0010
0100
0100
0000
1001
0000
0001
,  // measure 36
0010
0100
1000
0001
0000
0100
0100
0010
,  // measure 37
0110
0000
0001
0100
0001
1000
0100
0010
,  // measure 38
0001
0100
1000
0100
0001
0100
0010
1000
,  // measure 39
0100
1000
0010
0010
0000
1001
0000
0100
,  // measure 40
0001
0010
0002
0000
2003
0000
3100
0000
,  // measure 41
1100
0000
0110
0000
0011
0000
0100
0001
,  // measure 42
1000
1000
1000
0001
0100
0010
0100
0001
,  // measure 43
1001
0000
1010
0000
1100
0000
0010
0001
,  // measure 44
0100
0010
0100
0001
1000
0100
1000
0001
,  // measure 45
0000
1000
1000
0100
0001
0100
1000
0100
,  // measure 46
0001
0200
0000
2300
0000
0001
3001
0000
,  // measure 47
0100
0010
2000
0000
3001
1000
0010
0100
,  // measure 48
0001
0020
0000
0230
0000
1000
1300
0000
,  // measure 49
1010
0100
0001
0010
0001
0100
1000
0010
,  // measure 50
0100
0200
0000
0302
0000
0010
0013
0000
,  // measure 51
0001
0100
1000
0001
0010
1000
0000
0100
,  // measure 52
1000
0010
1000
0001
1000
0100
0010
0001
,  // measure 53
0100
0010
1000
0002
0000
0000
0013
0100
,  // measure 54
1000
0010
0001
0010
1000
0000
0100
0010
,  // measure 55
0001
0100
0010
1000
0000
0101
0000
0010
,  // measure 56
1000
0100
1000
0001
0000
0100
0100
0010
,  // measure 57
1000
0100
1000
0100
0010
0000
0001
1000
,  // measure 58
0001
0001
0100
0010
1000
0100
1000
0001
,  // measure 59
0100
0010
1000
0100
0000
1001
0000
0001
,  // measure 60
0010
0001
0100
1000
0000
0010
0010
0100
,  // measure 61
0010
1000
0100
0010
0001
0000
1000
0100
,  // measure 62
1000
0010
0001
0010
1000
0000
0100
0010
,  // measure 63
0001
1000
0001
0100
0000
0110
0000
0010
,  // measure 64
1000
0100
0020
0000
0032
0000
1003
0000
,  // measure 65
1100
0000
0011
0000
1010
0000
0001
0100
,  // measure 66
0010
0010
0010
1000
0100
1000
0001
0200
,  // measure 67
1000
0000
0001
0000
1000
0000
0310
0100
,  // measure 68
0001
0010
2000
0000
3200
0000
0310
0000
,  // measure 69
0011
0000
1100
0000
1001
0000
0010
1000
,  // measure 70
0100
0100
0100
0010
0001
1000
0001
0100
,  // measure 71
0110
0000
1001
0000
1010
0000
0001
0010
,  // measure 72
0001
0100
0010
1000
0100
0010
0002
0000
,  // measure 73
2000
0000
0000
0000
,  // measure 74
0000
0000
0000
3003
;
