#TITLE:Freeway Shuffle;
#SUBTITLE:(25th Anniversary Special);
#ARTIST:dj TAKA;
#BANNER:Freeway Shuffle (25th Anniversary Special)-bn.png;
#BACKGROUND:Freeway Shuffle (25th Anniversary Special)-bg.png;
#JACKET:Freeway Shuffle (25th Anniversary Special)-jacket.png;
#MUSIC:Freeway Shuffle (25th Anniversary Special).ogg;
#OFFSET:1.2;
#SAMPLESTART:28.552;
#SAMPLELENGTH:20;
#LASTBEATHINT:0.464;
#DISPLAYBPM:145;
#BPMS:0=145;
#BGCHANGES:;

//---------------dance-single - ----------------
#NOTES:
     dance-single:
     :
     Challenge:
     17:
     :
0000
0000
0000
0000
,
0000
0000
0000
0000
,
1001
0000
0010
1000
0000
0100
0000
1000
0000
0010
0000
0100
0001
0000
1000
0000
,
0001
0000
0010
0100
0000
1000
0000
0001
0000
0010
0000
0100
1000
0000
0001
0000
,
0100
0000
0001
0010
0000
0100
0000
1000
0000
0010
0000
0100
0001
0000
1000
0000
,
0100
0000
0010
0001
0000
0100
0000
0001
0000
1000
0000
0010
0100
0000
0000
0000
,
0110
0000
0010
1000
0002
0103
0000
0001
0000
0010
0000
0100
1000
0000
0010
0000
,
0100
0000
0001
0010
0000
0100
0000
1000
0000
0010
0000
1000
0001
0010
0100
0000
,
1000
0000
0001
1000
0000
0100
0000
0010
0000
0100
0000
1000
0001
0000
0010
0000
,
0001
0000
0100
0010
1000
0001
1000
0010
0100
0001
0000
0001
1000
0100
1000
0000
,
0010
1000
0000
0100
0000
1000
0001
1000
0000
0010
0000
0100
0001
0100
0010
0000
,
0100
0001
0000
1000
0000
0001
0010
0100
0000
1000
0000
1000
0010
0100
0001
0000
,
1000
0010
1000
0010
0200
0301
0010
0100
0000
1000
0000
1000
0001
0100
0010
0000
,
1000
0001
1000
0010
0000
0100
0000
0001
0000
0010
0002
1003
0100
0000
0000
0000
,
1100
0000
1000
0100
0000
0010
0000
0001
0000
1000
0020
0130
0001
1000
0001
0000
,
0100
0010
0100
0001
0000
1000
0000
0100
0000
1000
0020
1030
0100
0010
0001
0000
,
1000
0001
2000
0010
3000
0100
0000
0001
0000
0010
0200
0310
0001
1000
0001
0000
,
1000
0010
1000
0010
0100
0000
0100
0000
0100
0001
1000
0001
0010
0000
0100
0000
,
1001
0000
0010
0000
0001
0100
1000
0100
0001
0000
0001
0000
0001
0000
0010
0100
,
1000
0010
1000
0000
0101
0000
1100
0000
0000
0001
0010
0000
0010
0000
0010
0000
,
0100
0000
1000
0010
0100
0010
1000
0001
0010
0001
0100
0000
0110
0000
1001
0000
,
1000
0010
0001
0010
1000
0000
0102
0000
0000
0000
1000
0000
1003
0001
1000
0000
,
1100
0110
0011
0101
0000
0010
0010
0010
,
0001
0000
0001
0000
1000
0000
1000
0000
0001
0100
1000
0000
0010
0100
0010
0000
,
1000
0001
0100
0000
0010
0000
0100
0001
1000
0000
1000
0000
1000
0000
0001
0000
,
1000
0100
0010
0000
0001
0000
0001
0000
0100
0010
1000
0000
0001
0000
0001
0000
,
0110
0000
1000
0010
0100
0001
0010
0100
1000
0000
1000
0000
1000
0000
0001
0100
,
1000
0100
0001
0000
0011
0000
1100
0000
0010
0100
0001
0000
1000
0000
1000
0000
,
0001
0000
0010
1000
0010
0001
0100
0010
1000
0001
1000
0000
1010
0000
1100
0000
,
0001
0010
1000
0010
0001
0000
0201
0000
0000
0000
0010
0000
0310
0100
0001
0000
,
1001
0011
0110
1100
0000
0001
0001
0001
,
0010
0001
0100
0000
1000
0000
1000
0000
0001
1000
0100
0000
0010
0001
0010
0000
,
0100
1000
0001
0000
0001
0000
0010
0100
1000
0000
1000
0000
1000
0000
0001
0000
,
1000
0010
0100
0010
1000
0000
0001
0000
0010
0100
1000
0100
0010
0001
0100
0000
,
0001
0010
1000
0010
0002
1003
0100
0000
0010
0001
1000
0000
0010
0000
0100
0001
,
1000
0000
0100
0000
0110
0000
0011
0000
0000
0000
1001
0000
0110
0000
1000
0001
,
0010
1000
0010
0001
0100
0000
0010
1000
0001
0000
0100
0000
0001
0010
1000
0100
,
0010
0100
0010
0001
0100
0000
0001
0010
1000
0010
0100
0010
1000
0010
0001
0000
,
1100
0000
0001
0100
0010
0000
2000
0000
0000
0000
0001
0000
3001
1000
0100
0000
,
1000
0010
1000
0001
0010
0000
0200
0000
0000
0000
1000
0000
1300
0000
0001
0000
,
0010
0100
1000
0001
0100
1000
0100
0001
0010
1000
0010
0001
0100
1000
0001
0010
,
0100
0010
1000
0010
0001
0010
0100
1000
0100
0001
0100
1000
0001
0010
1000
0001
,
0100
0010
1000
0001
0100
0000
0010
0000
1000
0000
0100
0000
0001
0000
0010
0000
,
0001
0000
1000
0010
1000
0000
0100
0000
0010
0000
0001
0100
0001
0000
1000
0000
,
0010
0000
1001
0000
0100
0000
0001
0000
0000
0000
1000
0000
1000
0000
0001
0010
,
0100
1000
0010
0000
0100
0001
0010
0000
0100
1000
0010
0000
0100
0001
0010
0000
,
1000
0000
0100
1000
0001
0000
0100
0000
0000
0000
0010
0000
0010
0000
0100
0000
,
0001
0010
0100
0010
0001
0000
1000
0000
0010
0100
0010
1000
0001
0000
0011
0000
,
0110
0000
1100
0000
0010
0000
0000
0000
0100
0001
0010
0001
0010
0100
1000
0001
,
1000
0000
0001
0010
0001
0000
0100
0000
0010
1000
0010
1000
0001
0000
0000
0000
,
0010
0001
0010
0100
1000
0000
0001
0100
1000
0000
0001
0000
0010
0000
0001
0100
,
1000
0000
0010
0100
0001
0000
1000
0000
0000
0000
0101
0000
1100
0000
0001
0000
,
1000
0010
0001
0100
1000
0000
0001
0010
0100
0000
1000
0001
1000
0010
0100
0001
,
0010
1000
0010
0001
0100
0000
0001
0010
1000
0010
0100
0010
1000
0010
0001
0000
,
0101
0000
0110
0000
1010
0000
1100
0000
0000
0000
0001
0000
0001
0010
0100
1000
,
0001
0011
1001
0101
0000
0010
0010
0010
,
1000
0010
0001
0010
0001
0100
0010
1000
0001
0100
1000
0001
0010
0100
1000
0100
,
0001
0010
0100
0010
0001
0000
1000
0010
0100
0010
1000
0001
0010
0100
1000
0000
,
0010
1000
0100
0001
0010
0001
0100
1000
0001
0100
1000
0010
1000
0010
0001
0100
,
0002
0000
0000
0003
,
0220
0000
0000
0000
,
0000
0000
0000
0000
,
0000
0000
0000
0000
,
0000
0000
0000
0330
;
