#VERSION:0.83;
#TITLE:Freak Me;
#SUBTITLE:;
#ARTIST:Silk;
#TITLETRANSLIT:;
#SUBTITLETRANSLIT:;
#ARTISTTRANSLIT:;
#GENRE:;
#ORIGIN:;
#CREDIT:;
#BANNER:Freak Me-bn.png;
#BACKGROUND:Freak Me-bg.png;
#PREVIEWVID:;
#JACKET:Freak Me-jacket.png;
#CDIMAGE:;
#DISCIMAGE:;
#LYRICSPATH:;
#CDTITLE:;
#MUSIC:Freak Me.ogg;
#OFFSET:0.000000;
#SAMPLESTART:13.444000;
#SAMPLELENGTH:20.000000;
#SELECTABLE:YES;
#DISPLAYBPM:134.000000;
#BPMS:0.000=133.890;
#STOPS:;
#DELAYS:;
#WARPS:;
#TIMESIGNATURES:0.000=4=4;
#TICKCOUNTS:0.000=4;
#COMBOS:0.000=1;
#SPEEDS:0.000=1.000=0.000=0;
#SCROLLS:0.000=1.000;
#FAKES:;
#LABELS:0.000=Song Start;
#BGCHANGES:;
#KEYSOUNDS:;
#ATTACKS:
;

//---------------dance-single - ----------------
#NOTEDATA:;
#CHARTNAME:;
#STEPSTYPE:dance-single;
#DESCRIPTION:;
#CHARTSTYLE:;
#DIFFICULTY:Hard;
#METER:11;
#RADARVALUES:0.467696,0.466399,0.359686,0.212875,0.036703,446.000000,397.000000,49.000000,29.000000,0.000000,0.000000,0.000000,0.000000,0.000000,0.467696,0.466399,0.359686,0.212875,0.036703,446.000000,397.000000,49.000000,29.000000,0.000000,0.000000,0.000000,0.000000,0.000000;
#CREDIT:;
#DISPLAYBPM:134.000000;
#NOTES:
0000
0000
0000
0000
,
0000
0000
0000
0000
,
0000
0000
0000
0000
,
0000
0000
0000
0000
,
1000
1000
0100
0010
0001
0100
1001
0000
,
0100
0010
0000
0010
1000
0000
0101
0000
,
0001
0001
0010
0100
1000
0001
0110
0000
,
0010
0100
0000
0100
1000
0001
1000
0001
,
0010
0000
1001
0000
0100
0001
1000
0001
,
0010
0100
1000
0001
1000
0010
0100
0000
,
0110
0001
1000
0001
0010
0000
1100
0000
,
0001
0001
0100
0020
0000
2030
0000
3002
,
0000
0000
1003
0001
0010
0001
0200
0000
,
0310
0000
1000
0001
0010
0100
1000
0000
,
1010
0010
0100
0001
1000
0000
0101
0000
,
0010
1000
0100
0020
0000
0032
0000
2003
,
0000
3010
0100
0002
0000
1000
2003
0000
,
3001
0010
0001
0100
0000
0010
1000
0000
,
0100
0010
0001
0100
0010
1000
0001
0000
,
0010
0001
0101
0000
0000
1100
0000
0000
,
1001
0000
0000
0000
0000
0000
0000
0000
1000
0000
0000
0000
0000
0000
0000
0000
0100
0000
0000
0000
0000
0000
0000
0000
0010
0000
0000
0000
0000
0000
0000
0000
0000
0001
0000
0000
0000
0000
0000
0000
0000
0000
1000
0000
0000
0000
0000
0000
,
0000
0010
0000
1000
0001
1000
0100
0000
,
1100
0011
0101
1010
,
0001
1000
1000
0010
1000
0100
0100
0000
,
0001
0010
0001
0100
0010
1000
0001
0000
,
1000
0100
0000
0100
0001
0000
0000
0010
,
0010
0001
1000
0001
0100
0010
1000
0000
,
0001
0000
0011
0001
1000
1100
0000
0001
,
0001
0100
0001
0010
0001
0100
1000
0000
,
0010
1000
0000
1000
0001
0000
0000
0100
,
0100
0001
0010
0100
1000
0010
0001
0000
,
2000
0000
0010
3020
0000
0230
0000
0301
,
1000
0001
0100
0000
1001
0100
0010
0000
,
1000
0100
0001
0100
1000
0000
0000
0010
,
0100
0001
0100
0010
1000
0100
0001
0000
,
0010
0001
0101
0000
1000
1100
0000
0001
,
0001
1000
0001
0100
0010
1000
0100
0000
,
1000
0001
1000
0000
0110
0010
0001
1000
,
0001
0100
1000
0100
0001
0000
0010
0100
,
0000
1000
0001
0000
0100
0010
1000
0001
,
0010
0000
1001
0000
0100
0010
0100
0001
,
1000
0010
0100
0010
1000
0001
0100
0000
,
0110
0000
1000
0100
0001
0000
0011
0000
,
1000
0100
1000
0002
0000
0023
0000
0230
,
0000
0000
1300
0010
1000
0001
0100
0000
,
1010
0000
0001
0010
0001
0100
1000
0000
,
0120
0000
2030
0000
3002
0000
1003
0100
,
0000
0010
0001
1000
0010
0100
0001
1000
,
0200
0000
1300
0010
1000
0100
0002
0000
,
0000
0000
0013
0001
0000
1000
0100
0000
,
2000
0000
0000
0000
3001
0000
0000
0000
1000
0000
0000
0010
0100
0000
0001
0000
,
0010
0100
1100
0000
0000
0101
0000
0000
,
1001
0000
0000
0000
0000
0000
0000
0000
0001
0000
0000
0000
0000
0000
0000
0000
0100
0000
0000
0000
0000
0000
0000
0000
0010
0000
0000
0000
0000
0000
0000
0000
0000
1000
0000
0000
0000
0000
0000
0000
0000
0000
0001
0000
0000
0000
0000
0000
,
0000
0000
0000
1000
1000
0100
0001
0000
,
0011
1100
0101
1010
,
0100
0000
0010
0000
1000
0010
1000
0001
,
0010
1001
0200
0001
,
1000
1300
0100
0001
0000
0010
0100
0000
,
0110
0001
1000
0001
0100
0000
0010
0000
,
1000
1000
0000
1100
0000
0110
0000
0011
,
0000
0000
1000
0100
0010
0001
0100
0000
,
1001
0010
1000
0001
1000
0100
0010
0000
,
0110
0001
1000
0001
0100
0000
0010
0000
,
1000
0001
0000
0101
0000
1100
0000
0101
,
0000
0000
0000
2000
0000
0010
3020
0000
,
0000
0130
0001
1000
0000
0001
0100
0000
,
1010
0001
1000
0001
0010
0000
0110
0000
,
1000
0010
1000
0001
0100
0000
1001
0000
,
0010
0000
0000
0000
0000
0000
0000
0000
1000
0000
0000
0000
0000
0000
0000
0000
0100
0000
0000
0000
0000
0000
0000
0000
1000
0000
0000
0000
0000
0000
0000
0000
0000
0001
0000
0000
0000
0000
0000
0000
0000
0000
0100
0000
0000
0000
0000
0000
,
0010
0000
1001
0000
0011
0001
1000
0010
,
2000
3200
0320
0032
,
0103
0010
0100
0001
1000
0100
0010
0001
,
0010
1001
0200
0000
,
0000
0000
0000
0000
,
0000
0000
0000
0300
;

//---------------dance-single - ----------------
#NOTEDATA:;
#CHARTNAME:;
#STEPSTYPE:dance-single;
#DESCRIPTION:;
#CHARTSTYLE:;
#DIFFICULTY:Medium;
#METER:9;
#RADARVALUES:0.321935,0.384093,0.190854,0.352345,0.033032,307.000000,281.000000,26.000000,48.000000,0.000000,0.000000,0.000000,0.000000,0.000000,0.321935,0.384093,0.190854,0.352345,0.033032,307.000000,281.000000,26.000000,48.000000,0.000000,0.000000,0.000000,0.000000,0.000000;
#CREDIT:;
#DISPLAYBPM:134.000000;
#NOTES:
0000
0000
0000
0000
,
0000
0000
0000
0000
,
0000
0000
0000
0000
,
0000
0000
0000
0000
,
1000
0001
1000
0001
0000
0000
0100
0000
,
0100
0010
0000
1000
0000
0000
0001
0000
,
1000
0001
1000
0001
0000
0000
0100
0000
,
0100
0010
0000
0000
1000
0001
1000
0001
,
0010
1001
0200
0000
,
0000
0000
0301
1000
0000
0020
0000
0000
,
0130
0000
0001
1000
0001
0000
0110
0000
,
0000
0000
0000
2000
0000
3200
0000
0320
,
0000
0000
0031
1000
0001
0010
0100
0000
,
0100
0000
1000
0001
0000
2000
0000
0000
,
3010
0000
0100
0001
0100
0000
0110
0000
,
0000
0000
0000
0020
0000
2030
0000
3002
,
0000
0000
0000
1003
0000
0100
0020
0000
,
0000
0000
0031
0010
0000
0001
0100
0000
,
1000
0000
0010
0100
0001
0000
1001
0000
,
0000
0000
1100
0000
0000
0101
0000
0000
,
0000
0000
0000
0000
0000
0000
0000
0000
0010
0000
0000
0000
0000
0000
0000
0000
0001
0000
0000
0000
0000
0000
0000
0000
1000
0000
0000
0000
0000
0000
0000
0000
0000
0001
0000
0000
0000
0000
0000
0000
0000
0000
0100
0000
0000
0000
0000
0000
,
0000
0000
0000
0001
0010
0100
1000
0000
,
0020
2030
3002
0203
,
0300
0001
1000
0010
0000
1000
0001
0000
,
1000
0100
1000
0100
1000
0100
1000
0000
,
0000
0000
0000
0000
1001
0000
0000
0001
,
0100
0010
0100
0010
0100
0010
0100
0000
,
0000
0000
0110
0000
0000
1001
0000
0010
,
1000
0001
1000
0001
1000
0001
0100
0000
,
0000
0000
0000
0000
0110
0000
0000
0010
,
0100
0010
0100
0001
1000
0001
0100
0000
,
0000
0000
0101
0000
0000
1100
0000
0000
,
0001
0100
0010
0000
1000
0100
0001
0000
,
0000
0000
0000
0000
1001
0000
0000
0010
,
1000
0010
1000
0010
0100
0001
0100
0000
,
0000
0000
1010
0000
0000
0011
0000
0001
,
1000
0001
1000
0001
0010
0001
0100
0000
,
0000
0000
0000
0000
0000
0010
1000
0100
,
1000
0010
1000
0001
0100
0000
0010
1000
,
0000
0100
0010
0000
0001
1000
0001
1000
,
0010
1001
0200
0000
,
0000
0000
0310
1000
0000
0002
0000
0000
,
0103
0000
0001
1000
0001
0000
0011
0000
,
0000
0000
0000
0002
0000
2003
0000
3200
,
0000
0000
1300
0010
1000
0010
0100
0000
,
0100
0000
0001
1000
0000
0002
0000
0000
,
0013
0000
0001
0000
1000
0000
0001
0100
,
0000
0110
0000
0020
0000
0230
0000
0302
,
0000
0000
0000
1003
0000
0100
0020
0000
,
0000
0000
0031
1000
0000
1000
0100
0000
,
0020
0000
0000
0000
0031
0000
1000
0001
,
0100
0000
0101
0000
0000
1010
0000
0000
,
0000
0000
0000
0000
0000
0000
0000
0000
0001
0000
0000
0000
0000
0000
0000
0000
1000
0000
0000
0000
0000
0000
0000
0000
0100
0000
0000
0000
0000
0000
0000
0000
0000
1000
0000
0000
0000
0000
0000
0000
0000
0000
0010
0000
0000
0000
0000
0000
,
0000
0000
0000
1000
0100
0010
0001
0000
,
0200
0320
2030
3002
,
0003
0000
2000
0000
3001
0100
0001
0100
,
0010
1001
0200
0000
,
0000
0000
0301
0100
0000
0020
0000
0000
,
0130
0000
0000
0000
,
0000
0000
0000
0020
0000
2030
0000
3200
,
0000
0000
1300
0001
1000
0001
2000
0000
,
3010
0000
0100
0001
0000
2000
0000
0000
,
3100
0000
0000
0000
,
0000
0000
0000
0020
0000
0032
0000
0203
,
0000
0000
0000
0310
0000
0010
2000
0000
,
0000
0000
3100
0010
0000
0100
0010
0000
,
0001
0000
0000
1001
,
0000
1010
0000
0101
,
0000
0000
0000
0000
0000
0000
0000
0000
1000
0000
0000
0000
0000
0000
0000
0000
0100
0000
0000
0000
0000
0000
0000
0000
1000
0000
0000
0000
0000
0000
0000
0000
0000
0001
0000
0000
0000
0000
0000
0000
0000
0000
0100
0000
0000
0000
0000
0000
,
0000
0000
0110
0000
0001
0100
1000
0000
,
0002
0023
0230
2300
,
3020
0000
0230
0000
0301
1000
0001
1000
,
0010
1001
0200
0000
,
0000
0000
0000
0000
,
0000
0000
0000
0300
;

//---------------dance-single - ----------------
#NOTEDATA:;
#CHARTNAME:;
#STEPSTYPE:dance-single;
#DESCRIPTION:;
#CHARTSTYLE:;
#DIFFICULTY:Easy;
#METER:6;
#RADARVALUES:0.244335,0.274352,0.198194,0.154151,0.000000,233.000000,206.000000,27.000000,21.000000,0.000000,0.000000,0.000000,0.000000,0.000000,0.244335,0.274352,0.198194,0.154151,0.000000,233.000000,206.000000,27.000000,21.000000,0.000000,0.000000,0.000000,0.000000,0.000000;
#CREDIT:;
#DISPLAYBPM:134.000000;
#NOTES:
0000
0000
0000
0000
,
0000
0000
0000
0000
,
0000
0000
0000
0000
,
0000
0000
0000
0000
,
1000
0001
0100
0010
,
0110
0000
1001
0000
,
0001
1000
0010
0100
,
0001
0000
1000
1000
,
0010
1001
0200
0000
,
0300
0001
1000
0100
,
0110
0000
0001
1000
,
0000
0000
0010
0100
,
0001
1000
1000
0100
,
0001
1000
0010
0100
,
0110
0000
0010
1000
,
0000
0000
0100
0010
,
0002
0003
1000
0010
,
1000
0100
0010
0001
,
1001
0000
0010
0100
,
0000
0001
0000
1000
,
0000
0010
1000
0100
,
0000
0000
1000
0001
,
0200
0320
0230
0320
,
0030
0000
0000
0000
,
1000
0010
0100
0001
,
0110
0000
1001
0000
,
0010
1000
0100
0001
,
0110
0000
1001
0000
,
0001
0100
0010
1000
,
1001
0000
0110
0000
,
0010
1000
0001
0100
,
0001
0010
0100
1000
,
0010
0100
0001
1000
,
1001
0000
0110
0000
,
0001
0010
1000
0100
,
1001
0000
0110
0000
,
1000
0001
0010
0100
,
0110
0000
1001
0000
,
1000
1000
0001
0001
,
1000
0010
0100
0001
,
0010
1001
0200
0000
,
0300
0001
0010
0001
,
0110
0000
1000
0100
,
0000
0000
1000
0001
,
1000
0010
0010
0100
,
0010
1000
0100
0001
,
1001
0001
0100
0010
,
1000
1000
0100
0001
,
0020
0030
0001
1000
,
0010
1000
0010
0100
,
0110
0000
0001
0000
,
1000
0100
0000
0010
,
0000
0001
0100
1000
,
0000
0000
0010
1000
,
0002
0203
0302
0203
,
0300
0000
0001
0001
,
0010
1001
0200
0000
,
0300
0001
1000
0100
,
0110
0000
0000
0000
,
0000
0000
0010
0001
,
0100
0001
0001
0010
,
1000
0001
1000
0100
,
1001
0000
0000
0000
,
0000
0000
0010
0100
,
0020
0030
1000
0200
,
0300
1000
0010
0001
,
0110
0000
0000
1000
,
0000
0100
0000
0001
,
0000
0100
0010
1000
,
0000
0001
0001
0001
,
2000
3020
0230
0302
,
0023
0030
0001
1000
,
0010
1001
0200
0000
,
0000
0000
0000
0000
,
0000
0000
0000
0300
;

//---------------dance-single - ----------------
#NOTEDATA:;
#CHARTNAME:;
#STEPSTYPE:dance-single;
#DESCRIPTION:;
#CHARTSTYLE:;
#DIFFICULTY:Beginner;
#METER:3;
#RADARVALUES:0.137373,0.186266,0.088086,0.000000,0.000000,131.000000,119.000000,12.000000,0.000000,0.000000,0.000000,0.000000,0.000000,0.000000,0.137373,0.186266,0.088086,0.000000,0.000000,131.000000,119.000000,12.000000,0.000000,0.000000,0.000000,0.000000,0.000000,0.000000;
#CREDIT:;
#DISPLAYBPM:134.000000;
#NOTES:
// measure 0
0000
0000
0000
0000
,  // measure 1
0000
0000
0000
0000
,  // measure 2
0000
0000
0000
0000
,  // measure 3
0000
0000
0000
0000
,  // measure 4
1000
1000
0000
0000
,  // measure 5
0000
0000
0000
0000
,  // measure 6
0001
0001
0000
0000
,  // measure 7
0000
0000
0010
0010
,  // measure 8
0010
0000
0100
0000
,  // measure 9
0000
0000
1000
0000
,  // measure 10
1001
0000
0000
0000
,  // measure 11
0000
0000
0001
0001
,  // measure 12
0001
0000
1000
0000
,  // measure 13
0001
0000
0100
0000
,  // measure 14
0110
0000
0000
0000
,  // measure 15
0000
0000
1000
1000
,  // measure 16
1000
0000
0010
0000
,  // measure 17
0100
0000
0001
0000
,  // measure 18
1001
0000
0000
0000
,  // measure 19
0000
0000
0000
0000
,  // measure 20
0110
0000
1000
0000
,  // measure 21
0010
0000
1000
0000
,  // measure 22
0001
0001
0001
0001
,  // measure 23
0000
0000
0000
0000
,  // measure 24
0010
0010
0010
0010
,  // measure 25
0000
0000
0000
0000
,  // measure 26
0100
0100
0100
0100
,  // measure 27
0000
0000
0000
0000
,  // measure 28
1000
1000
1000
1000
,  // measure 29
0000
0000
0000
0000
,  // measure 30
0001
0001
0001
0001
,  // measure 31
0000
0000
0000
0000
,  // measure 32
1000
1000
1000
1000
,  // measure 33
0000
0000
0000
0000
,  // measure 34
0010
0010
0010
0010
,  // measure 35
0000
0000
0000
0000
,  // measure 36
0100
0100
0100
0100
,  // measure 37
0000
0000
0000
0000
,  // measure 38
0001
0000
1000
0000
,  // measure 39
0001
0000
0100
0000
,  // measure 40
0010
0000
0100
0000
,  // measure 41
0000
0000
0001
0000
,  // measure 42
1001
0000
0000
0000
,  // measure 43
0000
0000
0100
0100
,  // measure 44
0100
0000
1000
0000
,  // measure 45
0010
0000
1000
0000
,  // measure 46
0110
0000
0000
0000
,  // measure 47
0000
0000
0001
0001
,  // measure 48
0001
0000
0010
0000
,  // measure 49
0100
0000
1000
0000
,  // measure 50
1001
0000
0000
0000
,  // measure 51
0000
0000
0000
0000
,  // measure 52
0110
0000
0000
0000
,  // measure 53
0000
0000
0000
0000
,  // measure 54
0100
0100
0100
0100
,  // measure 55
0000
0000
0010
0010
,  // measure 56
0010
0000
0100
0000
,  // measure 57
0000
0000
0001
0000
,  // measure 58
1001
0000
0000
0000
,  // measure 59
0000
0000
1000
1000
,  // measure 60
1000
0000
0100
0000
,  // measure 61
1000
0000
0010
0000
,  // measure 62
0110
0000
0000
0000
,  // measure 63
0000
0000
0001
0001
,  // measure 64
0001
0000
1000
0000
,  // measure 65
0100
0000
0010
0000
,  // measure 66
1001
0000
0000
0000
,  // measure 67
0000
0000
0000
0000
,  // measure 68
0110
0000
0001
0000
,  // measure 69
1000
0000
0010
0000
,  // measure 70
1000
1000
1000
1000
,  // measure 71
1000
0000
0001
0000
,  // measure 72
0010
0000
0100
0000
;
