#VERSION:0.83;
#TITLE:Flip Flap;
#SUBTITLE:;
#ARTIST:kors k;
#TITLETRANSLIT:;
#SUBTITLETRANSLIT:;
#ARTISTTRANSLIT:;
#GENRE:;
#ORIGIN:;
#CREDIT:;
#BANNER:Flip Flap-bn.png;
#BACKGROUND:Flip Flap-bg.png;
#PREVIEWVID:;
#JACKET:Flip Flap-jacket.png;
#CDIMAGE:;
#DISCIMAGE:;
#LYRICSPATH:;
#CDTITLE:;
#MUSIC:Flip Flap.ogg;
#OFFSET:0.000000;
#SAMPLESTART:23.315001;
#SAMPLELENGTH:20.000000;
#SELECTABLE:YES;
#DISPLAYBPM:175.000000;
#BPMS:0.000=175.000;
#STOPS:;
#DELAYS:;
#WARPS:;
#TIMESIGNATURES:0.000=4=4;
#TICKCOUNTS:0.000=4;
#COMBOS:0.000=1;
#SPEEDS:0.000=1.000=0.000=0;
#SCROLLS:0.000=1.000;
#FAKES:;
#LABELS:0.000=Song Start;
#BGCHANGES:;
#KEYSOUNDS:;
#ATTACKS:
;

//---------------dance-single - ----------------
#NOTEDATA:;
#CHARTNAME:;
#STEPSTYPE:dance-single;
#DESCRIPTION:;
#CHARTSTYLE:;
#DIFFICULTY:Beginner;
#METER:3;
#RADARVALUES:0.122975,0.253637,0.035136,0.017568,0.000000,98.000000,94.000000,4.000000,2.000000,0.000000,0.000000,0.000000,0.000000,0.000000,0.122975,0.253637,0.035136,0.017568,0.000000,98.000000,94.000000,4.000000,2.000000,0.000000,0.000000,0.000000,0.000000,0.000000;
#CREDIT:;
#NOTES:
0000
0000
0000
0000
,
0000
0000
0000
0000
,
0000
0000
0000
0000
,
0000
0000
0000
0000
,
0000
0000
0000
0000
,
0000
0000
0000
0000
,
0000
0000
0000
0000
,
0000
0000
0000
0000
,
0000
0000
0000
0000
,
0001
0000
0000
0000
,
0001
0000
0000
0000
,
1000
0000
0000
0000
,
1000
0000
0000
0000
,
0001
0000
0001
0000
,
1000
0000
1000
0000
,
0001
0000
0001
0000
,
1001
0000
0000
0000
,
0001
0000
0001
0000
,
0001
0000
0000
0000
,
1000
0000
1000
0000
,
1000
0000
0000
0000
,
0010
0000
0010
0000
,
0010
0000
0000
0000
,
0100
0000
0100
0000
,
0100
0000
0000
0000
,
0001
0000
0000
0000
,
1000
0000
0000
0000
,
0010
0000
0010
0000
,
0010
0000
0000
0000
,
1000
0000
0000
0000
,
0001
0000
0000
0000
,
0100
0000
0100
0000
,
0100
0000
0000
0000
,
0001
0000
0000
0000
,
1000
0000
0000
0000
,
0010
0000
0000
0000
,
0100
0000
0000
0000
,
0001
0000
0000
0000
,
0010
0000
0000
0000
,
0100
0000
0000
0000
,
1000
0000
1000
0000
,
0001
0000
0000
0000
,
0100
0000
0000
0000
,
0001
0000
0000
0000
,
1000
0000
0000
0000
,
0010
0000
0000
0000
,
1000
0000
0000
0000
,
0001
0000
0000
0000
,
0100
0000
0010
0000
,
1001
0000
0000
0000
,
0000
0000
0000
0000
,
0000
0000
0000
0000
,
0000
0000
0000
0000
,
0001
0000
0000
0000
,
0001
0000
0000
0000
,
1000
0000
0000
0000
,
1000
0000
0000
0000
,
0010
0000
0010
0000
,
0010
0000
0000
0000
,
0100
0000
0100
0000
,
0100
0000
0000
0000
,
0001
0001
0001
0000
,
1000
1000
1000
0000
,
0001
0000
1000
0000
,
1001
0000
0000
0000
,
1000
0000
0001
0000
,
0001
0000
0000
0000
,
0100
0000
0010
0000
,
0010
0000
0000
0000
,
1000
0000
0001
0000
,
0001
0000
0000
0000
,
0100
0000
0010
0000
,
0010
0000
0000
0000
,
1000
0000
0000
0000
,
0001
0000
0000
0000
,
0100
0000
0100
0000
,
0010
0000
0000
0000
,
1000
0000
0000
0000
,
0001
0000
0000
0000
,
1000
0000
0010
0000
,
0100
0000
0000
0000
,
2002
0000
0000
0000
,
0000
0000
3003
0000
,
0000
0000
0000
0000
;

//---------------dance-single - ----------------
#NOTEDATA:;
#CHARTNAME:;
#STEPSTYPE:dance-single;
#DESCRIPTION:;
#CHARTSTYLE:;
#DIFFICULTY:Easy;
#METER:6;
#RADARVALUES:0.371436,0.579741,0.606093,0.105407,0.000000,296.000000,227.000000,69.000000,12.000000,0.000000,0.000000,0.000000,0.000000,0.000000,0.371436,0.579741,0.606093,0.105407,0.000000,296.000000,227.000000,69.000000,12.000000,0.000000,0.000000,0.000000,0.000000,0.000000;
#CREDIT:;
#NOTES:
0000
0000
0000
0000
,
0000
0000
0000
0000
,
0000
0000
0000
0000
,
0000
0000
0000
0000
,
0000
0000
0000
0000
,
0000
0000
0000
0000
,
0000
0000
0000
0000
,
0000
0000
0000
0000
,
0000
0000
0000
0000
,
0001
0000
0100
0000
,
0001
0000
1000
0000
,
0010
0000
1000
0000
,
0001
0000
0100
0000
,
0001
0001
1000
1000
,
0010
0010
0100
0100
,
0001
1000
0001
1000
,
2002
0000
0000
3003
,
0001
0100
0001
0010
,
0100
1000
1000
0000
,
0010
0110
0001
1000
,
0100
0010
0001
0001
,
1000
0100
1000
0010
,
0100
0001
0001
0000
,
0100
0110
0001
0010
,
0100
1000
1000
0000
,
0010
0110
1000
1001
,
0010
0110
1000
1001
,
0001
0100
0001
0100
,
0010
1000
0001
0000
,
0100
0110
0001
1001
,
0100
0110
0001
1001
,
1000
0010
1000
0010
,
0100
0001
2000
3000
,
0001
0101
1000
1100
,
0001
0101
1000
1100
,
0001
0100
0010
0100
,
0001
1000
0100
1000
,
0001
0011
1000
1010
,
0001
0011
1000
1010
,
0001
0010
0100
0010
,
0001
1000
0010
0100
,
0000
1001
0000
0101
,
0000
1100
0000
0110
,
0000
1010
0000
0011
,
0000
0110
0000
1001
,
0000
0101
0000
0011
,
0000
1010
0000
1100
,
0000
0101
0000
0110
,
0000
1001
0100
0010
,
1001
0000
0000
0000
,
0000
0000
0000
0000
,
0000
0000
0000
0000
,
0000
0000
0000
0000
,
0001
0001
1000
1000
,
0100
1000
0010
0010
,
1000
1000
0001
0001
,
0100
0001
0010
0010
,
2100
3001
1000
0010
,
0100
0001
0001
0000
,
0010
0011
1000
0010
,
0100
0001
0001
0000
,
0110
1001
0220
0330
,
1001
0110
2002
3003
,
0110
1001
0110
1001
,
0220
0000
0000
0330
,
0001
1001
1000
0010
,
0100
0101
1001
0000
,
0100
0110
0001
1000
,
0100
1000
0010
0010
,
1000
1001
0001
0010
,
0100
1100
1001
0000
,
0010
0110
1000
0001
,
0100
0001
0010
0000
,
0011
0110
1100
0000
,
1100
0110
0011
0000
,
1000
0010
0100
0001
,
0001
1000
0010
0000
,
1100
0110
0011
0000
,
0011
0110
1100
0000
,
0001
0100
0010
0100
,
0001
1000
0100
0000
,
2002
0000
0000
0000
,
0000
0000
3003
0000
,
0000
0000
0000
0000
;

//---------------dance-single - ----------------
#NOTEDATA:;
#CHARTNAME:;
#STEPSTYPE:dance-single;
#DESCRIPTION:;
#CHARTSTYLE:;
#DIFFICULTY:Medium;
#METER:8;
#RADARVALUES:0.431668,0.652208,0.808123,0.535821,0.035136,344.000000,252.000000,92.000000,61.000000,0.000000,0.000000,0.000000,0.000000,0.000000,0.431668,0.652208,0.808123,0.535821,0.035136,344.000000,252.000000,92.000000,61.000000,0.000000,0.000000,0.000000,0.000000,0.000000;
#CREDIT:;
#NOTES:
0000
0000
0000
0000
,
0000
0000
0000
0000
,
0000
0000
0000
0000
,
0000
0000
0000
0000
,
0000
0000
0000
0000
,
0000
0000
0000
0000
,
0000
0000
0000
0000
,
0000
0000
0000
0000
,
0000
0000
0000
0000
,
2000
0010
0000
0010
,
3002
0010
0000
0010
,
2003
0010
0000
0010
,
3002
0010
0000
0013
,
1000
1100
0001
0101
,
1000
1100
0001
0101
,
1000
0000
0001
1000
0000
0001
1000
0000
0001
1000
0000
0001
,
0200
0000
0000
0300
,
0110
1001
0001
0100
,
0010
1010
1001
0000
,
1000
1100
0001
0101
,
1000
0010
0100
0000
,
0110
1001
1000
0010
,
0100
0101
1001
0000
,
0001
0101
1000
1100
,
0001
0010
0100
0000
,
2100
3010
0102
0013
,
2100
3010
0102
0013
,
1000
0100
0001
0100
,
1000
0010
0100
0000
,
0102
0013
2100
3010
,
0102
0013
2100
3010
,
0001
0100
1000
0100
,
0001
0010
0200
0300
,
2100
3001
0102
1003
,
2100
3001
0102
1003
,
2010
3001
0012
1003
,
2010
3001
0012
1003
,
1200
0310
2100
3010
,
1200
0310
2100
3010
,
0201
0310
0102
0013
,
0002
0023
0230
2300
,
3000
1001
0210
0310
,
0120
0130
2001
3001
,
1002
1003
0021
0031
,
0012
0013
1001
0000
,
0101
0101
1001
1001
,
1100
1001
0101
1001
,
1010
1010
1001
1001
,
0100
0010
0201
1300
,
0120
0000
0000
0000
,
0000
0000
0000
0000
,
0030
0000
0000
0000
,
0000
0000
0000
0000
,
0002
1000
0100
1000
,
0010
1000
0010
1000
,
0100
1000
0100
1000
,
0010
1003
0000
0000
,
0110
1001
0001
0010
,
0100
1100
1001
0000
,
0101
0011
1000
0010
,
0100
0100
0001
0000
,
1010
0110
0202
0303
,
0011
0110
2200
3300
,
0002
0103
2000
3100
,
2002
0000
3000
0003
,
0101
1010
0001
0010
,
0100
1100
1010
0000
,
0100
1001
0002
0100
,
1000
0013
0100
0000
,
1100
0011
1000
0010
,
0100
0101
0011
0000
,
0100
1001
2000
0100
,
0001
3010
0100
0000
,
0102
0013
2100
3010
,
0102
0013
2100
3010
,
1000
0000
0000
0001
0000
1000
0100
0000
1000
0100
0000
0000
,
0010
0001
1000
0000
,
2010
3100
0012
0103
,
2010
3100
0012
0103
,
0001
0000
0000
1000
0000
0001
0100
0000
0001
0100
0000
0000
,
0001
0010
0100
0000
,
2002
0000
0000
0000
,
0000
0000
3003
0000
,
0000
0000
0000
0000
;

//---------------dance-single - ----------------
#NOTEDATA:;
#CHARTNAME:;
#STEPSTYPE:dance-single;
#DESCRIPTION:;
#CHARTSTYLE:;
#DIFFICULTY:Hard;
#METER:14;
#RADARVALUES:0.655032,0.869611,0.772988,0.263518,0.658796,522.000000,434.000000,88.000000,30.000000,0.000000,0.000000,0.000000,0.000000,0.000000,0.655032,0.869611,0.772988,0.263518,0.658796,522.000000,434.000000,88.000000,30.000000,0.000000,0.000000,0.000000,0.000000,0.000000;
#CREDIT:;
#NOTES:
0000
0000
0000
0000
,
0000
0000
0000
0000
,
0000
0000
0000
0000
,
0000
0000
0000
0000
,
0000
0000
0000
0000
,
0000
0000
0000
0000
,
0000
0000
0000
0000
,
0000
0000
0000
0000
,
0000
0000
0000
0000
,
0002
0000
0000
2003
0000
0000
3010
0000
0100
0000
0000
0000
,
0001
0000
0000
1000
0000
0001
0200
0000
0000
0320
0000
0000
,
2030
0000
0000
3002
0000
0000
0013
0000
0100
0000
0000
0000
,
1000
0000
0001
0010
0000
0001
1000
0000
0000
0100
0000
1000
,
0001
0101
1000
1100
,
0001
0101
1000
1100
,
0001
0000
0100
0001
0000
1000
0100
0000
1000
0001
0000
0000
,
1010
0101
0011
1001
,
1100
0000
0000
0101
0000
0000
1000
0100
0010
0100
0000
1000
,
0002
0000
0000
0100
0000
0000
0103
0000
0000
0001
0000
1000
,
0100
0000
0000
0010
0000
0001
1000
0001
1000
0001
0000
0010
,
0100
0000
0100
1000
0000
1000
0001
0000
0000
0100
0000
0000
,
0101
0000
0000
1100
0000
0000
0001
0100
0010
0100
0000
0001
,
2000
0000
0000
0010
0000
0000
3010
0000
0000
1000
0000
0001
,
0100
0000
0000
0010
0000
1000
0001
1000
0001
1000
0000
0010
,
0100
0000
0000
0001
0000
0010
0100
0000
0000
1001
0000
0000
,
1000
0000
0001
0100
0001
0100
0010
0000
0000
1001
0000
0000
,
0001
0000
1000
0100
1000
0100
0010
0000
0000
1001
0000
0000
,
1000
0000
0000
0001
0000
1000
0100
0010
0100
1000
0000
0001
,
0100
0000
0010
1000
0000
0001
0010
0000
0001
1000
0000
0000
,
1001
0000
0001
0100
0001
0010
0001
0000
0000
0110
0000
0000
,
1001
0000
1000
0100
1000
0010
1000
0000
0000
0110
0000
0000
,
1001
0000
0000
1000
0000
0001
0010
0100
0010
0001
0000
1000
,
0020
0230
0302
0003
,
0101
0011
0101
0011
,
1100
1010
1100
1010
,
0101
0011
0101
1100
,
1010
1100
1001
0110
,
0101
0101
1100
1100
,
0101
1100
0101
1100
,
1010
1010
0011
1010
,
0002
0023
0230
2300
,
3000
1001
0110
1001
,
0011
0011
1100
0011
,
1010
1010
0101
1010
,
1001
1001
0110
1001
,
0102
1003
2100
3001
,
0102
1003
2100
3001
,
0001
0100
0001
1000
0100
1000
0001
0100
0001
1000
0100
1000
,
0020
0230
0001
1300
,
0102
1000
0100
1000
,
0010
0010
1000
1003
,
2100
0001
0010
0001
,
0100
0100
0001
3001
,
0001
0000
0001
1000
0000
1000
0001
0000
0001
0100
0000
0100
,
0001
0000
0001
0010
0000
0010
0100
0000
0100
1000
0000
1000
,
0010
0000
0010
1000
0000
1000
0001
0000
0001
0100
0000
0100
,
0001
0000
0001
0010
0000
0010
0100
0000
0100
1000
0000
0000
,
0010
0000
0000
0110
0000
0000
1000
0001
1000
0001
0000
0010
,
0100
0000
0000
1000
0000
0000
0001
0000
0000
0100
0000
0001
,
1000
0000
0000
0010
0000
1000
0001
1000
0001
1000
0000
0100
,
0010
0000
0010
0001
0000
0001
0100
0000
0000
0010
0000
0000
,
1010
0000
0000
1001
0000
0000
0001
0010
0100
1000
0000
0000
,
0011
0000
0000
1001
0000
0000
1000
0010
0100
0001
0000
0000
,
2000
0100
0000
3002
0100
0000
2003
0100
0000
3002
0100
0000
,
1003
1100
0011
1001
,
1010
0000
0000
0101
0000
0000
1000
0100
0010
0001
0000
1000
,
0001
0000
0000
0101
0000
0000
0011
0000
0000
1000
0000
0001
,
0100
0000
0000
0010
0000
1000
0100
1000
0001
0100
0000
0010
,
1000
0000
1000
0001
0000
0001
0010
0000
0000
0001
0000
0000
,
0011
0000
0000
1100
0000
0000
0001
0100
0010
1000
0000
0001
,
1000
0000
0000
1100
0000
0000
1010
0000
0000
0001
0000
1000
,
0100
0000
0000
0010
0000
0001
0100
0001
1000
0100
0000
0010
,
0001
0000
0000
1001
0000
1000
0010
0000
0000
0110
0000
0000
,
1000
0000
0001
0100
0001
0010
0001
0000
1000
0100
1000
0010
,
1000
0000
0001
0100
0001
0010
0001
0000
1000
0100
1000
0010
,
1000
0000
0000
0001
0000
0010
0100
1000
0001
0100
0000
0001
,
1000
0000
0001
0010
0000
0100
1000
0000
0000
0010
0000
0000
,
0100
0000
0001
1000
0100
1000
0001
0100
0001
1000
0100
1000
,
0001
0100
0001
1000
0100
1000
0001
0100
0001
0010
0100
1000
,
0001
0000
0000
0100
0000
0010
1000
0001
1000
0001
0000
0010
,
0001
0000
0100
0010
0000
1000
0200
0000
0000
0300
0000
0000
,
2002
0000
0000
0000
,
0000
0000
3003
0000
,
0000
0000
0000
0000
;

//---------------dance-double - ----------------
#NOTEDATA:;
#CHARTNAME:;
#STEPSTYPE:dance-double;
#DESCRIPTION:;
#CHARTSTYLE:;
#DIFFICULTY:Easy;
#METER:6;
#RADARVALUES:0.368926,0.579741,0.606093,0.052704,0.000000,294.000000,225.000000,69.000000,6.000000,0.000000,0.000000,0.000000,0.000000,0.000000,0.368926,0.579741,0.606093,0.052704,0.000000,294.000000,225.000000,69.000000,6.000000,0.000000,0.000000,0.000000,0.000000,0.000000;
#CREDIT:;
#NOTES:
00000000
00000000
00000000
00000000
,
00000000
00000000
00000000
00000000
,
00000000
00000000
00000000
00000000
,
00000000
00000000
00000000
00000000
,
00000000
00000000
00000000
00000000
,
00000000
00000000
00000000
00000000
,
00000000
00000000
00000000
00000000
,
00000000
00000000
00000000
00000000
,
00000000
00000000
00000000
00000000
,
00001000
00000000
00010000
00000000
,
00000100
00000000
00010000
00000000
,
00001000
00000000
00100000
00000000
,
00001000
00000000
00010000
00000000
,
00000100
00000100
00001000
00001000
,
00000010
00000010
00000100
00000100
,
00000001
00000001
00000010
00000010
,
00002002
00000000
00000000
00003003
,
00000001
00000100
00000010
00001000
,
00000100
00010000
00001000
00000000
,
01000000
01100000
00010000
00010000
,
10000000
01000000
01000000
00000000
,
10000000
00100000
01000000
00010000
,
00100000
00001000
00010000
00000000
,
00000010
00000110
00001000
00001000
,
00000001
00000010
00000100
00000000
,
00010000
00011000
00100000
00110000
,
00001000
00011000
00100000
00110000
,
00001000
00100000
01000000
10000000
,
10000000
00100000
01000000
00000000
,
00001000
00011000
00000010
00001010
,
00010000
00011000
00000010
00001010
,
00010000
00000010
00000100
00000001
,
00000001
00000010
00000100
00000000
,
00001000
00001100
00000001
00000101
,
00001000
00001100
00000001
00000101
,
00001000
00000100
00010000
00001000
,
00001000
01000000
00010000
00100000
,
00010000
01010000
10000000
11000000
,
00010000
01010000
10000000
11000000
,
00010000
01000000
00001000
00010000
,
00000100
00001000
00000010
00000100
,
00000000
00000101
00000000
00001100
,
00000000
00011000
00000000
00110000
,
00000000
10100000
00000000
11000000
,
00000000
01010000
00000000
00011000
,
00000000
00001010
00000000
00000011
,
00000000
00000110
00000000
00001001
,
00000000
00011000
00000000
10010000
,
00000000
01100000
00001000
00010000
,
00011000
00000000
00000000
00000000
,
00000000
00000000
00000000
00000000
,
00000000
00000000
00000000
00000000
,
00000000
00000000
00000000
00000000
,
00001000
00001000
00010000
00010000
,
00000100
00001000
00000010
00010000
,
00001000
00001000
00010000
00010000
,
00001000
01000000
00010000
00100000
,
00001000
00010000
00000100
00001000
,
00000010
00000100
00000001
00000000
,
00000001
00000100
00001000
00010000
,
00001000
00100000
00010000
00000000
,
00110000
00110000
00101000
00000000
,
00001010
00001010
00010010
00000000
,
00011000
00011000
00011000
00011000
,
00022000
00000000
00000000
00033000
,
00010000
01000000
10000000
00100000
,
01000000
01010000
10010000
00000000
,
00100000
01100000
00001000
00010000
,
00000100
00010000
00001000
00000000
,
00001000
00000100
00000001
00000010
,
00000100
00001100
00001001
00000000
,
00000010
00000110
00010000
00001000
,
01000000
00010000
00100000
00000000
,
00011000
00101000
00011000
00000000
,
00011000
00010010
00011000
00000000
,
00100000
00110000
10000000
11000000
,
00010000
01000000
00001000
00000000
,
00011000
01001000
00011000
00000000
,
00011000
00010100
00011000
00000000
,
00000100
00001100
00000001
00000011
,
00001000
00000100
00010000
00000000
,
00022000
00000000
00000000
00000000
,
00000000
00000000
00033000
00000000
,
00000000
00000000
00000000
00000000
;

//---------------dance-double - ----------------
#NOTEDATA:;
#CHARTNAME:;
#STEPSTYPE:dance-double;
#DESCRIPTION:;
#CHARTSTYLE:;
#DIFFICULTY:Medium;
#METER:8;
#RADARVALUES:0.424139,0.579741,0.737852,0.175679,0.035136,338.000000,254.000000,84.000000,20.000000,0.000000,0.000000,0.000000,0.000000,0.000000,0.424139,0.579741,0.737852,0.175679,0.035136,338.000000,254.000000,84.000000,20.000000,0.000000,0.000000,0.000000,0.000000,0.000000;
#CREDIT:;
#NOTES:
00000000
00000000
00000000
00000000
,
00000000
00000000
00000000
00000000
,
00000000
00000000
00000000
00000000
,
00000000
00000000
00000000
00000000
,
00000000
00000000
00000000
00000000
,
00000000
00000000
00000000
00000000
,
00000000
00000000
00000000
00000000
,
00000000
00000000
00000000
00000000
,
00000000
00000000
00000000
00000000
,
00002000
00100000
00000000
00100000
,
00023000
00000010
00000000
00000010
,
00032000
00100000
00000000
00100000
,
00023000
00000010
00000000
00030010
,
00010000
00011000
00000010
00001010
,
00010000
00011000
00100000
00110000
,
00001000
00000000
00010000
00001000
00000000
00010000
00001000
00000000
00010000
00001000
00000000
00010000
,
00002000
00000000
00000000
00003000
,
00011000
00011000
00001000
00000010
,
00000001
00000101
00001001
00000000
,
00001000
00001100
00000001
00000101
,
00001000
00000100
00010000
00000000
,
00011000
00011000
00010000
00100000
,
10000000
11000000
10010000
00000000
,
00010000
01010000
10000000
11000000
,
00010000
01000000
00001000
00000000
,
00010000
00011000
00000100
00001100
,
00000010
00001010
00010000
00011000
,
00001000
00000010
00000001
00000001
,
00000100
00001000
00011000
00000000
,
00001000
00011000
00100000
00110000
,
01000000
01010000
00001000
00011000
,
00010000
01000000
10000000
10000000
,
00100000
00010000
00011000
00000000
,
00001000
00010000
00000010
00001010
,
00010000
00001000
00100000
00110000
,
00001000
00010000
00000100
00001100
,
00010000
00001000
01000000
01010000
,
00001000
00010000
00000010
00001010
,
00010000
00001000
00100000
00110000
,
00001000
00010000
00000100
00001100
,
00020000
00032000
00003200
00000320
,
00000030
00001010
00010000
00001010
,
00000001
00001010
00010000
00001010
,
00000001
00001100
00010000
00001100
,
00000001
00001100
00010000
00001000
,
00011000
00011000
00010100
00010100
,
00011000
00011000
01001000
00000000
,
00011000
00011000
00101000
00101000
,
00010000
00001000
00002100
00103000
,
00012000
00000000
00000000
00000000
,
00000000
00000000
00000000
00000000
,
00003000
00000000
00000000
00000000
,
00000000
00000000
00000000
00000000
,
00020000
00000100
00001000
00000100
,
00001000
00000010
00001000
00000010
,
00001000
00000100
00001000
00000100
,
00001000
00030010
00000000
00000000
,
00011000
00011000
01000000
00010000
,
00100000
00110000
00110000
00000000
,
00001000
00010000
00000010
00001010
,
00010000
00001000
00010000
00000000
,
00011000
00110000
02200000
03300000
,
00011000
00001100
00000220
00000330
,
00010000
00010000
00001000
00001000
,
00022000
00000000
00030000
00003000
,
00011000
01001000
01000000
00010000
,
00100000
00110000
10010000
00000000
,
00010000
01010000
00001000
00000010
,
00000001
00000001
00000100
00001000
,
00011000
00010100
00000100
00001000
,
00000010
00001010
00001001
00000000
,
00001000
00001100
00010000
00100000
,
10000000
10000000
01000000
00010000
,
00001000
00011000
00000100
00001100
,
00000010
00000110
00010000
00011000
,
00000010
00000000
00000000
00001000
00000000
00000001
00000100
00000000
00000001
00000100
00000000
00000000
,
00000010
00010000
00001000
00000000
,
00010000
00011000
00100000
00110000
,
01000000
01100000
00001000
00011000
,
00100000
00000000
00000000
00010000
00000000
10000000
01000000
00000000
10000000
01000000
00000000
00000000
,
00100000
00001000
00010000
00000000
,
00022000
00000000
00000000
00000000
,
00000000
00000000
00033000
00000000
,
00000000
00000000
00000000
00000000
;

//---------------dance-double - ----------------
#NOTEDATA:;
#CHARTNAME:;
#STEPSTYPE:dance-double;
#DESCRIPTION:;
#CHARTSTYLE:;
#DIFFICULTY:Hard;
#METER:14;
#RADARVALUES:0.614876,0.688442,0.878395,0.166895,0.522645,490.000000,390.000000,100.000000,19.000000,0.000000,0.000000,0.000000,0.000000,0.000000,0.614876,0.688442,0.878395,0.166895,0.522645,490.000000,390.000000,100.000000,19.000000,0.000000,0.000000,0.000000,0.000000,0.000000;
#CREDIT:;
#NOTES:
00000000
00000000
00000000
00000000
,
00000000
00000000
00000000
00000000
,
00000000
00000000
00000000
00000000
,
00000000
00000000
00000000
00000000
,
00000000
00000000
00000000
00000000
,
00000000
00000000
00000000
00000000
,
00000000
00000000
00000000
00000000
,
00000000
00000000
00000000
00000000
,
00000000
00000000
00000000
00000000
,
00020000
00000000
00000000
00030200
00000000
00000000
00001300
00000000
00000010
00010000
00000000
00000000
,
00002000
00000000
00000000
00013000
00000000
00000010
00002000
00000000
00000000
00003100
00000000
00010000
,
00002000
00000000
00000000
00013000
00000000
00000000
00000100
00000000
00001000
00000010
00000000
00000000
,
00000100
00000000
00000100
00000001
00000000
00000001
00002000
00000000
00000000
00003100
00000000
00010000
,
00001000
00011000
00100000
00110000
,
00001000
00011000
01000000
01010000
,
10000000
00000000
01000000
00100000
00000000
00001000
00010000
00000000
00000100
00000010
00000000
00000001
,
00001000
00001100
00000001
00000101
,
00001001
00000000
00000000
00011000
00000000
00000000
00010000
00000000
00100000
10000000
00000000
00010000
,
00100000
00000000
00000000
00001000
00000000
00000000
00011000
00000000
00000000
00010000
00000000
00000100
,
00000010
00000000
00000000
00000011
00000000
00000001
00001000
00000001
00001000
00000001
00000000
00000100
,
00000010
00000000
00010000
00001000
00000000
00100000
00010000
00000000
00000000
10000000
00000000
00000000
,
10010000
00000000
00000000
00011000
00000000
00000000
00001000
00000000
00000010
00000001
00000000
00001000
,
00000010
00000000
00000000
00010000
00000000
00000000
00011000
00000000
00000000
00001000
00000000
01000000
,
00100000
00000000
00000000
10100000
00000000
10000000
00010000
10000000
00010000
10000000
00000000
01000000
,
00100000
00000000
00001000
00010000
00000000
00000010
00001000
00000000
00000000
00001001
00000000
00000000
,
00000001
00000000
00001000
00000100
00001000
00000100
00010000
00000000
00000000
00001000
00000000
00000000
,
00100000
00000000
00010000
00100000
00010000
00100000
00001000
00000000
00000000
00011000
00000000
00000000
,
00010000
00000000
00100000
10000000
00000000
10000000
01000000
00000000
00010000
00001000
00000000
00000010
,
00000001
00000000
00000001
00000100
00000000
00001000
00010000
00000000
00000000
00011000
00000000
00000000
,
00001000
00000000
01000000
00010000
01000000
00010000
00100000
00000000
00000000
00001000
00000000
00000000
,
00010000
00000000
00000100
00001000
00000100
00001000
00000010
00000000
00000000
00010000
00000000
00000000
,
00001000
00000000
00000010
00000001
00000000
00000001
00000100
00000000
00001000
00010000
00000000
00100000
,
10000000
00000000
10000000
01000000
00000000
00010000
00002000
00000000
00000000
00003000
00000000
00000000
,
00011000
01001000
10010000
00101000
,
00011000
01001000
10010000
00101000
,
00011000
00010100
00001001
00010010
,
00011000
00010100
00001001
00010010
,
00011000
00010100
00000011
00010100
,
00011000
01001000
10100000
01001000
,
00011000
00010100
00000101
00010100
,
00011000
01001000
11000000
01001000
,
00011000
00001001
00000110
00001001
,
00011000
10010000
01100000
10010000
,
00011000
00000110
00001001
00000110
,
00011000
01100000
10010000
01100000
,
00011000
00001001
00000011
00001001
,
00011000
10010000
10100000
10010000
,
00011000
00001001
00011000
10010000
,
00011000
00020000
01000000
00030010
,
00011000
00000000
00000000
00000000
,
00000000
00000000
00000000
00000000
,
00000000
00000000
00000000
00000000
,
00000000
00000000
00000000
00000000
,
00010200
00000000
00000000
00000001
00000000
00000000
00001000
00000000
00000000
00010300
00000000
00001000
,
02000000
00000000
00000000
10000000
00000000
00000000
00010000
00000000
00000000
03001000
00000000
00010000
,
00000200
00000000
00000000
00000001
00000000
00000000
00001000
00000000
00000000
00010300
00000000
00001000
,
02000000
10000000
00010000
03001000
,
00011000
00000000
00000000
00010100
00000000
00000000
00000100
00001000
00000100
00001000
00000000
00000001
,
00000100
00000000
00000000
00000010
00000000
00000000
00000100
00000000
00000000
00000001
00000000
00001000
,
00000100
00000000
00000000
00010000
00000000
00001000
00010000
00001000
00010000
00001000
00000000
01000000
,
00000000
00000000
00010000
00100000
00000000
01000000
10000000
00000000
00000000
10000000
00000000
00000000
,
00010000
00000000
00000000
10010000
00000000
00000000
10000000
00100000
01000000
00010000
00000000
00000000
,
00001000
00000000
00000000
00001001
00000000
00000000
00000001
00000010
00000100
00001000
00000000
00000000
,
00000020
00001000
00000000
00020030
00001000
00000000
00030200
00001000
00000000
00020300
00001000
00000000
,
00030010
00001010
00000101
00001001
,
00000110
00000000
00000000
00001001
00000000
00000000
00011000
00000000
00010000
00100000
00000000
10000000
,
01000000
00000000
00000000
00110000
00000000
00000000
11000000
00000000
00000000
00100000
00000000
00001000
,
00010000
00000000
00000000
00000100
00000000
00001000
00000010
00001000
00000010
00010000
00000000
00001000
,
00010000
00000000
00100000
10000000
00000000
10000000
01000000
00000000
00000000
00110000
00000000
00000000
,
01100000
00000000
00000000
10010000
00000000
00000000
00011000
00000000
00001000
00000010
00000000
00000001
,
00000100
00000000
00000000
00001000
00000000
00000000
00011000
00000000
00000000
00010000
00000000
00000100
,
00000010
00000000
00000000
00000001
00000000
00001000
00000001
00001000
00000001
00000010
00000000
00001000
,
00010000
00000000
00001000
01000000
00000000
00100000
10000000
00000000
00000000
11000000
00000000
00000000
,
01000000
00000000
00100000
00001000
00010000
00001000
01000000
00000000
00000000
00001000
00000000
00000000
,
00010000
00000000
00000010
00010000
00001000
00010000
00000100
00000000
00000000
00000010
00000000
00000000
,
00000001
00000000
00000100
00001000
00000000
00010000
00100000
00000000
10000000
01000000
00000000
00010000
,
00001000
00000000
00000010
00000001
00000000
00000100
00001000
00000000
00000000
00011000
00000000
00000000
,
00010000
00000000
00000010
00010000
00001000
00010000
00000100
00000000
00000000
00010000
00000000
00000000
,
00001000
00000000
00100000
00001000
00010000
00001000
01000000
00000000
00000000
00010000
00000000
00000000
,
10000000
00100000
01000000
00010000
00100000
00001000
00010000
00001000
00010000
00000100
00000000
00000010
,
00000001
00000000
00000001
00000100
00000000
00001000
00020000
00000000
00000000
00030000
00000000
00000000
,
00022000
00000000
00000000
00000000
,
00000000
00000000
00033000
00000000
,
00000000
00000000
00000000
00000000
;

//---------------dance-single - ----------------
#NOTEDATA:;
#CHARTNAME:;
#STEPSTYPE:dance-single;
#DESCRIPTION:;
#CHARTSTYLE:;
#DIFFICULTY:Challenge;
#METER:15;
#RADARVALUES:0.720284,0.782650,0.518253,0.017568,1.045290,574.000000,515.000000,59.000000,2.000000,0.000000,0.000000,0.000000,0.000000,0.000000,0.720284,0.782650,0.518253,0.017568,1.045290,574.000000,515.000000,59.000000,2.000000,0.000000,0.000000,0.000000,0.000000,0.000000;
#CREDIT:;
#DISPLAYBPM:175.000000;
#NOTES:
// measure 0
0000
0000
0000
0000
,  // measure 1
0000
0000
0000
0000
,  // measure 2
0000
0000
0000
0000
,  // measure 3
0000
0000
0000
0000
,  // measure 4
0000
0000
0000
0000
,  // measure 5
0000
0000
0000
0000
,  // measure 6
0000
0000
0000
0000
,  // measure 7
0000
0000
0000
0000
,  // measure 8
0000
0000
0000
0000
,  // measure 9
1100
0000
0000
0101
0000
0000
1100
0000
0001
0100
0000
0000
,  // measure 10
0010
0000
0010
1000
0000
1000
0001
0000
0000
0100
0000
0100
,  // measure 11
0010
0000
0000
1010
0000
0000
0101
0000
1000
0100
0000
0000
,  // measure 12
1000
0000
1000
0001
0000
0001
0100
0000
0000
0010
0000
1000
,  // measure 13
0100
0000
0000
1001
0000
0000
0110
0000
0001
1000
0000
0000
,  // measure 14
0001
0000
0001
1000
0000
1000
0100
0000
0100
0010
0000
0000
,  // measure 15
0001
0000
0001
1000
0000
1000
0001
0000
0001
0100
0000
0000
,  // measure 16
0101
0000
0000
1100
0000
0000
0101
0000
0000
1000
0000
1000
,  // measure 17
0001
0000
0000
1010
0000
0000
0001
0010
0100
1000
0000
1000
,  // measure 18
0010
0000
0000
0110
0000
0000
1001
0000
0000
0100
0001
1000
,  // measure 19
0100
0000
0000
0011
0000
1000
0001
1000
0100
0010
0000
0010
,  // measure 20
0001
0000
1000
0001
0000
1000
0100
0000
0100
0010
0000
0000
,  // measure 21
0011
0000
0000
1100
0000
0000
1000
0010
0100
0001
0000
0001
,  // measure 22
1000
0000
0000
1100
0000
0000
0101
0000
0000
0010
0100
0001
,  // measure 23
1000
0000
0000
0101
0000
0100
0001
0010
0100
1000
0000
0001
,  // measure 24
0100
0000
0001
1000
0001
0010
0100
0000
1000
0010
0000
0000
,  // measure 25
0110
0000
0000
1000
0100
0010
0001
0000
0000
1001
0000
0100
,  // measure 26
0010
0000
0000
1000
0001
1000
0100
0000
0000
0011
0000
0001
,  // measure 27
1000
0000
0000
0101
0000
0010
1000
0100
0010
0001
0100
0010
,  // measure 28
1000
0000
0001
0010
0000
0010
0100
0000
0100
1000
0000
0000
,  // measure 29
1100
0000
0000
0001
1000
0010
0100
0000
0000
0101
0000
1000
,  // measure 30
0001
0000
0000
0010
0001
0010
0100
0000
1000
0001
0000
1000
,  // measure 31
0100
0000
0000
1001
0000
1000
0010
0100
0001
1000
0100
0010
,  // measure 32
0001
0000
0001
1000
0000
1000
0100
0000
0000
1001
0000
0000
,  // measure 33
1010
0000
0000
0101
0000
1000
0000
0000
0001
0010
0000
0100
,  // measure 34
1000
0000
0010
1000
0100
0010
0001
0000
0001
1000
0010
0100
,  // measure 35
0001
0000
0000
0011
0000
0100
0000
0000
1000
0001
1000
0010
,  // measure 36
0100
0000
0000
0001
0010
0100
0010
0001
1000
0001
0000
0100
,  // measure 37
0010
0000
0000
1010
0000
0100
0000
0000
0001
1000
0100
1000
,  // measure 38
0001
0000
0000
0010
0001
1000
0010
0000
0100
0001
1000
0100
,  // measure 39
0010
0000
0000
1001
0000
0100
0000
0000
0001
1000
0010
0100
,  // measure 40
0001
0000
0000
0010
0000
0001
1000
0000
1000
0100
0000
0100
,  // measure 41
0010
0000
0000
0110
0000
0001
0000
0000
1000
0001
0100
0010
,  // measure 42
1000
0000
0010
1000
0100
0010
0001
0000
0100
0010
0000
0100
,  // measure 43
0001
0000
0000
1010
0000
0100
0000
0000
0010
1000
0100
0010
,  // measure 44
0001
0000
1000
0001
0000
0100
0010
1000
0001
0010
0100
1000
,  // measure 45
0010
0000
0000
1001
0000
0001
0000
0000
0010
0100
1000
0001
,  // measure 46
1000
0000
0010
0100
0001
0010
0100
1000
0001
0100
0000
0000
,  // measure 47
1010
0000
0000
0011
0000
0100
0000
0000
1000
0010
0100
0001
,  // measure 48
1000
0001
1000
0010
0100
0001
0010
0000
0000
1001
0000
0000
,  // measure 49
0100
0000
0000
0100
0000
0000
0100
0000
0001
0000
0000
0000
,  // measure 50
1000
0000
1000
0001
0000
0001
1000
0000
0000
0010
0000
0000
,  // measure 51
0100
0000
0000
0100
0000
0000
0100
0000
0001
0000
0000
0000
,  // measure 52
0010
0000
0010
0100
0000
0100
1000
0000
0000
0001
0000
1000
,  // measure 53
0020
0100
1000
0100
,  // measure 54
0001
0100
1000
0100
,  // measure 55
0001
0001
1000
1000
,  // measure 56
0130
0000
0000
1001
0000
0000
0100
0000
0100
0001
0000
0000
,  // measure 57
0011
0000
0000
1100
0000
0000
0001
1000
0010
0100
0000
0100
,  // measure 58
0001
0000
0000
0101
0000
0000
1100
0000
0000
1000
0000
1000
,  // measure 59
0100
0000
0000
1001
0000
1000
0010
0100
0001
0010
0000
0010
,  // measure 60
0000
0000
0100
1000
0000
0100
1000
0000
0000
0001
0000
0000
,  // measure 61
0110
0000
0000
1001
0000
0000
1000
0100
1000
0001
0100
0001
,  // measure 62
0010
0000
0000
1001
0000
0000
0100
0001
0100
0010
1000
0001
,  // measure 63
1000
0100
1000
0001
0100
0001
1000
0100
1000
0001
0100
0001
,  // measure 64
0010
0000
0000
0010
0000
0000
0010
0000
0000
0001
0000
0001
,  // measure 65
1000
0000
0000
0101
0000
0000
1000
0010
0100
0001
0000
0010
,  // measure 66
0100
0000
0000
1100
0000
0000
0011
0000
0000
0100
0001
0100
,  // measure 67
0010
0000
1000
0001
0000
1000
0100
0010
0001
0100
0000
0010
,  // measure 68
1000
0000
0100
0010
0000
0010
0001
0000
0000
0101
0000
0000
,  // measure 69
1100
0000
0000
1010
0000
0000
0001
1000
0001
0010
0000
0100
,  // measure 70
1000
0000
0000
1001
0000
0000
0011
0000
0000
0100
0001
1000
,  // measure 71
0100
0000
1000
0001
0000
1000
0010
0100
0001
0010
0100
1000
,  // measure 72
0001
0000
0100
0010
0100
0010
1000
0000
0001
0100
0000
0000
,  // measure 73
1001
0000
0000
1000
0100
0010
0001
0000
0100
0010
0000
1000
,  // measure 74
0001
0000
0010
0001
0100
0010
1000
0000
0100
1000
0001
1000
,  // measure 75
0010
0000
0000
0110
0000
0100
0001
1000
0001
0010
0100
1000
,  // measure 76
0001
0000
0010
0001
0000
1000
0001
0000
0100
0010
0000
0000
,  // measure 77
1010
0000
0000
1000
0001
1000
0100
0000
1000
0010
0100
0001
,  // measure 78
0010
0000
0001
1000
0001
0100
0010
0000
1000
0100
1000
0010
,  // measure 79
0100
0000
0001
1000
0000
0001
0010
0001
0100
0010
1000
0100
,  // measure 80
0010
0000
0001
1000
0000
0001
0200
0000
0000
0300
0000
0000
,  // measure 81
1010
0000
0000
0000
;
