#TITLE:Firework;
#SUBTITLE:;
#ARTIST:Katy Perry;
#TITLETRANSLIT:;
#SUBTITLETRANSLIT:;
#ARTISTTRANSLIT:;
#GENRE:;
#CREDIT:;
#BANNER:Firework-bn.png;
#BACKGROUND:Firework-bg.png;
#LYRICSPATH:;
#CDTITLE:;
#MUSIC:Firework.ogg;
#OFFSET:0.000000;
#SAMPLESTART:53.226002;
#SAMPLELENGTH:20.000000;
#SELECTABLE:YES;
#DISPLAYBPM:124.000000;
#BPMS:0.000000=124.000000
;
#STOPS:
;
#BGCHANGES:;
#KEYSOUNDS:;
#ATTACKS:;

//---------------dance-single - ----------------
#NOTES:
     dance-single:
     :
     Hard:
     10:
     0.451414,0.488736,0.195055,0.117033,0.009753,324.000000,304.000000,20.000000,12.000000,0.000000,0.000000,0.451414,0.488736,0.195055,0.117033,0.009753,324.000000,304.000000,20.000000,12.000000,0.000000,0.000000:
0000
0000
0000
0000
,
0000
0000
0000
0000
,
0000
0000
0000
0000
,
0000
0000
0000
0000
,
0010
0000
1000
0001
1000
0100
0010
0000
,
0001
0000
0100
0001
1000
0010
0100
0000
,
0001
0000
0010
0100
0010
0001
1000
0000
,
0001
1000
0001
0100
0010
1000
1000
0000
,
0100
0000
0010
0001
0100
0001
1000
0000
,
0010
0000
1000
0001
0010
0100
1000
0000
,
0010
0000
1000
0010
0100
0001
1000
0000
,
0001
0010
0001
0100
0010
1000
1000
0000
,
1100
0000
0010
0001
0100
0010
1000
0000
,
0001
1000
0010
0100
0010
1000
0001
0000
,
0101
0000
0100
0100
0100
0010
1000
0001
,
1000
0100
1000
0010
0100
0001
0001
0000
,
0011
0000
0100
0001
1000
0001
0010
0000
,
0100
0000
1000
0001
0010
0100
1000
0000
,
0010
0100
0001
1000
0001
0100
0100
0000
,
1010
0000
0001
1000
0100
0010
0001
0200
,
0010
0000
1000
0000
0010
0000
0301
2000
,
0100
0000
0001
0000
0010
0000
3100
0020
,
0001
0000
0100
0000
1000
0000
0031
0200
,
0010
0000
0001
0000
1000
0000
0301
0020
,
1000
0000
0100
0000
1000
0000
0031
0200
,
0010
0000
0001
0000
0310
0100
0001
2000
,
0100
0000
3100
0020
0001
0000
0031
0200
,
0010
0000
0310
0000
0100
0010
1000
0001
,
0021
0000
1000
0000
0001
0000
0130
1000
,
0001
0100
0010
0000
1000
0100
0010
0001
,
0102
0000
0010
0000
1000
0000
0103
0010
,
1000
0100
1000
0000
0001
0010
0100
0000
,
1100
0000
1000
1010
0000
0001
0101
0000
,
0010
1000
0000
1000
0010
0000
0100
0000
0001
0000
0010
0000
0100
0000
1000
0000
,
1010
0000
0100
0101
0000
0010
0110
0000
,
1000
0010
0100
0000
0001
0010
0001
0100
,
0001
0010
1000
0010
0001
0100
0010
1000
,
0100
0010
0001
0000
1000
1000
1000
0001
,
1000
0100
0001
0100
1000
0010
0100
0001
,
0010
0100
1000
0000
0001
0001
0001
0000
,
0011
0000
0100
0110
0000
0010
1010
0000
,
1000
0010
0010
0100
0001
0010
1000
0010
,
0001
0100
0001
1001
0000
1000
0100
0010
,
0001
0100
0001
0010
0001
0100
1000
0000
,
1001
0000
0010
1000
0100
0010
0001
0000
,
0100
0000
0001
0010
0001
0100
0010
1000
,
1100
0000
0010
0001
0100
0010
1000
0000
,
0001
0100
0010
0100
0001
0010
1000
0000
,
0101
0000
0001
1000
0010
0100
0001
0000
,
0010
0000
0100
1000
0001
1000
0010
0100
,
0110
0000
0010
1000
0001
1000
0100
0000
,
1000
0010
0100
0001
1000
0010
0100
0002
,
0000
0000
0000
0003
;

//---------------dance-single - ----------------
#NOTES:
     dance-single:
     :
     Medium:
     8:
     0.342740,0.360121,0.292583,0.136539,0.000000,246.000000,216.000000,30.000000,14.000000,0.000000,0.000000,0.342740,0.360121,0.292583,0.136539,0.000000,246.000000,216.000000,30.000000,14.000000,0.000000,0.000000:
0000
0000
0000
0000
,
0000
0000
0000
0000
,
0000
0000
0000
0000
,
0000
0000
0000
0000
,
0010
0000
1000
0001
1000
0000
0100
0000
,
0010
0000
0001
0100
0001
0000
1000
0000
,
0001
0000
1000
0100
1000
0000
0010
0000
,
0100
0000
0001
1000
0001
1000
0010
0000
,
0100
0000
0010
1000
0010
0000
0100
0000
,
0001
0000
0100
0010
0100
0000
0001
0000
,
1000
0000
0001
0010
0001
0000
0100
0000
,
0010
0000
0100
0001
0100
0001
1000
0000
,
1100
0000
0001
1000
0010
0000
0100
0000
,
0001
0000
0010
0001
0100
0010
1000
0000
,
0101
0000
0100
0010
0100
0000
0001
1000
,
0001
0000
0010
0000
0001
0100
1000
0000
,
1010
0000
0001
1000
0010
0000
0100
0000
,
0001
0000
1000
0001
1000
0100
0010
0000
,
0011
0000
0100
0001
1000
0001
0010
0000
,
0100
0000
1000
0001
1000
0000
0010
0200
,
0000
0000
0000
0000
0000
0000
0301
2000
,
0000
0000
0000
0000
0000
0000
3100
0020
,
0000
0000
0000
0000
0000
0000
0031
0020
,
0000
0000
0000
0000
0000
0000
0130
2000
,
0000
0000
0000
0000
0000
0000
3010
0200
,
0000
0000
0000
0000
0000
0301
1000
0002
,
0000
0000
0000
0023
0000
0000
0130
2000
,
0000
0000
3000
0000
1000
0001
1000
0001
,
0200
0000
0000
0000
0000
0000
0310
1000
,
0001
0000
0010
0000
0001
0100
0010
1000
,
0002
0000
0000
0000
0000
0000
0103
0010
,
1000
0000
0001
0000
1000
0100
0010
0000
,
0011
0000
0000
0101
0000
0000
1010
0000
,
0001
0100
0010
0000
1000
0100
0001
0000
,
1010
0000
0000
0101
0000
0000
1100
0000
,
0001
0000
1000
0000
0001
1000
0010
0100
,
0002
0000
0010
0000
0010
0000
0013
0100
,
1000
0000
1001
0000
1000
0001
0100
0010
,
0200
0000
0001
0000
0001
0000
0301
1000
,
0100
0000
0110
0000
0010
0001
1000
0000
,
1010
0000
0000
0101
0000
0000
0011
0000
,
0000
1000
0010
1000
0100
0010
0001
0000
,
0011
0000
0000
0110
0000
0000
1100
0000
,
0001
0100
0010
0000
1000
0100
0001
0000
,
1001
0000
0000
1010
0000
0000
0101
0000
,
0000
0000
0010
0001
0010
0100
1000
0000
,
1100
0000
0000
1010
0000
0000
0011
0000
,
0100
0010
1000
0000
0001
0000
1000
0000
,
0110
0000
0000
1001
0000
0000
1100
0000
,
0000
0000
1000
0001
1000
0100
0010
0000
,
0011
0000
0000
0110
0000
0000
1100
0000
,
1000
0010
0100
0001
1000
0010
0100
0002
,
0000
0000
0000
0003
;

//---------------dance-single - ----------------
#NOTES:
     dance-single:
     :
     Easy:
     6:
     0.188089,0.231506,0.039011,0.156044,0.000000,135.000000,131.000000,4.000000,16.000000,0.000000,0.000000,0.188089,0.231506,0.039011,0.156044,0.000000,135.000000,131.000000,4.000000,16.000000,0.000000,0.000000:
0000
0000
0000
0000
,
0000
0000
0000
0000
,
0000
0000
0000
0000
,
0000
0000
0000
0000
,
0000
0010
1000
0010
,
0000
0100
0001
0100
,
0000
0001
0010
0001
,
0000
1000
0100
1000
,
0000
0010
0100
0010
,
0000
1000
0001
1000
,
0000
0001
0010
0100
,
0000
1000
0001
0100
,
0000
0010
1000
0001
,
0000
0010
0100
1000
,
0000
0001
0001
1000
,
0001
0100
0010
1000
,
0000
0100
0100
0100
,
0000
0010
0010
0010
,
0000
0001
0001
0001
,
0000
1000
0001
1000
,
0020
0000
0000
0030
,
0200
0000
0000
0300
,
0002
0000
0000
0003
,
2000
0000
0000
3000
,
0002
0000
0000
0003
,
0020
0000
0000
0030
,
0001
0000
1000
0000
,
0010
0000
1000
1000
,
2002
0000
0000
3003
,
0010
0010
1000
0001
,
0220
0000
0000
0330
,
0001
0001
1000
0100
,
1000
0000
0000
0001
0000
0000
0100
0000
,
0000
0010
1000
0100
,
0010
0000
0000
0001
0000
0000
0100
0000
,
0010
0010
1000
0001
,
2002
0000
3000
1003
,
0100
1000
0010
0100
,
0220
0000
0030
0301
,
0100
0010
1000
0001
,
0010
0000
0000
0100
0000
0000
1000
0000
,
0000
0010
0100
0010
,
1000
0000
0000
0001
0000
0000
0020
0000
,
0000
0000
0000
0030
,
0001
0000
0000
0001
0000
0000
0001
0000
,
0000
0100
0010
1000
,
0100
0000
0000
0100
0000
0000
0100
0000
,
1000
1000
0001
0001
,
1000
0000
0000
1000
0000
0000
1000
0000
,
0000
0010
1000
0001
,
0010
0000
0000
0010
0000
0000
0010
0000
,
0100
1000
0100
0010
,
0002
0000
0000
0003
;

//---------------dance-single - ----------------
#NOTES:
     dance-single:
     :
     Beginner:
     2:
     0.107280,0.150680,0.039011,0.000000,0.000000,77.000000,73.000000,4.000000,0.000000,0.000000,0.000000,0.107280,0.150680,0.039011,0.000000,0.000000,77.000000,73.000000,4.000000,0.000000,0.000000,0.000000:
// measure 0
0000
0000
0000
0000
,  // measure 1
0000
0000
0000
0000
,  // measure 2
0000
0000
0000
0000
,  // measure 3
0000
0000
0000
0000
,  // measure 4
0000
0000
0010
0010
,  // measure 5
0000
0000
0100
0100
,  // measure 6
0000
0000
1000
1000
,  // measure 7
0000
0000
0001
0001
,  // measure 8
0000
0000
0100
0100
,  // measure 9
0000
0000
0010
0010
,  // measure 10
0000
0000
1000
1000
,  // measure 11
0000
0000
0001
0001
,  // measure 12
0000
0000
1000
1000
,  // measure 13
0000
0000
0100
0100
,  // measure 14
0000
0000
0010
0000
,  // measure 15
0001
0000
0100
0000
,  // measure 16
0000
0000
0001
0001
,  // measure 17
0000
0000
0010
0010
,  // measure 18
0000
0000
0001
0001
,  // measure 19
0000
0000
1000
0000
,  // measure 20
0010
0000
0000
0000
,  // measure 21
0100
0000
0000
0000
,  // measure 22
0001
0000
0000
0000
,  // measure 23
1000
0000
0000
0000
,  // measure 24
0001
0000
0000
0000
,  // measure 25
0010
0000
0000
0000
,  // measure 26
0100
0000
0100
0000
,  // measure 27
0100
0000
0000
0000
,  // measure 28
1001
0000
0000
0000
,  // measure 29
0000
0000
0000
0000
,  // measure 30
0110
0000
0000
0000
,  // measure 31
0000
0000
0000
0000
,  // measure 32
0001
0000
0000
0000
,  // measure 33
1000
0000
0000
0000
,  // measure 34
0010
0000
0000
0000
,  // measure 35
0100
0000
0000
0000
,  // measure 36
1001
0000
0000
0000
,  // measure 37
0100
0000
0010
0000
,  // measure 38
0110
0000
0000
0000
,  // measure 39
1000
0000
0001
0000
,  // measure 40
0010
0000
0010
0000
,  // measure 41
0001
0000
0100
0000
,  // measure 42
0010
0000
0010
0000
,  // measure 43
1000
0000
0000
0000
,  // measure 44
0001
0000
0001
0000
,  // measure 45
0001
0000
0100
0000
,  // measure 46
0010
0000
1000
0000
,  // measure 47
0100
0000
0000
0000
,  // measure 48
1000
0000
1000
0000
,  // measure 49
0001
0000
0100
0000
,  // measure 50
0010
0000
0010
0000
,  // measure 51
1000
0000
0001
0000
;
