#TITLE:Feel Good Inc.;
#SUBTITLE:;
#ARTIST:Gorillaz;
#TITLETRANSLIT:;
#SUBTITLETRANSLIT:;
#ARTISTTRANSLIT:;
#GENRE:;
#CREDIT:;
#BANNER:Feel Good Inc-bn.png;
#BACKGROUND:Feel Good Inc-bg.png;
#LYRICSPATH:;
#CDTITLE:;
#MUSIC:Feel Good Inc.ogg;
#OFFSET:0.000000;
#SAMPLESTART:39.853001;
#SAMPLELENGTH:20.000000;
#SELECTABLE:YES;
#DISPLAYBPM:139.000000;
#BPMS:0.000000=138.300003
,4.000000=138.520004
;
#STOPS:
;
#BGCHANGES:0.000=Feel Good Inc.avi=1.000=0=0=0=StretchNoLoop====,
99999=-nosongbg-=1.000=0=0=0 // don't automatically add -songbackground-
;
#KEYSOUNDS:;
#ATTACKS:;

//---------------dance-single - ----------------
#NOTES:
     dance-single:
     :
     Hard:
     11:
     0.496101,0.488443,0.318414,0.119405,0.014926,349.000000,317.000000,32.000000,12.000000,0.000000,0.000000,0.496101,0.488443,0.318414,0.119405,0.014926,349.000000,317.000000,32.000000,12.000000,0.000000,0.000000:
// measure 0
0000
0000
0000
0000
,  // measure 1
0000
0000
0000
0000
,  // measure 2
0000
0000
0000
0000
,  // measure 3
0000
0000
0000
0000
,  // measure 4
0000
0000
0000
0000
,  // measure 5
0001
0100
0010
1000
0100
0000
1000
0001
,  // measure 6
0010
0100
0000
1100
0000
1000
0010
0001
,  // measure 7
0100
0010
0100
0001
1000
0000
0001
0010
,  // measure 8
1000
0001
0100
2020
0030
0001
3001
0100
,  // measure 9
0001
0010
1000
0010
0001
0000
0100
0010
,  // measure 10
1000
0001
1000
0100
0000
0010
0001
0100
,  // measure 11
0000
0001
0010
0001
1000
0001
0100
0010
,  // measure 12
1000
0100
1000
0001
0000
0100
0100
0010
,  // measure 13
0100
0001
0100
0010
1000
0100
0001
0100
,  // measure 14
1000
0010
0100
0001
0000
1000
1000
0001
,  // measure 15
0100
1000
0100
0010
0100
0001
0010
0100
,  // measure 16
1000
0001
0100
0202
0000
0000
0003
0001
,  // measure 17
0301
0010
0100
0010
0001
1000
0010
1000
,  // measure 18
0100
0010
0000
0011
0000
0001
0100
1000
,  // measure 19
0000
0010
1000
0010
0100
0001
0010
0100
,  // measure 20
1000
0001
1000
0010
0000
0100
0001
0000
,  // measure 21
0010
0001
0000
1001
0000
0110
0000
1000
,  // measure 22
0002
0200
0000
0300
,  // measure 23
1003
0010
0000
0100
0000
0010
0000
0100
,  // measure 24
0001
1000
0000
0100
0000
0010
0000
0001
,  // measure 25
1000
0010
1000
0001
0000
0010
0000
0100
,  // measure 26
1000
0010
1000
0001
1000
0100
0010
0000
,  // measure 27
0001
0100
0000
0001
0000
1000
0000
0100
,  // measure 28
0010
0100
0000
1000
0000
0001
0000
0100
,  // measure 29
0001
0010
0000
0100
0000
1000
0000
0001
,  // measure 30
0200
0010
0000
0301
0000
1000
0001
0100
,  // measure 31
0110
0000
1001
0100
0000
0010
1000
0001
,  // measure 32
1000
0100
0010
0001
0000
0100
0010
1000
,  // measure 33
0001
0000
0011
1000
0000
0001
0100
0010
,  // measure 34
1010
0101
1010
0101
,  // measure 35
1000
0001
0010
0100
0000
1000
0010
1000
,  // measure 36
0100
0010
0001
0100
0000
0010
1000
0001
,  // measure 37
0010
0001
0100
0010
0000
1010
0000
1100
,  // measure 38
0000
0001
1000
0010
0000
0100
0001
1000
,  // measure 39
0000
0100
0010
0001
0000
1000
0001
0100
,  // measure 40
0101
0000
1100
0000
0001
0010
0001
0100
,  // measure 41
0000
0010
0010
1000
0100
0010
0001
0100
,  // measure 42
0001
0001
0010
0100
1000
1000
0010
0100
,  // measure 43
0001
0001
0001
0002
0000
1000
0103
0000
,  // measure 44
1010
0000
0011
0000
1000
0100
1000
0001
,  // measure 45
0000
0010
0010
0001
0100
0010
1000
0001
,  // measure 46
1000
1000
0100
0010
0001
0001
0100
0010
,  // measure 47
1000
1000
1000
2000
0000
0000
3001
0000
,  // measure 48
1010
0000
0010
0100
0001
0100
0000
0110
,  // measure 49
0000
1001
0000
1000
0100
0010
0001
0000
,  // measure 50
0011
0000
1000
0001
1000
0010
0000
0101
,  // measure 51
0000
1100
0000
1000
0001
0010
0100
0000
,  // measure 52
0110
0000
0010
0001
1000
0001
0000
1010
,  // measure 53
0000
1100
0000
0001
0010
0100
1000
0000
,  // measure 54
1001
0000
0010
1000
0100
1000
0000
1100
,  // measure 55
0000
0000
0011
0000
0000
0000
0202
0000
0300
0000
0000
0000
1003
0000
0000
0001
,  // measure 56
0000
0000
0001
0000
0000
0001
0000
0000
0001
0000
0000
0001
0000
0000
0002
0000
,  // measure 57
0000
0000
0000
0003
;

//---------------dance-single - ----------------
#NOTES:
     dance-single:
     :
     Medium:
     9:
     0.380960,0.430979,0.388067,0.189058,0.014926,268.000000,229.000000,39.000000,19.000000,0.000000,0.000000,0.380960,0.430979,0.388067,0.189058,0.014926,268.000000,229.000000,39.000000,19.000000,0.000000,0.000000:
0000
0000
0000
0000
,
0000
0000
0000
0000
,
0000
0000
0000
0000
,
0000
0000
0000
0000
,
0000
0000
0000
0000
,
0001
0000
0000
0010
0100
1000
0000
1010
,
0000
0102
0000
1000
0000
1003
0000
0001
,
0010
0000
0000
0001
1000
0010
0000
0110
,
0000
1001
0000
0220
0000
0000
0300
0000
,
1030
0000
0000
0100
1000
0001
0000
0011
,
0000
2010
0000
0001
0000
3001
0000
1000
,
0001
0000
0000
0100
0010
0100
0000
1001
,
0000
0100
0010
0000
0000
1000
0001
0000
,
0010
0000
0000
0001
1000
0001
0000
0011
,
0000
2100
0000
0010
0000
3010
0000
0100
,
0001
0000
0000
0010
0001
1000
0000
1001
,
0000
0110
0000
2002
0000
0000
3000
0000
,
0103
0000
0000
0001
0010
0001
0000
0101
,
0000
1020
0000
0100
0000
0130
0000
0001
,
1000
0000
0000
0100
1000
0001
0000
0110
,
0000
0001
1000
0000
0000
0010
0100
0000
,
0001
0010
0000
0100
0000
1000
0000
0001
,
2000
0002
0000
0003
,
3001
0010
0000
0001
0000
0100
0000
0010
,
1000
0100
0000
1000
0000
0001
0000
1000
,
0010
0100
0000
0001
0000
0010
0000
0100
,
1000
0001
0000
1000
0000
0001
0000
0010
,
0100
0010
0000
0001
0000
0100
0000
0010
,
1000
0100
0000
1000
0000
0001
0000
0010
,
0100
0010
0000
0001
0000
1000
0000
0010
,
0100
0001
0000
0100
0000
0010
0000
1000
,
0001
0000
0011
0000
0000
0001
1000
0000
,
0010
0000
1010
0000
0000
1000
0100
0000
,
0010
0000
0110
0000
0000
0001
1000
0000
,
1100
0101
1100
0101
,
0001
0000
1001
0000
0000
0100
0010
0000
,
1000
0000
1100
0000
0000
0010
0001
0000
,
0100
0000
0110
0000
0000
0010
1000
0000
,
0001
0010
0000
0001
0000
0100
0000
0010
,
0000
1000
0000
0100
0000
0010
0000
0001
,
1000
0000
1000
0000
0001
0100
0001
0100
,
0000
0010
1000
0000
1100
0000
0101
0000
,
1000
0001
1000
0000
0001
1000
0001
0000
,
0100
0010
0100
0020
0000
0000
0000
0030
,
0100
0000
0100
0000
0001
1000
0001
1000
,
0000
0001
0010
0000
0011
0000
1010
0000
,
0100
0010
0100
0000
0010
0100
0010
0000
,
1000
0001
1000
0002
0000
0000
0000
0003
,
0010
0000
0000
0001
0100
0010
0000
1010
,
0000
2200
0300
0000
0001
0000
3100
0000
,
1000
0000
0000
1000
0100
0010
0000
0011
,
0000
0110
0000
0000
1000
0000
0001
0000
,
0100
0000
0000
0100
0001
0010
0000
1001
,
0000
0202
0300
0000
1000
0000
0103
0000
,
0010
0000
0000
0010
1000
0001
0000
1001
,
0000
0000
0110
0000
0000
0000
2002
0000
0000
0000
0000
0000
0003
0000
0000
0001
,
3000
0000
0001
0000
0000
0001
0000
0000
0001
0000
0000
0001
0000
0000
0002
0000
,
0000
0000
0000
0003
;

//---------------dance-single - ----------------
#NOTES:
     dance-single:
     :
     Easy:
     6:
     0.254447,0.344783,0.238811,0.079604,0.000000,179.000000,155.000000,24.000000,8.000000,0.000000,0.000000,0.254447,0.344783,0.238811,0.079604,0.000000,179.000000,155.000000,24.000000,8.000000,0.000000,0.000000:
0000
0000
0000
0000
,
0000
0000
0000
0000
,
0000
0000
0000
0000
,
0000
0000
0000
0000
,
0000
0000
0000
0000
,
0001
0001
0100
0010
,
0100
0001
1000
0000
,
0010
0010
1000
0001
,
0010
0100
1000
0000
,
0001
1000
0010
1000
,
0100
0010
0001
0000
,
0100
0010
0100
0001
,
1000
1000
0001
0000
,
0010
0001
0100
0001
,
1000
1000
1000
0000
,
0010
1000
0100
0010
,
0100
1000
0001
0000
,
0010
0001
1000
0001
,
0100
0010
1000
0000
,
0001
0001
1000
1000
,
0010
1000
0100
0000
,
0010
0001
0100
1000
,
0020
0200
0000
0330
,
0001
0000
0001
0000
,
0010
0000
0010
0000
,
0100
0000
0100
0000
,
1000
0001
1000
0000
,
0010
0000
0010
0000
,
1000
0000
1000
0000
,
0001
0000
0001
0000
,
0200
0000
0000
0300
,
0110
1001
0000
0100
,
0110
1001
0000
0010
,
0110
1001
0000
0100
,
0001
0001
1000
1000
,
0110
1001
0000
0010
,
0110
1001
0000
0100
,
0110
1001
0000
0010
,
1000
0000
1000
0000
,
0100
0000
0100
0000
,
1001
1001
0110
0110
,
0000
1000
0010
0001
,
1000
1100
0001
0101
,
0200
0020
0000
0330
,
1001
1001
0110
0110
,
0000
0001
0010
1000
,
0001
0101
1000
1100
,
0020
0200
0000
0330
,
0010
1000
1000
0000
,
0100
0000
1000
0001
,
0100
0010
0010
0000
,
0100
0000
0001
1000
,
0001
0010
0010
0000
,
0100
0000
1000
0010
,
1000
0100
0100
0000
,
0010
0001
1000
0002
,
0000
0000
0000
0000
,
0000
0000
0000
0003
;

//---------------dance-single - ----------------
#NOTES:
     dance-single:
     :
     Beginner:
     2:
     0.119405,0.195029,0.000000,0.019901,0.000000,84.000000,84.000000,0.000000,2.000000,0.000000,0.000000,0.119405,0.195029,0.000000,0.019901,0.000000,84.000000,84.000000,0.000000,2.000000,0.000000,0.000000:
0000
0000
0000
0000
,
0000
0000
0000
0000
,
0000
0000
0000
0000
,
0000
0000
0000
0000
,
0000
0000
0000
0000
,
0001
0000
0001
0000
,
0001
0000
0000
0000
,
1000
0000
1000
0000
,
1000
0000
0000
0000
,
0010
0000
0010
0000
,
0010
0000
0000
0000
,
0100
0000
0100
0000
,
0100
0000
0000
0000
,
0001
0000
0001
0000
,
0001
0000
0000
0000
,
0010
0000
0010
0000
,
0010
0000
0000
0000
,
0100
0000
0100
0000
,
0100
0000
0000
0000
,
1000
0000
1000
0000
,
1000
0000
0000
0000
,
0001
0000
1000
0000
,
0001
0000
0000
0000
,
0010
0000
0000
0000
,
0010
0000
0000
0000
,
0100
0000
0000
0000
,
0100
0000
0000
0000
,
1000
0000
0000
0000
,
0001
0000
0000
0000
,
1000
0000
0000
0000
,
0001
0000
0000
0000
,
0100
0100
0000
0000
,
0010
0010
0000
0000
,
1000
1000
0000
0000
,
0001
0001
0001
0000
,
0010
0010
0000
0000
,
0001
0001
0000
0000
,
1000
0000
0001
0000
,
0200
0000
0000
0000
,
0000
0000
0300
0000
,
0010
0010
0010
0010
,
0000
0000
1000
0000
,
0001
0000
1000
0000
,
0001
0001
0001
0000
,
0100
0100
0100
0100
,
0000
0000
0010
0000
,
1000
0000
0100
0000
,
1000
1000
1000
0000
,
0001
0000
0010
0000
,
0100
0000
0000
0000
,
1000
0000
0001
0000
,
0100
0000
0000
0000
,
0010
0000
1000
0000
,
0100
0000
0000
0000
,
1000
0000
0001
0000
,
0010
0000
0002
0000
,
0003
0000
0000
0000
;
