#TITLE:そばかす FRECKLES (KCP Re-Edit);
#ARTIST:TIGGY;
#TITLETRANSLIT:FRECKLES (KCP Re-Edit);
#BANNER:FRECKLES (KCP Re-Edit)-bn.png;
#BACKGROUND:FRECKLES (KCP Re-Edit)-bg.png;
#JACKET:FRECKLES (KCP Re-Edit)-jacket.png;
#DISCIMAGE:;
#MUSIC:FRECKLES (KCP Re-Edit).ogg;
#SAMPLESTART:58.41;
#SAMPLELENGTH:20;
#DISPLAYBPM:149:151;
#BPMS:0=149.542,4=150,50=148.76,52=150,74=148.76,76=150,146=151.261,148=150;
#BGCHANGES:0=FRECKLES (KCP Re-Edit).mp4=1=0=0=0,
;

//---------------dance-single - ----------------
#NOTES:
     dance-single:
     :
     Beginner:
     3:
     :
0000
0000
0000
0000
,
0000
0000
0000
0000
,
0000
0000
0000
0000
,
0000
0000
0000
0000
,
0100
0000
0100
0000
,
0100
0000
0100
0000
,
0010
0000
0001
0000
,
0001
0000
0100
0000
,
0100
0000
1000
0000
,
1000
0000
0010
0000
,
0010
0000
0000
0000
,
0100
0000
0000
0000
,
0010
0000
0000
0000
,
0100
0000
0000
0000
,
0010
0000
0001
0000
,
0001
0000
0100
0000
,
0100
0000
1000
0000
,
1000
0000
0010
0000
,
0010
0000
0000
0000
,
0100
0000
0000
0000
,
0010
0000
0000
0000
,
0100
0000
0000
0000
,
0001
0000
0000
0000
,
0000
0000
0000
0000
,
0010
0000
0001
0000
,
0100
0000
1000
0000
,
0010
0000
0000
0000
,
0001
0000
0000
0000
,
0100
0000
1000
0000
,
0010
0000
0001
0000
,
0100
0000
0000
0000
,
1000
0000
0000
0000
,
0010
0000
0001
0000
,
0100
0000
1000
0000
,
0010
0000
0000
0000
,
0001
0000
0000
0000
,
0100
0000
0000
0000
,
1000
0000
0001
0000
,
1000
0000
0001
0000
,
1000
0000
0100
0000
,
1000
0000
0100
0000
,
0010
0000
0000
0000
,
0010
0000
0000
0000
,
0010
0000
0001
0000
,
1001
0000
0000
0000
,
1000
0000
0001
0000
,
1000
0000
0001
0000
,
1000
0000
0100
0000
,
1000
0000
0100
0000
,
0010
0000
0000
0000
,
0001
0000
0000
0000
,
0100
0000
0000
0000
,
1000
0000
0000
0000
,
0001
0000
1000
0000
,
0001
0000
1000
0000
,
0001
0000
0000
0000
,
0000
0000
0000
0000
,
1001
0000
0000
0000
,
0000
0000
0000
0000
;

//---------------dance-single - ----------------
#NOTES:
     dance-single:
     :
     Easy:
     5:
     :
0000
0000
0000
0000
,
0000
0000
0000
0000
,
0000
0000
0000
0000
,
0000
0000
0000
0000
,
0100
0000
0100
0000
,
0100
0100
0100
0000
,
0000
0000
0100
0000
,
0001
0000
0100
0000
,
1000
0000
0100
0000
,
0001
0000
0010
0000
,
1000
0000
0010
0000
,
0001
0000
0010
0000
,
1000
0000
0001
0000
,
0001
0000
1000
1001
,
1000
0100
1000
0100
,
0001
0100
0001
0100
,
1000
0100
1000
0100
,
0001
0100
0001
0100
,
1000
0000
1000
0000
,
1000
0000
0001
0000
,
0001
0000
1000
0000
,
1000
0000
0001
0000
,
0001
0000
1000
0000
,
1000
0000
1000
0000
,
1001
0001
0100
0001
,
0100
0001
0100
0001
,
0200
0000
0300
0000
,
0000
1000
0001
1000
,
0001
1000
0100
1000
,
0100
1000
0100
1000
,
0200
0000
0300
0000
,
0010
0010
0100
0100
,
0000
1000
1000
1000
,
2000
0000
3001
0000
,
0000
0001
0001
0001
,
0002
0000
0000
0000
,
1003
0000
0000
0000
,
1000
0100
0001
0010
,
1000
0100
0001
0010
,
1000
0100
0001
0010
,
0200
0000
0000
0300
,
0000
1000
0010
0001
,
0100
1000
0010
0001
,
0100
1000
0010
0001
,
1001
0000
0000
0000
,
1000
0100
0001
0010
,
1000
0100
0001
0010
,
1000
0100
0001
0010
,
0200
0000
0300
0000
,
0000
1000
1000
0001
,
0001
1000
1000
0100
,
0000
0001
0001
0001
,
1000
1000
0001
0001
,
0001
0001
1000
1000
,
0001
1000
0001
1000
,
0200
0000
0000
0300
,
0000
0000
0000
0000
,
1001
0000
0000
0000
,
0000
0000
0000
0000
;

//---------------dance-single - ----------------
#NOTES:
     dance-single:
     :
     Medium:
     7:
     :
0000
0000
0000
0000
,
0000
0000
0000
0000
,
0000
0000
0000
0000
,
0000
0000
0000
0000
,
0000
0100
0100
0000
0000
0010
0010
0000
,
0000
0100
0000
0100
0000
0100
0000
0000
,
0000
0001
0001
0000
1000
0100
1000
0000
,
0001
0000
0001
0000
0100
1000
0100
0000
,
0001
0010
0100
0000
1000
0010
0100
0000
,
0001
0001
1000
1000
,
0100
0000
0010
0010
,
0100
0100
0010
0101
,
0000
0100
0100
0001
,
0101
1100
1000
1001
,
0010
0100
0010
0000
1000
0000
1100
0000
,
0001
0010
0001
0000
0010
0000
1100
0000
,
0001
0000
0100
0000
1000
0100
0001
0000
,
1000
0000
0010
0000
0100
0001
0010
0000
,
1100
0000
0001
0001
,
0001
0000
0010
0100
0010
0000
0101
0000
,
0000
0010
0010
1000
,
0001
0100
1000
0000
0100
0000
0001
0000
,
0002
0000
1003
0000
,
1000
0100
1000
0000
0001
0100
0001
0000
,
2002
3003
0100
0010
,
1000
0100
1000
0000
0001
0100
0001
0000
,
0200
0000
0300
0000
,
0000
1000
0100
0010
,
0001
0000
0100
0000
0010
0000
1000
0100
,
0001
1000
0010
0100
,
0002
0000
0003
0000
,
0000
1000
0000
0100
0000
0000
0000
0000
,
0000
0000
0010
0000
0001
0100
0010
0000
,
2000
0000
0000
3001
0000
0000
0000
0000
,
0000
0000
0010
0000
0100
1000
0010
0000
,
0200
0000
0000
0000
,
0301
0000
0010
0100
,
1000
0010
0001
0000
0001
0000
0001
0000
,
0001
0010
1000
0000
1000
0000
1000
0000
,
1000
0100
1000
0000
0001
0010
0001
0000
,
0200
0000
0000
0300
,
0000
0000
0010
1000
0001
0000
0010
0000
,
0100
0000
1000
0001
0100
0000
0010
0000
,
1000
0000
0100
0000
0001
0100
1000
0000
,
1001
0000
0100
0100
,
1000
0100
0001
0000
0001
0000
0001
0000
,
0001
0100
1000
0000
1000
0000
1000
0000
,
1000
0100
0001
0000
0001
0000
0001
0000
,
0200
0000
0300
0000
,
0000
0010
1000
0100
,
0011
0000
0000
0101
0000
0000
1010
0000
,
0000
0100
0001
0010
,
1100
0000
0000
1001
0000
0000
0101
0000
,
0010
1000
0010
0000
0100
0000
0001
0000
,
0010
0100
0010
0000
0001
1000
0001
0000
,
0220
0000
0000
0330
,
0000
0000
0000
0000
,
1001
0000
0000
0000
,
0000
0000
0000
0000
;

//---------------dance-single - ----------------
#NOTES:
     dance-single:
     :
     Hard:
     10:
     :
0000
0000
0000
0000
,
0000
0000
0000
0000
,
0000
0000
0000
0000
,
0000
0000
0000
0000
,
0000
0010
0100
0010
0000
1000
0001
1000
,
0000
0110
0000
1001
0000
0101
1100
0000
,
0000
0010
0001
0100
0010
1000
0010
0000
,
0100
0001
0100
0010
1000
0100
1000
0000
,
0001
0100
0001
1000
0100
0010
0001
0000
,
1000
0100
0010
0001
1000
0010
0000
0101
,
0000
0000
0000
0000
1000
0100
1000
0000
,
0010
0100
0001
0010
0100
1000
0101
0000
,
0000
0000
0010
1000
0100
0010
0001
0100
,
0010
1000
0001
0010
0100
1000
0100
0000
,
0000
0010
0001
0100
0010
1000
0010
0000
,
0100
0001
0100
0010
1000
0100
1000
0000
,
0001
0100
0001
1000
0100
0010
0001
0100
,
0010
1000
0001
0010
0100
1000
0000
0101
,
0000
0000
0000
0010
1000
0100
1000
0000
,
0001
0100
0010
1000
0001
0010
1100
0000
,
0000
0000
0001
0100
0001
1000
0100
0010
,
0001
1000
0001
0100
0010
1000
0100
0010
,
0001
0100
0001
0100
0001
0100
0001
0010
,
0100
1000
0100
1000
0100
1000
0100
1000
,
0002
0100
1000
0100
,
1000
0100
1000
0103
,
0020
1000
0100
1000
,
0100
0000
1000
0000
0130
0000
1000
0100
,
0020
0001
0100
0001
,
0100
0001
0100
0031
,
0200
0010
0001
0010
,
0001
0000
0010
0000
0301
0000
0010
1000
,
1100
0000
0010
0001
0100
0010
1000
0000
,
0101
0000
0010
1000
0100
0010
0001
0000
,
1100
0000
0010
0001
1000
0010
0100
0000
,
0001
0010
0001
0010
0001
0100
0010
1000
,
0100
0000
0000
0000
0010
0001
0100
0000
,
0010
1000
0100
1000
0100
0001
0100
1000
,
0001
0100
1000
0100
0001
1000
0100
0010
,
0001
1000
0010
0100
0001
0010
0100
1000
,
0001
0100
0001
0100
0010
1000
0100
0010
,
0002
1000
0100
0003
,
0020
1000
0001
0030
,
1000
0100
0010
0000
0001
0100
0010
0000
,
1000
0001
0010
0100
1000
0010
0100
0000
,
0001
0010
1000
0010
0001
1000
0010
0100
,
0001
0010
0100
1000
0010
0100
0001
1000
,
0100
0001
0100
1000
0010
0100
0001
1000
,
0100
0010
0100
0010
0001
0100
0010
1000
,
0200
0001
1000
0300
,
0002
0100
0010
1003
,
0020
0001
1000
0030
,
0200
0010
1000
0300
,
0001
0100
0010
0000
1000
0100
0010
0000
,
0001
1000
0010
0100
0001
0010
0100
1000
,
0010
0000
0010
0000
0100
0001
0010
0000
,
0100
0000
0100
0000
1000
0010
0100
0000
,
2002
0000
0000
3003
,
0000
0000
0000
0000
;

//---------------dance-single - ----------------
#NOTES:
     dance-single:
     :
     Challenge:
     14:
     :
0000
0000
0000
0000
,
0000
0000
0000
0000
,
0000
0000
0000
0000
,
0000
0000
0000
0000
,
0010
1000
1100
0001
0010
0001
0101
1000
,
0010
0110
0100
0110
0010
0110
1001
0000
,
1010
0001
0100
0010
1000
1000
1000
0000
,
0001
0100
1000
0010
1000
0100
0001
0000
,
0010
0000
0001
0100
0001
0000
1000
0100
1000
0000
0001
0100
0001
0000
0000
0000
,
0010
0000
0001
0100
0001
0000
0000
0000
1010
0000
0100
0000
0001
0000
0010
0000
,
0011
0100
1000
0010
1000
0100
0001
0000
,
0010
0000
0001
0100
0001
0000
1000
0010
1000
0000
0100
0010
0100
0000
0000
0000
,
1000
0010
1000
0100
0001
0010
0001
0000
,
1000
1000
1000
0001
0100
0010
1000
0001
,
1100
0000
0010
0000
0001
0000
0100
0000
1000
0000
1000
0000
1000
0000
0000
0010
,
0001
0100
0001
0010
1000
0100
0001
1000
,
0010
0000
1000
0100
1000
0000
0001
0100
0001
0000
1000
0100
1000
0000
0000
0000
,
0001
0000
1000
0010
1000
0000
0100
0000
0110
0000
0001
0000
1000
0000
0010
0000
,
0101
1000
0100
0010
0001
0100
1000
0000
,
0001
0000
0010
0100
0010
0000
0001
1000
0001
0000
0100
0010
0100
0000
0000
0000
,
0001
0000
0000
0000
1000
0100
1000
0000
0001
0010
0001
0000
0010
0000
0100
0000
,
1000
0010
0001
1000
0001
0100
0010
1000
,
1001
0010
1000
0001
0010
1000
0100
0001
,
0010
0100
0010
0001
0100
1000
0001
0100
,
1010
0000
0000
1000
0100
0000
0001
0000
0010
0000
0100
0000
0001
0000
0010
0000
,
0100
0000
0010
0000
1000
0000
0001
0000
0010
0000
0100
0000
1000
0000
0001
0010
,
0001
0000
0100
0000
1000
0000
0100
0000
0001
0000
0010
0000
0100
0000
1000
0010
,
1000
0000
0001
0000
0100
0000
0010
1000
0010
0000
0100
0001
0100
0000
0001
0010
,
0001
0000
1000
0000
0001
0000
0010
0000
0100
0000
1000
0000
0010
0000
0100
0001
,
0100
0000
0001
0000
0010
0000
1000
0000
0100
0000
0010
0000
0100
0000
1000
0001
,
1000
0010
0001
0010
0100
0010
0001
0010
,
0100
1000
0100
0001
0010
1000
0010
0100
,
0110
0000
0001
1000
0001
0000
0100
0000
0010
0000
1000
0000
0100
0000
0000
0000
,
0011
0000
0100
1000
0100
0000
0010
0000
0001
0000
0100
0000
1000
0000
0000
0000
,
1010
0000
0100
0001
0100
0000
0010
0000
1000
0000
0100
0000
0001
0000
0000
0000
,
0110
0001
0010
1000
0100
0010
0100
1000
,
0010
0000
0100
0000
0001
0000
0000
0000
1000
0100
0010
0100
1000
0000
0000
0000
,
1001
0000
0001
0010
0001
0000
0100
0000
0010
0000
1000
0000
0001
0000
0000
0000
,
0010
0000
0001
0000
0100
0000
0001
1000
0100
0000
0010
0000
0001
0000
0000
0000
,
1000
0000
0010
0100
0010
0000
1000
0001
1000
0000
0100
0010
0100
0000
1000
0000
,
0001
0000
0010
0100
1000
0000
0010
0100
0001
0000
1000
0001
0100
0000
0000
0000
,
0101
1000
0010
0001
1000
0100
0010
0000
,
0011
0100
1000
0010
1000
0100
0001
0000
,
1000
0000
0010
0100
0001
0000
0000
0000
0010
0000
0010
0000
0001
0000
0100
0000
,
1000
0000
0010
0100
0001
0000
1000
0000
0010
0100
0001
0100
0010
0000
0000
0000
,
0110
0000
0001
1000
0100
0000
0010
0000
0001
0000
0100
0000
1000
0000
0000
0000
,
0010
0000
1000
0100
0010
0000
0001
0000
1000
0000
0010
0000
0100
0000
0000
0000
,
0001
0000
0010
0100
0010
0000
0001
1000
0001
0000
1000
0100
1000
0000
0001
0000
,
0100
0000
0010
1000
0100
0000
0010
0001
0100
0000
0001
1000
0010
0000
0000
0000
,
1010
0000
0001
0000
1000
0000
0100
0000
0010
0000
0001
0100
0001
0000
0000
0000
,
0011
0000
1000
0000
0100
0000
0010
0001
0100
0000
0001
0000
1000
0000
0000
0000
,
1100
0000
0010
0000
1000
0000
0100
0000
0010
0000
0001
0100
0001
0000
0000
0000
,
1001
0000
0010
0000
0001
0000
1000
0010
0100
0000
0001
0000
1000
0000
0000
0000
,
1100
0000
0010
0001
0100
0000
0001
0000
0010
0000
0100
0000
1000
0000
0000
0010
,
1000
0000
0100
0010
0001
0000
0100
0010
1000
0000
0001
1000
0100
0000
0000
0000
,
0110
0001
0010
1000
0100
0010
0100
1000
,
0010
0001
1000
0001
0010
1000
0100
0001
,
1001
0000
0000
0000
0110
0000
0000
0000
1001
0000
0000
0000
0110
0000
0001
2000
,
0200
0000
0000
0000
0000
0000
3000
0000
1300
0001
1000
0001
1000
0001
1000
0001
;

//---------------dance-double - ----------------
#NOTES:
     dance-double:
     :
     Easy:
     5:
     :
00000000
00000000
00000000
00000000
,
00000000
00000000
00000000
00000000
,
00000000
00000000
00000000
00000000
,
00000000
00000000
00000000
00000000
,
10000000
00000000
01000000
00000000
,
00010000
00010000
00010000
00000000
,
00000000
00000000
00000001
00000000
,
00000100
00000000
00001000
00000000
,
00010000
00000000
01000000
00000000
,
10000000
00000000
01000000
00000000
,
10000000
00000000
01000000
00000000
,
00010000
00000000
01000000
00000000
,
10000000
00000000
01000000
00000000
,
00010000
00000000
00001000
00001001
,
00000001
00000100
00001000
00010000
,
01000000
10000000
01000000
00010000
,
00001000
00010000
01000000
00010000
,
00001000
00000100
00000001
00000100
,
00001000
00000000
00010000
00000000
,
00010000
00000000
01000000
00000000
,
01000000
00000000
10000000
00000000
,
10000000
00000000
00010000
00000000
,
00010000
00000000
00001000
00000000
,
00000100
00000000
00000001
00000000
,
00001001
00000001
00000100
00001000
,
00010000
01000000
10000000
01000000
,
02000000
00000000
03000000
00000000
,
00000000
10000000
00010000
10000000
,
00010000
10000000
01000000
00010000
,
00001000
00000100
00000001
00000100
,
00000200
00000000
00000300
00000000
,
00001000
00001000
00010000
00010000
,
00000000
01000000
01000000
01000000
,
20000000
00000000
30010000
00000000
,
00000000
00001000
00001000
00001000
,
00002000
00000000
00000000
00000000
,
00003001
00000000
00000000
00000000
,
00000001
00000100
00001000
00010000
,
01000000
10000000
01000000
00010000
,
00001000
00000100
00000001
00000100
,
00000200
00000000
00000000
00000300
,
00000000
00001000
00010000
01000000
,
10000000
01000000
00010000
00001000
,
00000100
00000001
00000100
00001000
,
00011000
00000000
00000000
00000000
,
10000000
01000000
00010000
00001000
,
00000100
00000001
00000100
00001000
,
00010000
01000000
10000000
01000000
,
02000000
00000000
03000000
00000000
,
00000000
10000000
10000000
01000000
,
01000000
00010000
00010000
00001000
,
00001000
00000100
00000100
00000001
,
00000001
00000100
00000100
00001000
,
00001000
00010000
01000000
10000000
,
01000000
00010000
00001000
00000100
,
00000200
00000000
00000000
00000300
,
00000000
00000000
00000000
00000000
,
00011000
00000000
00000000
00000000
,
00000000
00000000
00000000
00000000
;

//---------------dance-double - ----------------
#NOTES:
     dance-double:
     :
     Medium:
     7:
     :
00000000
00000000
00000000
00000000
,
00000000
00000000
00000000
00000000
,
00000000
00000000
00000000
00000000
,
00000000
00000000
00000000
00000000
,
00000000
01000000
00000000
00000000
00000000
00100000
00000000
00000000
,
00000000
10000000
01000000
00000000
00010000
00000000
00011000
00000000
,
00000000
00100000
00100000
00000000
01000000
10000000
01000000
00000000
,
00010000
00000000
00010000
00000000
00001000
00000100
00001000
00000000
,
00010000
00100000
00010000
00000000
00001000
00000010
00001000
00000000
,
00010000
00100000
10000000
01000000
,
00110000
00000000
00001000
00001000
,
00000010
00000000
00000010
00000000
00000010
00000001
00000100
00000000
,
00000000
00000010
00001000
00000100
,
00010000
00000000
00001000
00100000
00010000
00000000
11000000
00000000
,
00000000
00010000
00010000
00000000
00100000
00001000
00100000
00000000
,
00010000
00000000
00000010
00000000
00000001
00000100
00000001
00000000
,
00001000
00000100
00001000
00000000
00010000
00001000
00010000
00000000
,
00100000
00010000
01000000
00100000
,
10010000
00000000
01000000
01000000
,
00100000
00000000
00100000
00000000
00100000
10000000
01000000
00000000
,
00000000
00010000
00001000
00000100
,
00000001
00000000
00000010
00000100
00001000
00000000
00000001
00000000
,
00000220
00000000
00000000
00000000
,
00000000
00000000
00000000
00000330
,
00010000
00010000
00001000
00001000
,
00010000
00010000
00001000
00001000
,
00100000
00010000
00100000
00000000
01000000
00000000
01000000
00000000
,
10000000
00100000
10000000
00000000
01000000
00000000
01000000
00000000
,
00010000
00010000
00001000
00001000
,
00010000
00010000
00001000
00001000
,
00000010
00000100
00000010
00000000
00000001
00000000
00000100
00000000
,
00000010
00001000
00000100
00000000
00000010
00000000
00000001
00000000
,
00002000
00000000
00000000
00003000
,
00000200
00000000
00000000
00000300
,
00020000
00000000
00000000
00030000
,
00002000
00000000
00000000
00003000
,
00011000
00000000
00100000
00010000
,
10000000
00000000
00100000
02000000
00000000
00000000
03000000
00000000
,
00020000
00000000
00030000
00200000
00000000
00300000
01000000
00000000
,
00010000
00000000
00001000
00000000
00000100
00000001
00000010
00000000
,
00000100
00000000
00001000
00000000
00000010
00010000
00000010
00000000
,
00011000
00000000
00100000
00100000
,
10010000
00000000
01000000
01000000
,
00100000
00000000
00001000
00010000
00001000
00000000
01000000
00000000
,
10010000
00000000
01000000
00100000
,
00001000
00000000
00010000
00000200
00000000
00000000
00000300
00000000
,
00000020
00000000
00000030
00000002
00000000
00000003
00000100
00000000
,
00000010
00000000
00001000
00000000
00000100
00010000
00001000
00000000
,
00100000
00000000
00010000
00000000
10000000
00100000
10000000
00000000
,
01010000
00000000
10000000
01000000
,
00020000
00000000
00030000
00002000
00000000
00003000
00000100
00000000
,
00000001
00000000
00000010
00000000
00000100
00001000
00000010
00000000
,
00000200
00000000
00000300
00002000
00000000
00003000
00010000
00000000
,
01000000
10000000
01000000
00000000
00100000
00010000
00100000
00000000
,
00001000
00000000
00010000
00000000
00000010
00000100
00000001
00000000
,
00000010
00000000
00000010
00000000
00000010
00000010
00000010
00000000
,
00000100
00000000
00000100
00000000
00000100
00000100
00000100
00000000
,
00002002
00000000
00000000
00003003
,
00000000
00000000
00000000
00000000
;

//---------------dance-double - ----------------
#NOTES:
     dance-double:
     :
     Hard:
     12:
     :
00000000
00000000
00000000
00000000
,
00000000
00000000
00000000
00000000
,
00000000
00000000
00000000
00000000
,
00000000
00000000
00000000
00000000
,
00000000
00100000
01000000
00100000
00000000
00010000
00001000
00010000
,
00000000
00000010
00000000
00000100
00000000
00000001
00001100
00000000
,
00010000
00000000
00000000
00010000
01000000
00000000
00000000
00010000
00001000
00000000
00000000
00010000
01000000
00000000
00000000
00010000
,
00001000
00000000
00000000
00001000
00000100
00000000
00000000
00001000
00010000
00000000
00000000
00001000
00000100
00000000
00000000
00001000
,
00010000
00000000
00000000
00010000
01000000
00000000
00000000
01000000
10000000
00000000
00000000
10000000
00100000
00000000
00000000
00100000
,
00010000
00000000
00000000
00010000
00001000
00000000
00000000
00001000
00000010
00000000
00000000
00000010
00000001
00000000
00000000
00000001
,
00000100
00000000
00000010
00000000
00001000
00000100
00001000
00000000
,
00000001
00000000
00000000
00000001
00000100
00000000
00000000
00000100
00001000
00000000
00010000
00000000
01000000
00000000
00000000
00000000
,
10000000
00000000
00000000
10000000
00100000
00000000
00000000
00100000
00010000
00000000
00001000
00000000
00000010
00000000
00000000
00000000
,
00000001
00000000
00000000
00000001
00001000
00000000
00000000
00001000
00000100
00000000
00000000
00000100
00000010
00000000
00000000
00000000
,
00000001
00000100
00000001
00001000
00000100
00010000
00001000
00010000
,
00100000
10000000
00100000
01000000
00001000
00010000
00001000
00000010
,
00000001
00000100
00000001
00000010
00000100
00001000
00000100
00000010
,
00000001
00000100
00001000
00010000
01000000
10000000
00100000
01000000
,
00010000
00100000
00010000
01000000
00001000
00010000
00001000
00000010
,
00000001
00000100
00000001
00000010
00000100
00001000
00000100
00000010
,
00000001
00001000
00000100
00010000
00001000
00010000
00100000
10000000
,
01000000
00100000
01000000
10000000
00100000
01000000
00100000
10000000
,
01000000
00010000
00001000
00000100
00000001
00000010
00000100
00001000
,
00000001
00000100
00001000
00010000
01000000
10000000
00100000
01000000
,
00010000
00010000
00010000
00010000
,
00010000
00000000
00000000
00000000
00010000
00000000
00000000
00000000
00010000
00000000
00000000
00000000
00010000
00000000
00000000
00100000
,
01000000
00000000
00000000
00100000
01000000
00000000
00000000
00010000
00001000
00000000
00000000
00010000
00001000
00000000
00000000
00000010
,
00000100
00000000
00000000
00000010
00000100
00000000
00000000
00001000
00000001
00000000
00000000
00001000
00000001
00000000
00000000
00000000
,
00000100
00000100
00000100
00000100
,
00000100
00000000
00000000
00000000
00000100
00000000
00000000
00000000
00000100
00000000
00000000
00000000
00000100
00000000
00000000
00000010
,
00001000
00000000
00000000
00000010
00001000
00000000
00000000
00000100
00010000
00000000
00000000
00000100
00010000
00000000
00000000
00001000
,
00100000
00000000
00000000
00001000
00100000
00000000
00000000
00010000
01000000
00000000
00000000
00010000
01000000
00000000
00000000
00000000
,
00200000
10000000
00010000
10300000
,
02000000
00010000
10000000
03010000
,
00002000
00000100
00010000
00003100
,
00000002
00000003
00000020
00000030
,
00001100
00000000
00000000
00000000
00000000
00000000
00000000
00000000
00000000
00000000
00000000
00000000
00000000
00000000
00010000
00001000
,
00010000
00000000
00000010
00000000
00001000
00000000
00000100
00000000
00010000
00000000
00001000
00000000
00100000
00000000
00010000
01000000
,
00010000
00000000
10000000
00000000
01000000
00000000
00100000
00000000
00010000
00000000
01000000
00000000
00001000
00000000
00010000
00001000
,
00010000
00000000
00000010
00000000
00000100
00000000
00000001
00000000
00000010
00000000
00000100
00000000
00001000
00000000
00000001
00000100
,
00000001
00000000
00000010
00000000
00000100
00000000
00001000
00000000
00000010
00000000
00000100
00000000
00001000
00000000
00010000
00001000
,
00010000
00000000
00000100
00000000
00000010
00000000
00000001
00000000
00000100
00000000
00001000
00000000
00010000
00000000
01000000
00100000
,
01000000
00000000
10000000
00000000
00010000
00000000
01000000
00000000
00100000
00000000
00010000
00000000
00001000
00000000
00000010
00000001
,
00000010
00000100
00001000
00000010
00000100
00001000
00010000
01000000
,
10000000
00000000
00010000
00000000
00010000
00000000
00000000
00000000
01000000
00000000
00100000
00000000
01000000
00000000
00100000
10000000
,
00100000
00000000
01000000
00000000
00010000
00000000
00100000
00000000
01000000
00000000
00010000
00000000
00001000
00000000
00000100
00000010
,
00000100
00000000
00000001
00000000
00001000
00000000
00000100
00000000
00000010
00000000
00000001
00000000
00000100
00000000
00001000
00010000
,
00001000
00000000
00100000
00000000
00010000
00000000
01000000
00000000
00100000
00000000
10000000
00000000
01000000
00000000
00100000
00010000
,
00100000
00001000
00010000
00001000
00000100
00000001
00000010
00000100
,
00001000
00000001
00000100
00000010
00001000
00000100
00000010
00000001
,
00001100
00000000
00000000
00011000
00000000
00000000
01010000
00000000
,
00100000
10000000
01000000
00100000
00010000
01000000
00100000
10000000
,
11000000
00000000
00000000
00110000
00000000
00000000
00011000
00000000
,
00000010
00000100
00000001
00000010
00000100
00001000
00000001
00000100
,
00001000
00010000
00100000
10000000
01000000
00100000
00010000
01000000
,
00100000
00000000
00100000
00000000
00010000
00001000
00010000
00001000
,
00000010
00000100
00000000
00000000
00001000
00000001
00000000
00000000
00000100
00001000
00000000
00000000
00010000
00001000
00000000
00000000
,
20000000
00000000
00000000
30000000
,
00000000
00000000
00000000
00000000
;
