#TITLE:FREAKY;
#ARTIST:DE LITE & MC YOUNG;
#BANNER:FREAKY.png;
#BACKGROUND:FREAKY-bg.png;
#JACKET:FREAKY-jacket.png;
#MUSIC:FREAKY.ogg;
#SAMPLESTART:1.499;
#SAMPLELENGTH:20;
#DISPLAYBPM:160;
#BPMS:0=160.078;
#BGCHANGES:;

//---------------dance-single - ----------------
#NOTES:
     dance-single:
     :
     Beginner:
     4:
     :
0000
0000
0000
0000
,
0000
0000
0000
0000
,
0000
0000
0000
0000
,
0000
0000
0000
0000
,
0000
0000
0000
0000
,
0010
0010
0000
0000
,
1000
1000
0000
0000
,
0001
0001
0000
0000
,
1001
0000
0110
0000
,
0000
0000
1000
1000
,
0000
0000
0001
0001
,
0000
0010
0010
0000
,
1000
0000
0010
0010
,
0000
0100
0100
0000
,
0001
0000
1000
0000
,
0000
0010
0010
0000
,
1000
0000
0100
0000
,
0000
1000
1000
0000
,
0001
0000
0010
0000
,
0000
0001
0001
0000
,
0100
0000
0010
0000
,
0000
0000
1000
1000
,
0000
0000
0100
0100
,
0000
0010
0000
0010
,
0010
0000
0001
0000
,
0000
0000
1000
0000
,
0001
0000
1000
0000
,
1001
0000
0110
0000
,
0001
0000
0001
0000
,
0000
0000
0100
0100
,
0000
0000
0010
0010
,
0000
0000
1000
0000
,
0001
0000
0100
0000
,
0000
0010
0010
0000
,
1000
0000
0100
0000
,
0000
0001
0001
0000
,
0010
0010
0010
0000
,
0000
0001
0001
0000
,
1001
0000
0110
0000
,
0000
1000
1000
0000
,
0001
0001
0001
0001
,
0000
0100
0100
0000
,
0110
0000
1001
0000
,
0000
1000
1000
0000
,
0001
0000
0010
0010
,
0000
0110
0000
0110
,
0000
1001
0000
1001
,
0000
0110
0000
1001
,
0000
0110
0000
1001
,
0000
0000
1000
0000
,
0001
0000
1000
0000
,
1001
0000
0110
0000
,
0010
0000
0010
0000
,
0000
0000
1000
1000
,
0000
0000
0100
0100
,
0000
0000
0001
0000
,
0010
0010
0010
0000
,
0000
0000
0001
0000
,
0100
0000
0010
0000
,
0110
0000
1001
0000
,
1000
0000
0100
0000
,
0000
0000
0001
0001
,
0000
0000
1000
1000
,
0000
0000
0010
0000
,
0100
0100
0100
0100
,
0000
0001
0000
1000
;

//---------------dance-single - ----------------
#NOTES:
     dance-single:
     :
     Easy:
     6:
     :
0000
0000
0000
0000
,
0000
0000
0000
0000
,
0000
0000
0000
0000
,
0000
0000
0000
0000
,
0000
0000
0000
0000
,
0010
0001
0010
1000
,
0001
0100
1000
0100
,
0010
0001
0010
1000
,
0001
0001
0001
1000
,
0001
0010
0001
0000
,
1000
0000
0100
0000
,
1000
0010
1000
0000
,
0001
0000
0100
0000
,
0001
0000
0100
0000
,
0010
1000
0010
1000
,
0010
0000
1000
0000
,
0010
0001
0010
0001
,
0001
0000
0010
0001
0010
0000
0000
0000
,
1000
0000
0001
0000
,
1000
0000
0010
1000
0010
0000
0000
0000
,
0001
0000
1000
0000
,
0001
0010
0100
1000
,
0100
0001
0100
0010
,
0100
1000
0100
0001
,
0010
0010
0010
0010
,
0100
0010
1000
0010
,
0000
0001
0000
0010
,
1000
0000
1000
0000
,
0001
0010
1000
0010
,
0000
0010
0100
0001
,
0000
0010
0100
1000
,
0001
0000
0010
0000
,
1000
0010
0001
0010
,
0100
0010
0001
0000
,
1000
0000
0100
0000
,
0100
0010
1000
0000
,
0001
0000
0100
0000
,
0001
0000
1000
0000
,
0110
1000
0010
1000
,
0010
0000
0001
0000
,
0110
0001
0010
0001
,
0100
0000
0001
0100
0001
0000
0000
0000
,
1000
0000
0001
0000
,
0100
0000
1000
0100
1000
0000
0000
0000
,
0001
0000
1000
0000
,
0100
0010
0100
0001
,
0100
1000
0100
0010
,
0100
0001
0100
1000
,
0010
0001
0100
1000
,
0001
0010
1000
0010
,
0000
0100
0000
0010
,
0001
0000
1000
0000
,
1001
0100
0001
0100
,
0000
1000
0100
0010
,
0000
0100
0001
0100
,
1000
0000
0001
0000
,
0010
0010
0001
1000
,
0010
0100
0001
0100
,
0000
0010
0000
0010
,
1000
0010
1000
0001
,
0100
0001
0100
0001
,
0000
0000
1000
0010
,
1000
0000
0001
0010
,
0001
0000
0100
0000
,
0010
1000
0001
0100
,
0000
0110
0000
1001
;

//---------------dance-single - ----------------
#NOTES:
     dance-single:
     :
     Medium:
     8:
     :
0000
0000
0000
0000
,
0000
0000
0000
0000
,
0000
0000
0000
0000
,
0000
0000
0000
0000
,
0000
0000
0000
0000
,
0010
0000
0001
0100
0100
0000
0000
0000
,
0001
1000
0100
0100
,
0010
0000
1000
0100
0100
0000
0000
0000
,
0011
0110
1100
0001
,
0100
0000
0010
0100
0010
0000
0000
0000
,
1000
0000
1000
0000
0001
1000
0001
0000
,
0100
0000
0010
0100
0010
0000
0000
0000
,
0001
0000
0001
0000
1000
0001
1000
0000
,
0010
1000
0100
0000
,
0010
0000
0100
0000
1000
0010
1000
0000
,
0010
1000
0100
0000
,
0010
0000
0001
0000
1000
0100
1000
0000
,
0001
0000
0010
0001
0010
0000
0000
0000
,
0001
1000
0100
1000
,
0100
0010
0010
0000
,
0001
1000
0100
1000
,
0000
1000
1000
0000
0010
0000
0100
0000
,
0000
0001
0001
0000
0010
0000
0100
0000
,
0000
1000
0001
0000
0000
0001
1000
0000
,
1001
0110
1001
0110
,
0001
0010
0100
0000
,
1000
0010
0100
0000
,
0100
0000
0000
0001
1000
0000
0000
0000
,
0100
1000
0001
0010
,
0000
0000
0001
0010
0001
0000
0100
0000
,
0000
0000
0010
1000
0010
0000
0100
0000
,
0000
0001
1000
0100
,
1000
0001
0100
0001
,
0010
0000
0100
0010
0100
0000
0000
0000
,
1000
0000
1000
0000
0001
1000
0001
0000
,
0010
0000
0100
0010
0100
0000
0000
0000
,
1000
0000
1000
0000
0001
1000
0001
0000
,
0010
0001
0100
0000
,
0010
0000
0100
0000
0001
0010
0001
0000
,
0010
0100
1000
0000
,
0010
0000
0100
0000
0001
0010
0001
0000
,
0100
0000
0010
0100
0001
0000
0000
0000
,
0010
0100
1000
1000
,
0100
0000
0010
0100
1000
0000
0000
0000
,
0010
0100
0001
0100
,
0000
0110
1000
0110
,
0001
1010
0001
0110
,
1000
0110
0001
0110
,
1000
1100
0001
0100
,
0001
0010
0100
0000
,
1000
0010
0100
0000
,
0100
0000
0000
0001
1000
0000
0000
0000
,
0010
0001
0010
0100
,
0000
0000
0001
0010
0001
0000
0100
0000
,
0000
0000
0010
1000
0010
0000
0100
0000
,
0000
0001
0000
1000
,
0001
0100
1000
0100
,
0000
0011
1000
0100
,
0000
0110
0001
0010
,
0010
0001
1000
0001
,
1000
0001
0100
0100
,
0000
0000
0000
0000
1000
0010
1000
0000
,
0001
0000
0000
0000
0100
0010
1000
0000
,
0001
0000
0100
0100
,
1010
0001
0110
0001
,
0000
1000
1000
0000
0000
0001
0100
0000
;

//---------------dance-single - ----------------
#NOTES:
     dance-single:
     :
     Hard:
     10:
     :
0000
0000
0000
0000
,
0000
0000
0000
0000
,
0000
0000
0000
0000
,
0000
0000
0000
0000
,
0000
0000
0000
0000
,
0010
0010
0010
0000
1001
0000
0000
0000
,
0010
0010
0010
0000
1001
0000
0000
0000
,
0010
0010
0010
0000
1001
0000
0000
0000
,
1010
0000
1001
0000
0110
0100
0100
0000
,
1001
0000
0010
1000
0110
0000
0000
0000
,
1100
0000
0101
0000
0010
0100
1001
0000
,
1001
0000
0001
0010
0100
0000
0000
0000
,
1010
0000
0101
0000
1000
0010
0100
0000
,
1010
0011
0110
0000
,
1000
0000
0001
0000
0100
0010
1001
0000
,
0100
0001
1100
0000
,
0110
0000
1001
0000
0010
0010
1001
0000
,
1001
0000
0100
0100
1001
0000
0000
0000
,
0001
1000
0001
0010
,
1000
0001
1000
0000
,
0110
1001
0110
1100
,
0000
1000
0010
0000
1001
0000
0110
0000
,
0000
0001
0010
0000
1001
0000
0110
0000
,
0000
0001
0010
0000
0000
1000
0010
0000
,
1100
1001
0110
1001
,
0110
0001
0110
1000
,
0100
1010
1001
0100
,
0100
0000
0000
0101
1100
0000
0000
0000
,
0001
0110
1000
0101
,
0000
0000
0010
1000
0101
0000
0100
0000
,
0000
0000
0010
0001
1100
0000
0100
0000
,
0000
0110
1100
0101
,
0011
1000
0110
0001
,
1001
0000
0010
1000
0110
0000
0000
0000
,
1100
0000
0101
0000
0010
0100
1001
0000
,
1001
0000
0001
0010
0100
0000
0000
0000
,
1010
0000
0101
0000
1000
0010
0100
0000
,
1010
0011
0110
0000
,
1000
0000
0001
0000
0100
0010
1001
0000
,
0100
0001
1100
0000
,
0110
0000
1001
0000
0010
0010
1001
0000
,
1001
0000
0100
0100
1001
0000
0000
0000
,
0001
1000
0001
0010
,
1000
0001
1000
0000
,
0110
1001
0110
1100
,
0000
0000
0010
1000
0001
0000
0010
0001
,
0100
0000
0100
0100
1000
0000
1000
1000
,
0010
0000
0010
0010
0001
0000
0001
0001
,
0100
0000
0100
0100
1001
0000
0100
0000
,
0011
1001
1010
1001
,
0100
1010
1001
0100
,
0100
0000
0000
1001
0110
0000
0000
0000
,
0001
0110
1000
0101
,
0000
0000
1000
1000
0101
0000
1100
0000
,
0010
0000
0001
0001
1100
0000
0101
0000
,
1000
0110
1100
0101
,
0011
1000
0110
0001
,
0000
1010
0101
0011
,
1100
0110
0001
0010
,
1001
0100
1001
0110
,
1001
1100
0010
0010
,
0000
0000
0000
0000
1010
1000
0001
0000
,
0100
0000
0000
0000
0011
0001
1000
0000
,
0100
0000
0000
0000
0001
1000
0000
0000
,
0001
1000
0110
1001
,
0000
1001
1001
0000
0000
0100
0110
0000
;

//---------------dance-single - ----------------
#NOTES:
     dance-single:
     :
     Challenge:
     13:
     :
0000
0000
0000
0000
,
0000
0000
0000
0000
,
0000
0000
0000
0000
,
0000
0000
0000
0000
,
0000
0000
0000
0000
,
0010
0000
1001
0000
1001
0000
0000
0000
0000
0000
1000
0100
0000
1000
0100
0000
,
0010
0010
0010
0002
0000
0000
1003
0000
,
0010
0000
1001
0000
1001
0000
0000
0000
0000
0000
0001
0100
0000
0001
0100
0000
,
0101
0000
0000
0000
1100
0000
0000
0010
1000
0000
0001
0000
1000
0100
0000
0000
,
0000
0000
0010
0000
0010
0000
0001
0100
0001
0000
1000
0100
1000
0000
0000
0000
,
0000
0001
0001
0100
0010
1000
1000
1010
,
0000
0001
0010
1000
0020
0000
0030
0100
,
0001
0010
0001
1000
0010
0010
0010
0101
,
0000
0000
1000
0000
0100
0000
1000
0000
0001
0000
0100
0010
0100
0000
0001
0000
,
1000
0001
0000
0010
0000
0000
0001
0000
0100
0000
0100
0000
0100
0000
0010
1000
,
0000
0000
0001
0000
1000
0000
0100
0000
0010
0000
0001
1000
0001
0000
0100
0000
,
0010
1000
0010
0000
0100
0000
0001
0000
0011
0000
0011
0000
0011
0000
0000
0000
,
1001
0000
0010
0000
1000
0000
0100
0000
1000
0000
0000
0001
0000
0000
0010
0100
,
0010
0001
0100
0001
1000
1000
1000
0000
,
0010
0000
1000
0000
0100
0000
1000
0000
0001
0000
0000
0010
0000
0000
0001
0000
,
0100
0010
0000
0010
1000
0000
0001
0000
0101
0000
0101
0000
0101
0000
0000
0000
,
0010
1000
1000
0001
0100
0010
0110
0000
,
1000
0001
0001
0010
0100
1000
1100
0000
,
0001
0100
1010
0000
1000
0100
0011
0000
,
1001
0000
0000
0000
0100
0001
0000
0100
0001
0000
1000
0000
0001
0100
0000
0000
,
0010
0000
1000
0000
0001
0010
0001
1000
,
0100
0010
0001
0000
2000
0000
3002
0000
,
0023
0000
0031
0100
2000
0000
3000
0000
,
0001
0100
0001
0000
0000
0000
0000
0000
1000
0100
1000
0000
0010
0000
0100
0000
,
0000
0000
0001
0010
1000
0010
0001
0000
,
0000
0000
1000
0100
0001
0100
1000
0000
,
0000
0000
0010
1000
0100
0010
0001
0000
,
0200
0000
0000
0000
0301
1000
0000
0001
1000
0000
0010
0000
0100
0000
0001
0000
,
0010
0001
0001
1000
1000
0000
0000
0010
,
1000
0000
0100
0000
0001
0000
0100
0000
1000
0000
0010
0000
0100
0000
0001
1000
,
0000
0000
0010
0000
0010
0000
1000
0000
0001
0000
0000
0100
0000
0000
0010
0000
,
1000
0100
0000
0010
0001
0000
0100
0000
0010
0000
0010
0000
0010
0000
1000
0001
,
0000
0000
0010
0000
0001
0000
0100
0000
0001
0000
0000
1000
0010
0000
0100
0000
,
0001
0010
0000
0100
0000
0000
1000
0000
0010
0000
0100
0000
0100
0000
0110
0000
,
0000
0000
0001
0000
0010
0000
1000
0000
0001
0000
0000
1000
0100
0000
0010
0000
,
0001
0001
1000
1000
0001
0100
0100
0010
,
0000
0000
1000
0000
0100
0000
0010
0000
0001
0000
0000
0100
0000
0000
0010
1000
,
0010
0000
0100
0001
0000
0100
0001
0000
1000
0000
1100
0000
1100
0000
0000
0000
,
0001
0000
1000
0000
1000
0000
0010
0000
1000
0000
0000
0100
0010
0000
0001
0000
,
0100
0010
0100
0001
1000
1000
1000
0010
,
0100
0101
1010
1100
,
0011
1001
0110
0101
,
1010
1100
0011
0110
,
1001
0000
0000
0000
0110
0000
0000
0001
1000
0000
1000
0000
0001
0000
0100
0000
,
0010
0000
1000
0000
0100
0010
0001
0100
,
1000
0100
0001
0000
0020
0000
0230
0000
,
2300
0000
3001
0100
0020
0000
0030
0000
,
1000
0100
1000
0000
0000
0000
0000
0000
0001
0100
0001
0000
0010
0000
0100
0000
,
0000
0000
1000
0010
0001
0010
1000
0000
,
0000
0000
0001
0100
1000
0100
0001
0000
,
0000
0000
0010
0001
0010
0100
1000
0000
,
0001
0100
1000
0100
0001
0010
2000
0000
,
3100
0000
0001
0000
1000
0010
1000
0001
,
0010
0100
0010
0100
0010
0000
0000
0000
0002
0000
0000
0000
2003
0000
0000
0000
,
3100
0000
0000
1000
1000
0010
1000
0001
,
0100
0000
1000
0000
0100
0000
0001
0000
0010
0100
0010
0100
0010
0000
0001
0000
,
0100
0000
0010
1000
0001
0100
0001
1000
,
0100
0000
0010
0001
1000
0100
1000
0001
,
0100
0010
1000
0001
1000
0100
0100
0000
,
0011
0000
0000
0000
1000
0100
1000
0000
0001
0000
0100
0000
0010
0000
1000
0000
,
0001
0100
0100
0010
1000
0001
1100
0000
;

//---------------dance-double - ----------------
#NOTES:
     dance-double:
     :
     Easy:
     6:
     :
00000000
00000000
00000000
00000000
,
00000000
00000000
00000000
00000000
,
00000000
00000000
00000000
00000000
,
00000000
00000000
00000000
00000000
,
00000000
00000000
00000000
00000000
,
00001000
00010000
00000000
00001000
,
00010000
00000100
00000000
00000000
,
00000010
00000001
00000000
00000100
,
00000110
00001001
00000110
00001001
,
00000000
00000010
00001000
00000001
,
00000000
00000100
00000010
00010000
,
00000000
00100000
00100000
00000000
,
10000000
01000000
10000000
00100000
,
00000000
01100000
10010000
00000000
,
10000000
00100000
00010000
00000100
,
00000000
00000110
00001001
00000000
,
00000001
00000001
00001000
00000001
,
00000000
00000010
00001000
00000000
,
00000100
00000100
00010000
00001000
,
00000000
01000000
00100000
00000000
,
10000000
00010000
10010000
01100000
,
00000000
10000000
01000000
00010000
,
00000000
00100000
00001000
00010000
,
00000000
00000110
00000000
00001001
,
00000001
00000001
00001000
00001000
,
00000000
00000010
00001000
00000000
,
00000001
00000000
00000010
00000100
,
00020000
00000000
00002000
00033000
,
01000000
00000000
01000000
00000000
,
00000000
00000000
00100000
10000000
,
00000000
00000000
01000000
10000000
,
00000000
00010000
01000000
00000000
,
00001000
00001000
00010000
00000010
,
00000000
00000110
00001001
00000000
,
00000001
00000100
00001000
00000001
,
00000000
00000100
00010000
00000000
,
00001000
00010000
01100000
10010000
,
00000000
00100000
00001000
00000000
,
00010000
00000000
01000000
00000000
,
10000000
00100000
10000000
00000000
,
00010000
00010000
00010000
00010000
,
00000000
00100000
00001000
00000000
,
00010000
00000100
00001001
00000110
,
00000000
00000001
00001000
00000000
,
00000010
00001000
00000110
00001001
,
00000000
00001000
00000000
00010000
,
00000000
00001000
00000000
01000000
,
00000000
00100000
00000000
10000000
,
00000000
01000000
00000000
00100000
,
00000000
00001000
00010000
00000000
,
00000010
00000000
00000100
00000001
,
00002000
00000000
00000200
00003300
,
00010000
00000000
00010000
00000000
,
00000000
00000000
00001000
01000000
,
00000000
00000000
00100000
01000000
,
00000000
00010000
00010000
00000000
,
00100000
00010000
10000000
00010000
,
00000000
01000000
00100000
10000000
,
00010000
00000000
00100000
00001000
,
00020000
00000000
00000200
00030300
,
00000010
00000000
00000010
00000000
,
00000001
00000000
00001000
00001001
,
00000000
00000000
00000010
00000110
,
00000000
00000000
00010000
00000000
,
01100000
10010000
01100000
10010000
,
00000000
01000000
00000000
00100000
;

//---------------dance-double - ----------------
#NOTES:
     dance-double:
     :
     Medium:
     8:
     :
00000000
00000000
00000000
00000000
,
00000000
00000000
00000000
00000000
,
00000000
00000000
00000000
00000000
,
00000000
00000000
00000000
00000000
,
00000000
00000000
00000000
00000000
,
00001000
00010000
00001000
00000000
00000000
00000000
01100000
00000000
,
10000000
01000000
10000000
00000000
00000000
00000000
10100000
00000000
,
00010000
01000000
00010000
00000000
00000000
00000000
00110000
00000000
,
00011000
00000110
00011000
01100000
,
00000000
00000000
10010000
00000000
10000000
01000000
00010000
00000000
,
00000000
00000000
00000110
00000000
00000001
00000100
00001000
00000000
,
00000000
00000000
00000010
00000100
00000010
00000000
00000000
00000000
,
00000002
00000000
00000203
00000000
00000301
00001000
00000010
00000000
,
00000000
00000000
00010000
00001000
01000000
00000000
00000000
00000000
,
00100000
10000000
00100000
00000000
11000000
00000000
01010000
00000000
,
00000000
00000000
00100000
00010000
10000000
00000000
00000000
00000000
,
00100000
01000000
00020000
20000000
00000000
00000000
30030000
00000000
,
01001000
00000000
00001000
00010000
00000010
00000000
00000000
00000000
,
00000100
00000001
00001000
00000000
00000001
00001000
00000100
00000000
,
00000000
00001010
00000101
00000000
,
00002000
00000000
00003020
00000000
00010030
00001000
00010000
00000000
,
00000000
00000000
01100000
00000000
10000000
01000000
10000000
00000000
,
00000000
00000000
00101000
00000000
00001000
00010000
00001000
00000000
,
00000000
00010010
00000000
00001100
,
00001001
00011000
10010000
00011000
,
00000000
00020000
00030020
00000230
,
00000302
00000003
00001001
00001001
,
00000020
00000000
00000030
00001000
00000002
00000000
00000003
00000000
,
00000100
00000010
00001000
00000000
00000100
00000010
00000001
00000000
,
00000000
00000000
00001000
00000100
00002000
00000000
00003002
00000000
,
00000003
00000000
00000100
00000010
00000200
00000000
00000302
00000000
,
00000003
00000020
00000032
00000103
,
00001010
00001100
00011000
01001000
,
00000000
00100000
10000000
00100000
10000000
00000000
00000000
00000000
,
01000000
00100000
00010000
00000000
10000000
00010000
01000000
00000000
,
00000000
00000000
00100000
01000000
00010000
00000000
00000000
00000000
,
00002000
00000000
00023000
00000000
00030010
00000100
00000001
00000000
,
00000000
00000000
00000010
00000001
00000100
00000000
00000000
00000000
,
00001010
00000000
00000101
00000000
00001000
00000100
00000010
00000000
,
00000000
00000000
00000001
00000100
00001000
00000000
00000000
00000000
,
00010000
00001000
02000000
00200000
00000000
00000000
03300000
00000000
,
10010000
00000000
10000000
00100000
01000000
00000000
00000000
00000000
,
00020000
00000000
00230000
00000000
00310000
10000000
01000000
00000000
,
00000000
00100000
01000000
00000000
01100000
00000000
00000000
00000000
,
00001000
00010000
00001000
00000000
00010100
00000000
00001001
00000000
,
00000000
00000010
00001000
00000010
,
00000100
00000001
00000010
00000001
,
00001000
00000100
00010000
00001000
,
01000000
00000000
00100000
00000000
10000000
00010000
01000000
00000000
,
00000000
00200000
20300000
32000000
,
03200000
00300000
10010000
10010000
,
00002000
00000000
00003000
00010000
00000200
00000000
00000300
00000000
,
00000010
00000001
00000100
00000000
00000010
00001000
00000100
00000000
,
00000000
00000000
00000001
00000010
00000001
00000000
00001000
00000000
,
00000000
00000000
00000100
00010000
00000100
00000000
00001000
00000000
,
00000000
02000000
03200000
10300000
,
00200000
02300000
03020000
20030000
,
31000000
20000000
30200000
02300000
,
03002000
00003000
00011000
00011000
,
00000020
00000000
00000030
00001000
00000200
00000000
00000310
00000000
,
00000001
00000100
00000010
00000000
00001000
00000100
00010000
00000000
,
00000000
00000000
00000000
00000000
00001000
00010000
01000000
00000000
,
11000000
00000000
00000000
00000000
00100000
10000000
00010000
00000000
,
00110000
00000000
00000000
00001000
00010000
00001000
00000000
00000000
,
00011000
00000110
00011000
01100000
,
00000000
10000000
00100000
00000000
00000000
01000000
00010000
00000000
;

//---------------dance-double - ----------------
#NOTES:
     dance-double:
     :
     Hard:
     11:
     :
00000000
00000000
00000000
00000000
,
00000000
00000000
00000000
00000000
,
00000000
00000000
00000000
00000000
,
00000000
00000000
00000000
00000000
,
00000000
00000000
00000000
00000000
,
00001000
00001000
00001000
00000000
00000000
00000010
00000100
00000001
,
00001000
00001000
00001000
00000020
00000000
00000000
00010030
00000000
,
00001000
00001000
00001000
00000000
00000000
01000000
00100000
10000000
,
11000000
00110000
01010000
01001000
,
00000000
00010000
00010000
00001000
00010000
00000010
00000010
00000000
,
00000000
00000100
00000002
00000000
00000013
00000100
00001000
00001100
,
00000000
00010000
00100000
00010000
00000020
00000000
00000030
00000100
,
00000002
00000000
00001003
00000001
00001000
01000000
00100000
01100000
,
00000000
00010000
10000000
00100000
10000000
00000000
00000000
01000000
,
10000000
00010000
00100000
00010000
01000000
00001000
00001000
00011000
,
00000000
00010000
00000010
00001000
00000001
00000000
00000000
00000100
,
00000010
00001000
00000100
00000010
00000001
00000100
00001000
00000000
,
00011000
00001000
00010000
00001000
01000000
00000000
10100000
10000000
,
00010000
00010000
00010000
00100000
00010000
00001000
00000100
00000000
,
00000000
00000001
00000010
00000001
00001000
00000000
00000000
00000100
,
00010000
00000010
00001000
00000001
00000100
00000100
00000100
00000000
,
00000010
00001000
00000001
00001000
00000100
00010000
00011000
00000000
,
00000000
01000000
01100000
00000000
10000000
00010000
10000000
11000000
,
00000000
00100000
10010000
00000000
00000000
01000000
01001000
00000000
,
00011000
00000110
00011000
01100000
,
00011000
00000000
00000010
00000000
00000001
00001000
00000010
00001000
,
00000200
00000300
00000011
00001100
,
00020010
00000000
00000000
00001000
00002000
00000000
00033000
00000000
,
00001000
00010000
00001000
00000000
01000000
00100000
10000000
00010000
,
00000000
00000000
00100000
00010000
01000000
00100000
10000000
00000000
,
00000000
00000000
01000000
10000000
00100000
01000000
00010000
00000000
,
00000000
00000000
00100000
00010000
00001000
00010000
01000000
00000000
,
10100000
00000000
01010000
00000000
00001000
00010000
00000010
00000000
,
00000000
00000100
00000001
00000010
00001000
00000000
00000000
00010000
,
01000000
00100000
01000000
10000000
00100000
01000000
00010000
00110000
,
00000000
00100000
00001000
00010000
00000100
00000000
00000000
00000010
,
00000001
00000100
00000010
00001000
00000100
00000100
00000100
00000000
,
00000000
00000010
00010000
00000100
00001000
00000000
00001001
00000000
,
00000010
00001000
01000000
00100000
01000000
10000000
00100000
01000000
,
00000000
00010000
10000000
00010000
01000000
00000000
00000000
00100000
,
10000000
10000000
10000000
00100000
01000000
00001000
00010000
00000000
,
00000000
00000010
00000100
00000001
00002000
00000000
00003000
00000100
,
00010000
00001000
01000000
00100000
10000000
10000000
10000000
00010000
,
00000000
10000000
00100000
01000000
00010000
00000000
00000000
00100000
,
00010000
01000000
00010000
00100000
00001000
00000100
00000001
00000000
,
00000010
00001001
00000100
00010010
,
00001000
00011000
00100000
11000000
,
00010000
10100000
00001000
01001000
,
00100000
00000000
00011000
00000000
00010000
00000010
00000100
00000001
,
00000101
00000000
00000010
00000000
00001000
00000001
00000010
00000100
,
00020000
00030000
00010100
00101000
,
21000000
00000000
00000000
00010000
00020000
00000000
30030000
00000000
,
00100000
00010000
10000000
00000000
00010000
01000000
00100000
10000000
,
00000000
00000000
01000000
00100000
00010000
10000000
01000000
00000000
,
00000000
00000000
10000000
00100000
01000000
00001000
00010000
00000000
,
00000000
00000000
00000100
00010000
00001000
00010000
00000010
00000000
,
00000101
00000000
00001010
00000000
00001000
00000100
00000001
00000000
,
00000011
00000000
00001000
00000000
00000010
00010000
00001000
00100000
,
02000000
03000000
11000000
00110000
,
20010000
00000000
00000000
00100000
30100000
10000000
00010000
00000000
,
10000000
01000000
00100000
00000000
00001000
00010000
00000010
00000100
,
00000001
00000000
00000000
00000000
00000010
00000001
00001000
00000001
,
00000100
00000000
00000000
00000000
00000010
00010000
00001000
00100000
,
01000000
00000000
10000000
00010000
01000000
00100000
10000000
00000000
,
11000000
00000000
00101000
00000000
00010000
00001000
00000100
00000000
,
00000001
00000010
00001000
00000100
00001000
00000001
00001010
00000000
;

//---------------dance-double - ----------------
#NOTES:
     dance-double:
     :
     Challenge:
     13:
     :
00000000
00000000
00000000
00000000
,
00000000
00000000
00000000
00000000
,
00000000
00000000
00000000
00000000
,
00000000
00000000
00000000
00000000
,
00000000
00000000
00000000
00000000
,
00001000
00000000
00001000
00000000
00001000
00000000
00000000
00000000
00000000
00000000
01000000
00100000
00000000
01000000
00100000
00000000
,
10000000
10000000
10000000
00100000
01000000
00010000
10010000
00000000
,
00100000
00000000
00100000
00000000
00100000
00000000
00000000
00000000
00000000
00000000
00001000
00010000
00000000
00001000
00010000
00000000
,
00010010
00000000
00000000
00000000
00001000
00000100
00000000
00000100
00001000
00000000
00000001
00000000
00000100
00000010
00000000
00000000
,
00000000
00000000
00001000
00000000
00001000
00000000
00000001
00000010
00000001
00000000
00001000
00000100
00001000
00000000
00000000
00000000
,
00000000
00010000
00010000
00001000
01000000
00100000
10000000
01010000
,
00000000
00000000
00010000
00000000
00000010
00000000
00010000
00000000
00100000
00000000
00000000
00010000
10000000
00000000
01000000
00000000
,
00100000
00000000
00001000
00010000
00000100
00001000
00000010
00001001
,
00000000
00000000
00000100
00000000
00000010
00000000
00001000
00000000
00000001
00000000
00000000
00000010
00000001
00000000
00000100
00000000
,
00000010
00001000
00000000
00000010
00001000
00000000
01000000
00000000
10000000
00000000
10000000
00000000
10000000
00000000
00010000
01000000
,
00000000
00000000
00100000
00000000
10000000
00000000
01000000
00000000
10000000
00000000
00000000
00010000
01000000
00000000
00100000
00000000
,
10000000
00000000
00010000
00000000
00100000
00000000
00001000
00010000
00001000
00000000
00000100
00000000
00000001
00000010
00000001
00000000
,
00000100
00000000
00000010
00000000
00001000
00000000
00000001
00000000
00000010
00000000
00000000
00000100
00010000
00000000
00001000
01000000
,
00001000
00010000
00001000
00000100
00000001
00000010
00001000
00000000
,
00000100
00000000
00010000
00000000
01000000
00000000
00100000
00000000
01000000
00000000
00000000
10000000
00010000
00000000
01000000
00000000
,
00100000
10000000
00000000
10000000
01000000
00000000
00100000
00000000
00110000
00000000
00110000
00000000
00110000
00000000
00000000
00000000
,
00001000
00010000
00010000
00000010
00000100
00000001
00001010
00000000
,
00000100
00000001
00000001
00000010
00001000
00000100
00010100
00000000
,
00001000
01001000
01001000
00000000
00100000
10100000
10100000
00000000
,
01010000
00000000
00000000
00000000
10000000
01000000
00000000
10000000
01000000
00000000
00100000
00000000
00100000
00000000
00000000
00000000
,
00001000
00000000
00010000
00000000
00000010
00000100
00000001
00000010
,
00000100
00001000
00000001
00000000
00001000
00000010
00000100
00000000
,
00000101
00000000
00000010
00000001
00002000
00000000
00003000
00000000
,
00000010
00000100
00000010
00000000
00000000
00000000
00000000
00000000
00010000
00001000
00010000
00000000
01000000
00000000
10000000
00000000
,
00100000
00000000
10000000
00010000
01000000
00100000
10000000
00000000
,
00010000
00000000
00100000
00010000
00001000
00000100
00000001
00000000
,
00000010
00000000
00000001
00001000
00000100
00010000
00000010
00000000
,
00000100
00000000
00000001
00000000
00000010
00000000
00001000
00000100
00001000
00000000
00000010
00000000
00020000
00000000
00000000
00000000
,
00031000
00000000
01000000
00000000
00100000
00000000
01000000
00000000
00010000
00000000
00000000
10000000
01000000
00000000
00100000
00000000
,
00010000
00010000
01000000
01000000
00100000
10000000
00010000
00110000
,
00000000
00000000
00001000
00000000
00010000
00000000
00000010
00000000
00000100
00000000
00000000
00000001
00001000
00000000
00000010
00000000
,
00001000
00000100
00000000
00000010
00000001
00000000
00000100
00000000
00000010
00000000
00000010
00000000
00000010
00000000
00001000
00000100
,
00000000
00000000
00010000
00000000
00001000
00000000
01000000
00000000
00100000
00000000
00000000
10000000
00010000
00000000
00000000
00000000
,
01000000
00010000
00000000
00010000
00100000
00000000
00001000
00000000
00010000
00000000
00000010
00000000
00000100
00000000
00000110
00000000
,
00000000
00000000
00000001
00000000
00000010
00000000
00000001
00000000
00001000
00000000
00000000
00000010
00000100
00000000
00000001
00000000
,
00000010
00000000
00000100
00000000
00010000
00000000
00001000
00100000
00001000
00000000
01000000
00000000
00100000
00000000
10000000
00000000
,
00010000
00000000
10000000
00000000
01000000
00000000
00100000
00000000
00001000
00000000
00000000
00010000
00000000
00000010
00000100
00000010
,
00000100
00000000
00000001
00000010
00000000
00000100
00001000
00000000
00001001
00000000
00000110
00000000
00001001
00000000
00000000
00000000
,
00000010
00000000
00001000
00000000
00000001
00000000
00001000
00000000
00100000
00000000
00000000
10000000
00100000
00000000
01000000
00000000
,
00010000
00100000
10000000
01000000
10000000
10100000
01010000
00000000
,
00100000
00110000
10010000
01010000
,
11000000
10100000
01100000
01001000
,
00011000
00010100
00000110
00000011
,
00001001
00000000
00000000
00000000
00010010
00000000
00000000
00000010
00000100
00000000
00000100
00000000
00000001
00000000
00001000
00000000
,
00001001
00000000
00000010
00001000
00000100
00000001
00000100
00001000
,
00000010
00000100
00000001
00000000
00001000
00000001
00000100
00000000
,
00010010
00000000
00010000
00001000
02000000
00000000
03000000
00000000
,
00100000
10000000
00100000
00000000
00000000
00000000
00000000
00000000
10000000
01000000
10000000
00000000
00010000
00000000
00100000
00000000
,
01000000
00000000
00100000
00010000
10000000
00010000
01000000
00000000
,
00001000
00000000
00010000
00000010
00001000
00000100
00000001
00000000
,
00000010
00000000
00000001
00000100
00000010
00001000
00000001
00000000
,
00000010
00000001
00001000
00000010
00001000
00000100
00020000
00000000
,
01030000
00000000
10000000
00100000
10000000
01000000
00100000
00010000
,
01000000
00001000
00010000
00000010
00000100
00000000
00000001
00000000
,
00000011
00000000
00000100
00001000
00000001
00000100
00000010
00000001
,
00000010
00000000
00001000
00000000
00000100
00000000
00010000
00000000
01000000
00100000
01000000
00100000
01000000
00000000
10000000
00000000
,
00010000
00000000
00000000
00100000
00010000
00000000
01000000
00000000
00100000
00000000
10000000
00000000
01000000
00000000
00100000
00000000
,
00001000
00000000
00000000
00010000
00001000
00000000
00000100
00000000
00000001
00000000
00000010
00000000
00000001
00000000
00001000
00000000
,
00000100
00000010
00000001
00000100
00001000
00000001
00000010
00000000
,
00000110
00000000
00000000
00000000
00000001
00001000
00000001
00000000
00000100
00000000
00000010
00000000
00010000
00001000
00010000
00000000
,
01000000
10000000
00100000
01000000
00010000
00100000
00101000
00000000
;

//---------------dance-solo - ----------------
#NOTES:
     dance-solo:
     :
     Easy:
     5:
     :
000000
000000
000000
000000
,
000000
000000
000000
000000
,
000000
000000
000000
000000
,
000000
000000
000000
000000
,
000000
000000
000000
000000
,
000010
000001
010000
100000
,
000010
001000
010000
001000
,
000010
000001
010000
100000
,
000001
000001
000001
100000
,
000010
000100
000001
000000
,
100000
000000
001000
000000
,
010000
000100
100000
000000
,
000001
000000
001000
000000
,
000010
000000
000010
000000
,
000100
010000
000100
100000
,
010000
000000
010000
000000
,
000100
000010
000100
000001
,
000001
000000
000010
000001
000010
000000
000000
000000
,
100000
000000
000001
000000
,
100000
000000
010000
100000
010000
000000
000000
000000
,
000001
000000
100000
000000
,
000010
000100
010000
100000
,
001000
000001
000010
000100
,
010000
100000
001000
000001
,
001100
100001
001100
100001
,
000010
000100
010000
000100
,
000000
000001
000000
000100
,
100000
000000
000000
000100
100000
000000
000000
000000
,
000010
000100
010000
000100
,
000000
000100
000010
000001
,
000000
000100
010000
100000
,
000001
000000
000100
000000
,
010000
000100
000010
000100
,
001000
000010
000001
000000
,
100000
000000
001000
000000
,
001000
010000
100000
000000
,
000001
000000
001000
000000
,
000010
000000
010000
000000
,
010100
100000
000100
100000
,
010000
000000
000010
000000
,
000110
000001
000100
000001
,
001000
000000
000001
001000
000001
000000
000000
000000
,
100000
000000
000001
000000
,
001000
000000
100000
001000
100000
000000
000000
000000
,
000001
000000
100000
000000
,
010000
000100
000010
000001
,
001000
100000
010000
000100
,
000010
000001
001000
100000
,
000100
000001
001000
100000
,
000010
000100
010000
000100
,
000000
001000
000000
000100
,
000010
000000
000000
010000
000001
000000
000000
000000
,
010001
001000
000001
001000
,
000000
100000
010000
000100
,
000000
000010
000001
001000
,
010000
000000
000010
000000
,
000100
000100
000001
100000
,
010000
001000
000010
001000
,
000000
000100
000000
000100
,
110000
000100
100000
000100
,
000011
000100
000001
000100
,
000000
000000
010000
010000
,
100000
000000
000010
000010
,
000001
000000
001000
000000
,
000100
000010
010000
001000
,
000000
000100
010000
000000
000000
100000
000010
000000
;

//---------------dance-solo - ----------------
#NOTES:
     dance-solo:
     :
     Medium:
     6:
     :
000000
000000
000000
000000
,
000000
000000
000000
000000
,
000000
000000
000000
000000
,
000000
000000
000000
000000
,
000000
000000
000000
000000
,
000100
000000
000001
001000
001000
000000
000000
000000
,
000010
010000
001000
001000
,
000100
000000
100000
001000
001000
000000
000000
000000
,
000110
001100
010100
000010
,
001000
000000
000100
001000
000100
000000
000000
000000
,
100000
000000
100000
000000
000001
100000
000001
000000
,
001000
000000
000100
001000
000100
000000
000000
000000
,
000001
000000
000001
000000
100000
000001
100000
000000
,
000010
000001
001000
000000
,
000100
000000
000010
000000
000001
000010
000001
000000
,
010000
100000
001000
000000
,
000100
000000
010000
000000
100000
010000
100000
000000
,
000010
000000
000100
000010
000100
000000
000000
000000
,
000010
010000
001000
100000
,
010000
000100
000100
000000
,
010000
000010
001000
000001
,
000000
100000
100000
000000
010000
000000
000010
000000
,
000000
000001
000001
000000
000010
000000
010000
000000
,
000000
000001
100000
000000
000000
000001
100000
000000
,
100001
001010
100001
011000
,
000001
000010
100000
000000
,
100000
010000
000001
000000
,
001000
000000
000000
000010
010000
000000
000000
000000
,
000100
000001
000100
100000
,
000000
000000
000010
000010
000001
000000
001000
000000
,
000000
000000
010000
010000
100000
000000
001000
000000
,
000000
000010
010000
001000
,
000011
001000
110000
001000
,
000100
000000
001000
000100
001000
000000
000000
000000
,
100000
000000
100000
000000
000001
010000
000001
000000
,
000100
000000
001000
000100
001000
000000
000000
000000
,
000001
000000
000001
000000
100000
000010
100000
000000
,
000010
000001
001000
000000
,
000100
000000
000010
000000
000001
000010
000001
000000
,
010000
100000
001000
000000
,
000100
000000
010000
000000
100000
010000
100000
000000
,
000010
000000
000100
000010
000001
000000
000000
000000
,
000010
010000
001000
100000
,
010000
000000
000100
010000
100000
000000
000000
000000
,
010000
000010
001000
000001
,
000000
010100
100000
000110
,
000001
010100
000001
000110
,
100000
010100
000010
000110
,
010000
010100
001000
001000
,
000001
000010
100000
000000
,
100000
010000
000001
000000
,
001000
000000
000000
000010
010000
000000
000000
000000
,
000100
000001
000100
100000
,
000000
000000
000010
000010
000001
000000
001000
000000
,
000000
000000
010000
010000
100000
000000
001000
000000
,
000000
000001
000000
100000
,
000010
001000
010000
001000
,
000000
010100
100000
000100
,
000000
000110
000001
000100
,
000100
100000
000010
010000
,
000001
100000
001000
001000
,
000000
000000
000000
000000
010000
000100
100000
000000
,
000001
000000
000000
000000
000010
000100
000001
000000
,
100000
000000
001000
001000
,
000110
100000
010100
000001
,
000000
000001
000001
000000
000000
010000
001000
000000
;

//---------------dance-solo - ----------------
#NOTES:
     dance-solo:
     :
     Hard:
     8:
     :
000000
000000
000000
000000
,
000000
000000
000000
000000
,
000000
000000
000000
000000
,
000000
000000
000000
000000
,
000000
000000
000000
000000
,
000100
000100
000100
000000
010010
000000
000000
000000
,
000100
000100
000100
000000
100001
000000
000000
000000
,
000100
000100
000100
000000
010010
000000
000000
000000
,
100010
000000
010001
000000
001100
001000
001000
000000
,
100001
000000
000010
010000
001100
000000
000000
000000
,
011000
000000
001010
000000
000010
010000
100001
000000
,
010010
000000
000001
000100
001000
000000
000000
000000
,
100010
000000
010001
000000
100000
000100
001000
000000
,
100100
000101
001100
000000
,
010000
000000
000010
000000
001000
000100
100001
000000
,
001000
000010
011000
000000
,
001100
000000
100001
000000
000100
000100
010010
000000
,
010010
000000
001000
001000
100001
000000
000000
000000
,
000011
100000
000010
000010
,
110000
000001
010000
000000
,
001100
100001
001010
011000
,
000000
110000
010000
000000
010010
000000
001010
000000
,
000000
000011
000010
000000
010010
000000
011000
000000
,
000000
000001
000010
000000
000000
100000
010000
000000
,
011000
100001
001010
100001
,
000110
000001
010100
100000
,
001000
100010
010001
001000
,
001000
000000
000000
001010
011000
000000
000000
000000
,
000011
011000
110000
001010
,
000000
000000
010000
100000
001001
000000
001000
000000
,
000000
000000
000010
000001
101000
000000
001000
000000
,
000000
001100
011000
001010
,
000110
100000
010100
000001
,
100001
000000
000010
010000
001100
000000
000000
000000
,
011000
000000
001010
000000
000010
010000
100001
000000
,
010010
000000
000001
000100
001000
000000
000000
000000
,
100010
000000
010001
000000
100000
000100
001000
000000
,
100100
000101
001100
000000
,
010000
000000
000010
000000
001000
000100
100001
000000
,
001000
000010
011000
000000
,
001100
000000
100001
000000
000100
000100
010010
000000
,
010010
000000
001000
001000
100001
000000
000000
000000
,
000011
100000
000010
000010
,
110000
000001
010000
000000
,
001100
100001
001010
011000
,
000000
000000
010000
010000
000010
000000
000010
000010
,
001000
000000
001000
001000
100000
000000
100000
100000
,
000100
000000
000100
000100
000001
000000
000001
000001
,
001000
000000
001000
001000
100001
000000
001000
000000
,
000101
010010
100100
010010
,
001000
100010
010001
001000
,
001000
000000
000000
010010
001100
000000
000000
000000
,
000011
011000
110000
001010
,
000000
000000
100000
100000
001010
000000
011000
000000
,
000010
000000
000001
000001
011000
000000
001010
000000
,
010000
001100
101000
001001
,
000110
100000
010100
000001
,
000000
010100
001001
000110
,
101000
001100
000010
010000
,
100001
100000
010010
001010
,
010010
011000
000100
000100
,
000000
000000
000000
000000
010100
000100
000001
000000
,
001000
000000
000000
000000
000110
000100
100000
000000
,
001000
000000
000000
000000
000010
010000
000000
000000
,
000011
110000
001100
100001
,
000000
100001
010010
000000
000000
001000
001100
000000
;

//---------------dance-threepanel - ----------------
#NOTES:
     dance-threepanel:
     :
     Easy:
     4:
     :
000
000
000
000
,
000
000
000
000
,
000
000
000
000
,
000
000
000
000
,
000
000
000
000
,
010
001
010
100
,
001
010
100
010
,
010
001
010
100
,
001
010
001
100
,
001
010
001
000
,
100
000
010
000
,
100
010
100
000
,
001
000
010
000
,
001
000
010
000
,
010
100
010
100
,
010
000
100
000
,
010
001
010
001
,
010
000
010
001
010
000
000
000
,
100
000
001
000
,
100
000
010
100
010
000
000
000
,
001
000
100
000
,
001
010
010
000
,
010
001
010
010
,
010
100
010
000
,
010
010
100
001
,
010
010
100
010
,
000
001
000
010
,
100
000
010
000
,
001
010
100
010
,
000
010
010
001
,
000
010
010
100
,
001
000
010
000
,
100
010
001
010
,
010
010
001
000
,
100
000
010
000
,
010
010
100
000
,
001
000
010
000
,
001
000
100
000
,
010
100
010
100
,
010
000
001
000
,
010
001
010
001
,
010
000
001
010
001
000
000
000
,
100
000
001
000
,
010
000
100
010
100
000
000
000
,
001
000
100
000
,
000
010
010
001
,
000
100
010
010
,
000
001
010
100
,
000
001
010
100
,
001
010
100
010
,
000
010
000
010
,
001
000
100
000
,
101
010
001
010
,
000
100
010
010
,
000
010
001
010
,
100
000
001
000
,
010
010
001
100
,
010
010
001
010
,
000
010
000
010
,
100
010
100
001
,
010
001
010
001
,
000
000
100
010
,
100
000
001
010
,
001
000
010
000
,
010
100
001
010
,
000
010
000
101
;

//---------------dance-threepanel - ----------------
#NOTES:
     dance-threepanel:
     :
     Medium:
     5:
     :
000
000
000
000
,
000
000
000
000
,
000
000
000
000
,
000
000
000
000
,
000
000
000
000
,
010
000
001
010
010
000
000
000
,
001
100
010
010
,
010
000
100
010
010
000
000
000
,
011
010
110
001
,
010
000
010
010
010
000
000
000
,
100
000
010
000
001
100
001
000
,
010
000
010
010
010
000
000
000
,
001
000
010
000
100
001
100
000
,
010
100
010
000
,
010
000
010
000
100
010
100
000
,
010
100
010
000
,
010
000
001
000
100
010
100
000
,
001
000
010
001
010
000
000
000
,
001
100
010
100
,
010
010
010
000
,
001
100
010
100
,
000
010
100
000
010
000
010
000
,
000
001
010
000
010
000
010
000
,
000
100
001
000
000
010
100
000
,
101
010
101
010
,
001
010
010
000
,
100
010
010
000
,
010
000
000
001
100
000
000
000
,
010
100
001
010
,
000
000
001
010
001
000
010
000
,
000
000
010
100
010
000
010
000
,
000
001
100
010
,
100
001
010
001
,
010
000
010
010
010
000
000
000
,
100
000
010
000
001
100
001
000
,
010
000
010
010
010
000
000
000
,
100
000
010
000
001
100
001
000
,
010
001
010
000
,
010
000
010
000
001
010
001
000
,
010
010
100
000
,
010
000
010
000
001
010
001
000
,
010
000
010
010
001
000
000
000
,
010
010
100
100
,
010
000
010
010
100
000
000
000
,
010
010
001
010
,
000
010
100
010
,
001
110
001
010
,
100
010
001
010
,
100
110
001
010
,
001
010
010
000
,
100
010
010
000
,
010
000
000
001
100
000
000
000
,
010
001
010
010
,
000
000
001
010
001
000
010
000
,
000
000
010
100
010
000
010
000
,
000
001
000
100
,
001
010
100
010
,
000
011
100
010
,
000
010
001
010
,
010
001
100
001
,
100
001
010
010
,
000
000
000
000
100
010
100
000
,
001
000
000
000
010
010
100
000
,
001
000
010
010
,
110
001
010
001
,
000
100
010
000
000
001
010
000
;

//---------------dance-threepanel - ----------------
#NOTES:
     dance-threepanel:
     :
     Hard:
     7:
     :
000
000
000
000
,
000
000
000
000
,
000
000
000
000
,
000
000
000
000
,
000
000
000
000
,
010
010
010
000
101
000
000
000
,
010
010
010
000
101
000
000
000
,
010
010
010
000
101
000
000
000
,
110
000
101
000
010
010
010
000
,
101
000
010
100
010
000
000
000
,
110
000
011
000
010
010
101
000
,
101
000
010
010
010
000
000
000
,
110
000
011
000
100
010
010
000
,
110
011
010
000
,
100
000
001
000
010
010
101
000
,
010
001
110
000
,
010
000
101
000
010
010
101
000
,
101
000
010
010
101
000
000
000
,
010
100
001
010
,
100
001
100
000
,
010
101
010
110
,
000
100
010
000
101
000
010
000
,
000
001
010
000
101
000
010
000
,
000
001
010
000
000
100
010
000
,
110
101
010
101
,
010
001
010
100
,
010
110
101
010
,
010
000
000
011
110
000
000
000
,
001
010
100
011
,
000
000
010
100
011
000
010
000
,
000
000
010
001
110
000
010
000
,
000
010
110
011
,
011
100
010
001
,
101
000
010
100
010
000
000
000
,
110
000
011
000
010
010
101
000
,
101
000
010
010
010
000
000
000
,
110
000
011
000
100
010
010
000
,
110
011
010
000
,
100
000
001
000
010
010
101
000
,
010
001
110
000
,
010
000
101
000
010
010
101
000
,
101
000
010
010
101
000
000
000
,
010
100
001
010
,
100
001
100
000
,
010
101
010
110
,
000
000
010
100
001
000
010
001
,
010
000
010
010
100
000
010
100
,
010
000
010
010
001
000
010
001
,
010
000
010
010
101
000
010
000
,
011
101
110
101
,
010
110
101
010
,
010
000
000
101
010
000
000
000
,
001
010
100
011
,
000
000
100
100
011
000
110
000
,
010
000
001
001
110
000
011
000
,
100
010
110
011
,
011
100
010
001
,
000
110
011
011
,
110
010
001
010
,
101
010
101
010
,
101
110
010
010
,
000
000
000
000
110
100
001
000
,
010
000
000
000
011
001
100
000
,
010
000
000
000
001
100
000
000
,
001
100
010
101
,
000
101
101
000
000
010
010
000
;
