#TITLE:FLASH IN THE NIGHT;
#ARTIST:FLASHMAN;
#BANNER:FLASH IN THE NIGHT-bn.png;
#BACKGROUND:FLASH IN THE NIGHT-bg.png;
#JACKET:FLASH IN THE NIGHT-jacket.png;
#DISCIMAGE:;
#MUSIC:FLASH IN THE NIGHT.ogg;
#SAMPLESTART:51.64;
#SAMPLELENGTH:20;
#DISPLAYBPM:158;
#BPMS:0=158.008;
#BGCHANGES:0=FLASH IN THE NIGHT.mp4=1=0=0=0,
;

//---------------dance-single - ----------------
#NOTES:
     dance-single:
     :
     Beginner:
     1:
     :
0000
0000
0000
0000
,
0000
0000
0000
0000
,
1001
0000
0000
0000
,
0000
0000
0000
0000
,
0010
0000
1000
0000
,
0100
0000
0000
0000
,
1000
0000
0001
0000
,
0010
0000
0000
0000
,
0001
0000
0100
0000
,
0010
0000
0000
0000
,
0000
0000
1000
0000
,
0100
0000
1000
0000
,
0010
0000
0100
0000
,
0001
0000
0000
0000
,
0010
0000
0000
0000
,
0000
0000
0000
0000
,
0100
0000
0000
0000
,
1000
0000
0001
0000
,
1001
0000
0000
0000
,
0010
0000
1000
0000
,
0010
0000
0100
0000
,
0001
0000
0000
0000
,
1000
0000
0000
0000
,
0000
0000
0000
0000
,
0001
0000
0000
0000
,
0000
0000
0000
0000
,
0010
0000
0000
0000
,
0010
0000
0000
0000
,
1000
0000
0000
0000
,
1000
0000
0000
0000
,
0001
0000
0000
0000
,
0001
0000
0000
0000
,
0100
0000
0000
0000
,
0100
0000
0000
0000
,
0010
0000
0010
0000
,
0100
0000
0100
0000
,
0001
0000
1000
0000
,
0001
0000
0000
0000
,
1000
0000
1000
0000
,
0100
0000
0100
0000
,
1000
0000
0001
0000
,
0010
0000
0000
0000
,
0001
0000
0100
0000
,
0001
0000
0010
0000
,
0100
0000
1000
0000
,
1000
0000
0000
0000
,
0010
0000
0100
0000
,
0010
0000
1000
0000
,
0001
0000
0100
0000
,
0010
0000
1000
0000
,
1001
0000
0000
0000
,
0000
0000
0000
0000
,
0010
0000
1000
0000
,
0001
0000
0000
0000
,
0010
0000
0100
0000
,
1000
0000
0000
0000
,
0001
0000
0100
0000
,
0010
0000
0000
0000
,
1001
0000
0000
0000
;

//---------------dance-single - ----------------
#NOTES:
     dance-single:
     :
     Easy:
     4:
     :
0000
0000
0000
0000
,
0000
0000
0000
0000
,
1000
0000
0001
0000
,
0001
0000
0001
0000
,
0010
0000
0001
0000
,
0001
0000
0001
0000
,
1000
0000
0001
0000
,
0001
0000
0001
0000
,
0010
0000
0001
1000
,
0001
0000
0000
0000
,
0001
1000
0000
1000
,
0001
1000
0000
1000
,
0001
1000
0000
1000
,
0100
0000
0010
0000
,
0002
0000
0000
0003
,
0000
0000
0000
0000
,
2000
0000
0000
3000
,
0001
0000
0100
0010
,
1000
0001
0000
0001
,
0100
0001
0000
0001
,
0010
0001
0000
0001
,
0100
0000
0010
0000
,
2000
0000
0000
3000
,
0000
0000
0100
0000
,
0020
0000
0000
0030
,
0001
0000
0001
0000
,
0100
0010
0010
0000
,
1000
0100
0100
0001
,
0100
0010
0010
0000
,
1000
0100
0001
0100
,
1000
0010
0010
0000
,
0100
0001
0001
0010
,
0100
0000
0100
0000
,
0010
0000
0100
0100
,
1001
0000
0000
0000
,
1000
0001
1000
0100
,
0000
0010
0000
0001
,
0000
0100
0000
0010
,
1001
0000
0000
0000
,
1000
0001
0100
0010
,
1000
0000
0001
0000
,
0100
0000
0010
0010
,
1001
0000
0000
0000
,
1000
0100
0001
0100
,
0000
0010
0000
1000
,
0000
0100
0000
0010
,
1001
0000
0000
0000
,
1000
0001
0100
0010
,
1000
0000
0001
0000
,
0110
0000
0001
1000
,
0100
0000
0010
0000
,
0010
0000
0010
0000
,
0001
0000
1000
0000
,
1000
0000
1000
0000
,
0010
0000
0100
0000
,
0100
0000
0100
0000
,
0001
0000
0010
0000
,
0100
0000
1000
0001
,
0110
0000
0000
0000
,
0000
0000
0000
0000
;

//---------------dance-single - ----------------
#NOTES:
     dance-single:
     :
     Medium:
     6:
     :
0000
0000
0000
0000
,
0000
0000
0000
0000
,
0001
0000
0000
1000
0000
0000
0001
0000
,
0000
1000
0000
0000
0001
0000
1000
0000
,
0100
0000
0000
1000
0000
0000
0100
0000
,
0000
1000
0000
0000
0100
0000
0010
0000
,
0001
0000
0000
1000
0000
0000
0001
0000
,
0000
1000
0000
0000
0001
0000
1000
0000
,
0100
0000
0000
1000
0000
0000
0001
0000
,
0100
0000
0000
0000
,
1000
0100
1000
0001
,
1000
0100
1000
0001
,
1000
0100
1000
0001
,
1000
0010
0100
0000
0001
0010
0100
0000
,
1000
1000
1000
0101
,
1000
1000
1000
0110
,
1000
1000
1000
0101
,
1000
1000
0010
0100
,
0001
1000
0001
0010
,
0001
1000
0001
0010
,
0001
1000
0001
0010
,
0001
1000
0100
0000
0001
1000
0010
0000
,
0001
0001
0001
0110
,
1000
1000
1000
0101
,
0010
0010
0010
1001
,
0100
0100
0100
0100
,
1000
0001
1000
0001
,
1000
0100
0001
0100
,
0010
1000
0100
0001
,
1000
0010
0100
0001
,
1000
0001
1000
0001
,
0010
0100
1000
0001
,
0200
0000
0300
0020
0000
0030
0200
0000
,
0300
0000
0001
0000
1000
0100
0010
0000
,
2002
0000
0000
0003
,
0100
0001
0100
3001
,
0000
0110
0000
1100
,
0000
0011
0000
0110
,
2002
0000
0000
0003
,
0100
0001
0100
3001
,
0100
0010
1000
0100
,
0020
0030
0001
1000
,
2002
0000
0000
0003
,
0100
0001
0100
3001
,
0000
0110
0000
1010
,
0000
0101
0000
0110
,
2002
0000
0000
0003
,
0100
0001
0100
3001
,
0100
0010
1000
0000
,
2002
3003
0100
0010
,
2002
0000
0000
0000
,
0000
0000
0000
0000
,
0000
0000
0000
0000
,
0000
0000
0000
3003
,
0010
0100
0001
1000
,
0100
0001
0100
0010
,
1000
0100
0001
0100
,
1000
0000
0001
0000
,
0110
0000
0000
0000
,
0000
0000
0000
0000
;

//---------------dance-single - ----------------
#NOTES:
     dance-single:
     :
     Hard:
     11:
     :
0000
0000
0000
0000
,
0000
0000
0000
0000
,
1001
0010
1000
0000
0100
0010
0000
0001
,
1000
0000
0010
0001
0100
0010
1000
0001
,
0010
0100
1000
0000
0010
1000
0000
0001
,
0100
0000
0010
1000
0000
0100
0010
0001
,
0100
0010
0100
0000
0001
0010
0000
0100
,
1000
0000
0010
1000
0100
0010
0001
0100
,
0001
0010
1000
0000
0100
0010
0001
0000
,
1000
0001
0010
0001
0100
0010
1000
0100
,
1001
0000
0010
0001
0100
0010
1000
0100
,
0001
0000
0010
0100
0010
0001
0100
0010
,
0000
1010
0000
0101
0000
1100
0000
0011
,
0000
0100
1000
0000
0001
0100
0010
1000
,
1100
0000
0000
0101
0000
0000
0011
0000
,
1000
0100
0010
0000
0001
0100
0010
1000
,
1010
0000
0000
0101
0000
0000
1100
0000
,
0001
0010
0001
0100
0010
1000
0100
0010
,
1001
0000
0001
0010
0001
0100
0010
1000
,
0000
0100
1000
0010
1000
0100
0010
0001
,
0000
0101
0000
0011
0000
0110
0000
1100
,
0000
0010
1000
0000
0001
1000
0010
0100
,
0101
0000
0000
1100
0000
0000
0011
0000
,
0100
0010
0001
0000
0100
0010
1000
0001
,
1001
0000
0000
1010
0000
0000
1100
0000
,
0010
0001
0100
0010
1000
0100
0001
0100
,
1000
0000
0010
0100
0000
0001
0100
0000
,
0010
1000
0100
0000
1001
0000
0110
0000
,
1000
0000
0010
0100
0000
0001
1000
0000
,
0100
0010
0002
0000
2003
0000
3020
0000
,
0130
0000
0010
1000
0000
0001
0010
0000
,
0100
1000
0001
0000
0011
0000
1100
0000
,
0001
0000
0100
0010
0000
1000
0001
0000
,
1000
2000
0000
0001
0000
0010
3010
0100
,
1001
0000
0010
0000
1000
0100
0010
0001
,
0100
0010
1000
0000
0001
0010
0001
0100
,
0010
1000
0001
0000
0010
0100
0000
1100
,
0000
0101
0000
1010
0000
0101
0010
0000
,
1001
0100
0010
0000
0110
0000
1000
0001
,
0010
0100
1000
0000
0010
0100
0000
0002
,
0000
0023
0000
0230
0000
1300
0001
0100
,
0010
1000
0100
0010
0001
0100
1000
0000
,
0110
0001
1000
0000
1001
0000
0010
1000
,
0100
0010
0001
0000
0100
0010
0100
0001
,
0010
0100
1000
0000
0001
1000
0000
1100
,
0000
0011
0000
0101
0000
1010
0100
0000
,
0110
0000
0001
0010
0001
0100
0010
1000
,
0001
0010
0100
0000
1000
1000
0010
0200
,
0000
0302
0000
0023
0000
0031
1000
0000
,
1010
0100
0001
0000
0011
0000
1100
0000
,
1001
0010
1000
0000
0100
1000
0000
0001
,
0100
0000
0001
0010
0100
1000
0010
0100
,
1000
0100
0001
0000
0010
0100
0000
1000
,
0010
0000
0100
0001
0000
1000
0001
0100
,
0001
0010
1000
0000
0100
1000
0000
0010
,
0100
0000
0001
0010
1000
0001
0100
0010
,
1000
0100
0010
0000
0001
0100
0010
0000
,
1000
0100
0010
0001
0100
0010
1000
0001
,
1001
0000
0000
0000
;

//---------------dance-single - ----------------
#NOTES:
     dance-single:
     :
     Challenge:
     13:
     :
0000
0000
0000
0000
,
0000
0000
0000
0000
,
0001
1000
0100
0000
0100
0000
1000
0001
0100
0000
0100
0000
0001
0010
0100
0000
,
0100
0000
1000
0010
0100
0000
0100
0000
0001
0010
0001
0000
1000
0100
1000
0000
,
0001
0100
0010
0000
0010
0000
1000
0100
0010
0000
0010
0000
0001
1000
0100
0000
,
0100
0000
0010
0001
0100
0000
0100
0000
0010
1000
0010
0000
0100
0001
0100
0000
,
0010
1000
0100
0000
0100
0000
0010
0001
0100
0000
0100
0000
0010
1000
0001
0000
,
0001
0000
0010
0100
1000
0000
1000
0000
0010
0100
0010
0000
1000
0100
1000
0000
,
0001
0010
0100
0000
0100
0000
1000
0010
0100
0000
0100
0000
0001
1000
0100
0000
,
0010
0001
0100
0010
1000
0001
0100
0010
,
1000
0100
0010
0100
1000
0001
1000
0100
,
0010
0001
1000
0100
0010
0100
1000
0001
,
1000
0100
0010
0100
1000
0001
1000
0100
,
0010
0001
1000
0100
0010
0001
0100
0010
,
1001
0000
0000
0110
0000
0000
1001
0000
,
0010
0100
0010
0100
0001
0010
0100
1000
,
0101
0000
0000
0011
0000
0000
1100
0000
,
0001
0100
0010
1000
0100
0010
0100
1000
,
0001
0100
0010
0100
0001
1000
0001
0100
,
0010
1000
0001
0100
0010
0100
0001
1000
,
0001
0100
0010
0100
0001
1000
0001
0100
,
0010
1000
0001
0100
0010
1000
0100
0010
,
1001
0000
0000
0110
0000
0000
1001
0000
,
0010
0100
0010
0100
1000
0010
0100
0001
,
1100
0000
0000
1010
0000
0000
0101
0000
,
1000
0100
0010
0001
0100
0010
1000
0001
,
0220
0000
0330
2002
0000
3003
0220
0000
,
0330
0000
1100
1010
,
0202
0000
0303
2002
0000
3003
0220
0000
,
0330
0001
0011
1100
,
2020
0000
3030
0202
0000
0303
0220
0000
,
0330
0000
1001
0110
,
0022
0000
0033
0202
0000
0303
2020
0000
,
0000
0000
0000
3030
,
0001
0100
1000
0100
0100
0001
1000
0100
,
0010
0001
0100
0001
0010
0100
1000
0010
,
0100
0100
1001
0000
0100
0100
1001
0000
,
0100
0010
1000
0100
0010
0001
0001
0001
,
1000
0100
0001
0100
0100
1000
0001
0100
,
0010
1000
0100
1000
0010
0100
0001
0010
,
0100
0100
1001
0000
0100
0100
1001
0000
,
0100
0010
0001
0100
0010
1000
1000
1000
,
0001
0010
1000
0010
0001
0100
0100
0010
,
1000
0100
0010
0001
1000
0100
0010
0001
,
0100
0100
1100
0000
0010
0010
0101
0000
,
0010
1000
0100
0010
0001
1000
1000
1000
,
0010
0100
0001
0100
1000
1000
0100
0001
,
0010
1000
0010
0001
0010
1000
0001
0100
,
0010
0010
1001
0000
0100
0100
1001
0000
,
0110
0000
1010
0101
,
1000
0100
0010
0000
0010
0000
0001
1000
0100
0000
0100
0000
0010
0001
0100
0000
,
0100
0000
0010
1000
0001
0000
0001
0000
0010
0100
0010
0000
0001
0100
0001
0000
,
1000
0100
0010
0000
0010
0000
0001
1000
0100
0000
0100
0000
0010
0001
1000
0000
,
1000
0000
0010
0100
0001
0000
0001
0000
1000
0100
1000
0000
0001
0010
0001
0000
,
1000
0010
0100
0000
0100
0000
0001
1000
0100
0000
0100
0000
0010
0001
0100
0000
,
0100
0000
0010
1000
0001
0000
0001
0000
0100
0010
1000
0000
0100
0010
0001
0000
,
0100
0010
1000
0000
1000
0000
0001
0100
0010
0000
0010
0000
1000
0100
0010
0000
,
0001
1000
0010
0100
0001
0010
0100
1000
,
0101
0000
0000
0000
;

//---------------dance-double - ----------------
#NOTES:
     dance-double:
     :
     Easy:
     5:
     :
00000000
00000000
00000000
00000000
,
00000000
00000000
00000000
00000000
,
00000000
00000000
00000000
00000000
,
00000000
00000000
00000000
00000000
,
00000001
00000000
00000001
00000000
,
00001000
00000000
00000100
00000000
,
00010000
00000000
00010000
00000000
,
00001000
00000000
00100000
00000000
,
01000000
00000000
10000000
00000000
,
00010000
00000000
01000000
00000000
,
00100000
00100000
00000000
00000000
,
01000000
01000000
00000000
00000000
,
00001000
00001000
00000000
00000000
,
00010000
00000000
00000010
00000000
,
00001000
00000001
00001000
00000000
,
00000000
00000100
00000000
00000100
,
00010000
00001000
00010000
00000000
,
00000000
01000000
00000000
01000000
,
10000000
10000000
00000000
00000000
,
00010000
00010000
00000000
00000000
,
01000000
01000000
00000000
00000000
,
00100000
00000000
10000000
00000000
,
01000000
00010000
00001000
00000000
,
00000000
00000100
00000000
00000100
,
00000001
00000010
00000100
00000000
,
00000000
00001000
00000000
00001000
,
00000010
00000100
00000000
00000100
,
00000000
00000100
00000000
00000100
,
00001000
00010000
00000000
00010000
,
00000000
00010000
00000000
00010000
,
00100000
10000000
00000000
10000000
,
00000000
10000000
00000000
10000000
,
01000000
00010000
00000000
00010000
,
00000000
00010000
00001000
00100000
,
10010000
00000000
00000000
00000000
,
01000000
00010000
00001000
00000000
,
00000000
00000100
00000000
00000001
,
00000000
00001000
00000000
00000100
,
00011000
00000000
00000000
00000000
,
00100000
01000000
10000000
00000000
,
00000000
00010000
00000000
01000000
,
00000000
00001000
00010000
00000010
,
00001100
00000000
00000000
00000000
,
00000001
00000010
00000100
00000000
,
00000000
00010000
00000000
00001000
,
00000000
00100000
00000000
00010000
,
11000000
00000000
00000000
00000000
,
00100000
01000000
00001000
00000000
,
00000000
00010000
00000000
00000010
,
00001001
00000000
00000100
00000010
,
00001000
00000000
00000100
00000000
,
00010000
00000000
00001000
00000000
,
00100000
00000000
00010000
00000000
,
00001000
00000000
00000100
00000000
,
00000001
00000000
00001000
00000000
,
00000100
00000000
00010000
00000000
,
00001000
00000000
00100000
00000000
,
01000000
00000000
00010000
00000000
,
00011000
00000000
00000000
00000000
,
00000000
00000000
00000000
00000000
;

//---------------dance-double - ----------------
#NOTES:
     dance-double:
     :
     Medium:
     6:
     :
00000000
00000000
00000000
00000000
,
00000000
00000000
00000000
00000000
,
00000000
00000000
00000000
00000000
,
00000000
00000000
00000000
00000000
,
00000001
00000100
00001000
00000100
,
00000001
00000100
00001000
00000100
,
00000010
00000001
00000100
00001000
,
00000010
00000001
00000100
00001000
,
00010000
00010000
01000000
01000000
,
00010000
00001000
00000100
00000001
,
00000010
00000000
00000010
00000000
00000010
00000000
00000010
00000100
,
00001000
00000000
00001000
00000000
00001000
00000000
00001000
00000001
,
00000100
00000100
00000100
00000100
,
00001010
00000000
00010100
00000000
,
00001000
00100000
00010000
00000100
,
00001000
00000001
00000100
00001000
,
00010000
00100000
00001000
00000100
,
00000001
00001000
00000100
00000010
,
00000001
00000000
00000001
00000000
00000001
00000000
00000001
00000100
,
00000010
00000000
00000010
00000000
00000010
00000000
00000010
00001000
,
00000100
00000100
00000100
00000100
,
00011000
00000000
00110000
00000000
,
01000000
00010000
00001000
00000100
,
00000001
00001000
00000100
00000010
,
00000001
00000100
00001000
00010000
,
00000100
00000010
00000001
00000100
,
00000010
00000010
00000010
00000010
,
00001000
00000100
00010000
00010000
,
00001000
00001000
00001000
00001000
,
00001010
00000000
00000101
00000000
,
00000010
00000010
00000010
00000010
,
00001000
00001000
00001000
00001000
,
00000100
00000100
00000100
00000100
,
00010000
00011000
00100000
00110000
,
10010000
00000000
01100000
00000000
,
00010000
10000000
00010000
01100000
,
00001000
00010000
01000000
10000000
,
00010000
00100000
10000000
00100000
,
01010000
00000000
11000000
00000000
,
00010000
01000000
10000000
01000000
,
00100000
00010000
01000000
00100000
,
02000000
03000000
00000000
00000000
,
10010000
00000000
01100000
00000000
,
00010000
10000000
00010000
01100000
,
00010000
10000000
01000000
00010000
,
00001000
00000100
00010000
01000000
,
10010000
00000000
01100000
00000000
,
00010000
10000000
01000000
00100000
,
00010000
01000000
00001000
00010000
,
10010000
00000000
01100000
00000000
,
00001000
00010000
00000010
00000001
,
00001000
00000100
00000010
00000001
,
00000100
00000010
00001000
00000100
,
00010000
00001000
00000100
00000001
,
00000010
00000100
00001000
00000001
,
00000010
00000100
00001000
00000001
,
00000100
00001000
00010000
01000000
,
20000000
30000000
00100000
01000000
,
10010000
00000000
00000000
00000000
,
00000000
00000000
00000000
00000000
;

//---------------dance-double - ----------------
#NOTES:
     dance-double:
     :
     Hard:
     11:
     :
00000000
00000000
00000000
00000000
,
00000000
00000000
00000000
00000000
,
00001001
00000010
00010000
00000000
00001000
01000000
00000000
00100000
,
10000000
00000000
01000000
00100000
00000000
00001000
00010000
00000010
,
00000100
00000001
00000010
00000000
00000100
00001000
00000000
00000010
,
00010000
00000000
00001000
01000000
00000000
00100000
01000000
00001000
,
00010000
00001000
00100000
00000000
01000000
10000000
00000000
00100000
,
01000000
00000000
00001000
00010000
00000000
00000010
00001000
00000001
,
00000010
00000100
00001000
00000000
00000010
00010000
00001000
00000000
,
00010000
00000010
00000100
00001000
00000100
00000001
00000010
00000100
,
00011000
00000000
01000000
00100000
01000000
00010000
00100000
01000000
,
00000000
00000000
10000000
00100000
01000000
00010000
00100000
00001000
,
00000000
00010100
00000000
00001001
00000000
00000110
00000000
00010010
,
00000000
00000000
00000000
00000000
00000010
00000100
00000001
00001000
,
00010010
00000000
00000000
01001000
00000000
00000000
01100000
00000000
,
00000000
00000000
00000000
00000000
10000000
01000000
10000000
00010000
,
10100000
00000000
00000000
10010000
00000000
00000000
00101000
00000000
,
00010000
00001000
01000000
00100000
01000000
10000000
01000000
00001000
,
00011000
00000000
00010000
00000010
00000100
00001000
00000100
00000010
,
00000000
00001000
00000010
00000100
00000001
00000010
00000100
00010000
,
00000000
00010100
00000000
01001000
00000000
00110000
00000000
11000000
,
00000000
00000000
00000000
00000000
01000000
10000000
00010000
01000000
,
10010000
00000000
00000000
01001000
00000000
00000000
01100000
00000000
,
00000000
00000000
00000000
00000000
00100000
10000000
00010000
01000000
,
10100000
00000000
00000000
01001000
00000000
00000000
00010100
00000000
,
00000001
00000110
00000000
00000010
00001000
00000100
00001000
00000001
,
00000011
00000000
00000000
00011000
00000000
00000000
01001000
00000000
,
00100000
10000000
00010000
00000000
01100000
00000000
10010000
00000000
,
11000000
00000000
00000000
01100000
00000000
00000000
00101000
00000000
,
00010000
00001000
02000000
00000000
03200000
00000000
02300000
00000000
,
03010000
00000000
00000000
00110000
00000000
00000000
00010010
00000000
,
00000000
00000100
00001000
00000000
00001010
00000000
00000101
00000000
,
00010010
00000000
00000000
00001100
00000000
00000000
01001000
00000000
,
00100000
00200000
00000000
10000000
00000000
01000000
01300000
00010000
,
10010000
00000000
00000000
00000000
10000000
00100000
01000000
00010000
,
00100000
01000000
10000000
00000000
00100000
01000000
00010000
10000000
,
01000000
00100000
00010000
00000000
00000100
00000010
00000000
00001010
,
00000000
00000101
00000000
00000011
00000000
00001100
00010000
00000000
,
00011000
00000000
00000000
00000000
00010000
00001000
01000000
00100000
,
10000000
01000000
00010000
00000000
01000000
00100000
00000000
00020000
,
00000000
02030000
00000000
03200000
00000000
10300000
01000000
00100000
,
00010000
01000000
00100000
01000000
00001000
00010000
00000010
00000000
,
00001001
00000000
00000000
00000000
00000010
00001000
00000100
00000010
,
00000001
00000100
00000010
00000000
00010000
00000100
00001000
00000010
,
00000100
00001000
00010000
00000000
01000000
10000000
00000000
11000000
,
00000000
01001000
00000000
00110000
00000000
10100000
00001000
00000000
,
00011000
00000000
00000000
00000000
00000010
00010000
00000100
00001000
,
00000010
00000100
00000001
00000000
00000010
00000100
00000000
00002000
,
00000000
00003020
00000000
00000230
00000000
00000301
00001000
00000000
,
00010100
00000000
00011000
01001000
,
10010000
00100000
01000000
00000000
00010000
00100000
00000000
00001000
,
00010000
00000000
01000000
00100000
00000000
10000000
01000000
00010000
,
00000100
00000001
00000010
00000000
00000100
00001000
00000000
00000010
,
00010000
00000000
00001000
00100000
00000000
00001000
00010000
00000100
,
00000010
00010000
00000010
00000000
00000001
00000100
00000000
00000010
,
00010000
00000000
00001000
01000000
00000000
00100000
01000000
00010000
,
10000000
01000000
00100000
00000000
01000000
10000000
00010000
00000000
,
01000000
00100000
01000000
00001000
00010000
00000010
00000100
00000001
,
00001001
00000000
00000000
00000000
;

//---------------dance-double - ----------------
#NOTES:
     dance-double:
     :
     Challenge:
     12:
     :
00000000
00000000
00000000
00000000
,
00000000
00000000
00000000
00000000
,
10000000
01000000
01000000
00100000
00010000
00010000
01000000
00001000
,
00001000
00010000
00000100
00000100
00000010
00000001
00000100
00000010
,
00001000
00000100
00000100
00010000
00001000
00001000
00100000
00010000
,
00010000
10000000
01000000
01000000
00100000
00010000
01000000
00100000
,
10000000
00010000
00010000
01000000
00001000
00001000
00010000
00000010
,
00000010
00001000
00000100
00000100
00000010
00000001
00000100
00000010
,
00001000
00000001
00000001
00000010
00000100
00000100
00010000
00001000
,
01000000
00100000
10000000
01000000
00010000
00001000
00000100
00000001
,
00001000
00001000
00000100
00000100
00000010
00000001
00000100
00000010
,
00001000
00001000
00000100
00000100
00010000
00001000
00000100
00000001
,
00001000
00001000
00000100
00000100
00010000
00010000
00001000
00001000
,
00100000
00010000
00100000
00000000
01000000
10000000
01000000
00000000
,
00200000
00000000
00300000
00002000
00000000
00003000
00020000
00000000
,
00030000
00000000
00000000
00000000
00000010
00000100
00000001
00001000
,
00000200
00000000
00000300
00020000
00000000
00030000
00002000
00000000
,
00003000
00000000
00000000
00000000
00100000
00010000
01000000
00010000
,
10000000
10000000
01000000
01000000
00100000
00010000
01000000
00100000
,
10000000
10000000
01000000
01000000
00010000
00001000
00010000
00000100
,
00000010
00000010
00000001
00000001
00000100
00000100
00000010
00000010
,
00001000
00000100
00010000
00000000
00001000
00000100
00000001
00000000
,
00002000
00000000
00003000
00000200
00000000
00000300
00020000
00000000
,
00030000
00000000
00000000
00000000
00001000
00100000
00010000
01000000
,
00200000
00000000
00300000
20000000
00000000
30000000
02000000
00000000
,
03000000
00000000
00100000
00000000
00100000
00010000
01000000
00001000
,
00010000
00010000
00010000
00000100
00000100
00000100
00000010
00000000
,
00000001
00000100
00000010
00001000
00000100
00000010
00000001
00000000
,
00001000
00001000
00001000
00000100
00000100
00000100
00010000
00000000
,
00000010
00000100
00001000
00010000
01000000
10000000
00010000
00000000
,
01000000
01000000
01000000
00100000
00100000
00100000
10000000
00000000
,
01000000
00100000
00010000
01000000
00001000
00001000
00001000
00000000
,
00010000
00010000
00010000
00000010
00000010
00000010
00000100
00000000
,
00000001
00000010
00000100
00001000
00000001
00000100
00000010
00000000
,
00002002
00000000
00000000
00003003
,
00000100
00000100
00010000
00010000
00001000
00001000
00100000
00000000
,
00010000
01000000
00100000
00000000
10000000
01000000
00100000
00000000
,
00010000
10000000
00100000
01000000
00001000
00010000
01000000
00000000
,
20020000
00000000
00000000
30030000
,
01000000
01000000
00100000
00100000
00001000
00001000
00010000
00000000
,
00000100
00000010
00000001
00000000
00000100
00000010
00001000
00000000
,
00000100
00000010
00000001
00000100
00001000
00010000
01000000
00000000
,
20020000
00000000
00000000
30030000
,
00100000
00100000
00001000
00001000
00010000
00010000
00000100
00000000
,
00000010
00000001
00000100
00000000
00000010
00001000
00000100
00000000
,
00000010
00000001
00000100
00001000
00010000
00000100
00000010
00000000
,
00002002
00000000
00000000
00003003
,
00000100
00000100
00001000
00001000
00010000
00010000
00100000
00000000
,
10000000
01000000
00100000
00000000
00010000
01000000
00100000
00000000
,
10010000
00000000
00000000
00000000
01000000
00100000
00010000
00000000
,
01000000
00001000
00001000
00010000
00000010
00000010
00001000
00000001
,
00000001
00000010
00000100
00000100
00001000
00000010
00000100
00001000
,
00010000
01000000
01000000
10000000
00100000
00100000
01000000
00010000
,
00010000
00100000
00001000
00001000
00010000
01000000
10000000
00010000
,
01000000
00001000
00001000
00010000
00000010
00000010
00001000
00000001
,
00000001
00000010
00000100
00000100
00001000
00000010
00000100
00001000
,
00010000
01000000
01000000
10000000
00100000
00100000
01000000
00010000
,
00100000
01000000
00010000
00001000
00000100
00000001
00000010
00000100
,
00001001
00000000
00000000
00000000
;
