#TITLE:FIRE DUB;
#ARTIST:ASLETICS;
#BANNER:FIRE DUB.png;
#BACKGROUND:FIRE DUB-bg.png;
#JACKET:FIRE DUB-jacket.png;
#MUSIC:FIRE DUB.ogg;
#OFFSET:-0.05;
#SAMPLESTART:16.991;
#SAMPLELENGTH:20;
#DISPLAYBPM:170;
#BPMS:0=170;
#BGCHANGES:;

//---------------dance-single - ----------------
#NOTES:
     dance-single:
     :
     Beginner:
     3:
     :
0000
0000
0000
0000
,
0000
0000
0000
0000
,
0000
0000
0000
0000
,
0000
0000
0000
0000
,
1001
0000
0000
0000
,
1000
0000
0001
0000
,
1001
0000
0000
0000
,
0100
0000
0010
0000
,
0110
0000
0000
0000
,
1000
0000
0001
0000
,
0110
0000
0000
0000
,
0100
0000
0010
0000
,
2000
0000
3000
0000
,
0001
0000
0001
0000
,
0200
0000
0300
0000
,
0020
0000
0030
0000
,
2000
0000
3000
0000
,
0100
0000
0100
0000
,
0020
0000
0030
0000
,
0002
0000
0003
0000
,
0100
0000
0000
0010
,
0010
0000
0000
1000
,
1000
0000
0000
0001
,
0000
0000
0000
1000
,
1000
1000
0000
0010
,
0010
0000
0000
0100
,
0100
0100
0100
0000
,
0001
0000
1000
0000
,
1001
0000
0000
0000
,
0100
0000
0010
0000
,
1001
0000
0000
0000
,
1000
0000
0001
0000
,
0110
0000
0000
0000
,
0100
0000
0010
0000
,
0110
0000
0000
0000
,
1001
0000
0110
0000
,
1000
0000
1000
0000
,
1000
0000
0000
0000
,
0001
0000
0001
0000
,
0001
0000
0000
0000
,
0100
0000
0100
0000
,
0010
0000
0010
0000
,
1000
0000
0000
0000
,
0100
0000
0100
0000
,
1000
0000
0001
0000
,
1000
0000
0000
0000
,
0010
0000
0100
0000
,
0010
0000
0000
0000
,
1000
0000
0100
0000
,
1000
0000
0000
0000
,
0001
0000
0100
0000
,
0001
0000
0100
0000
,
0010
0020
0030
0000
,
0200
0000
0300
0000
,
1001
0000
0000
0000
;

//---------------dance-single - ----------------
#NOTES:
     dance-single:
     :
     Easy:
     6:
     :
0000
0000
0000
0000
,
0000
0000
0000
0000
,
0000
0000
0000
0000
,
0000
0000
0000
0000
,
1001
0000
1000
0100
0000
0000
0000
0000
,
0000
0000
1000
0001
1000
0001
0000
0000
,
1001
0000
0001
0100
0000
0000
0000
0000
,
0000
0000
0010
0000
0000
0100
0000
0000
,
0110
0000
0001
0010
0000
0000
0000
0000
,
1000
1000
0001
0001
,
0110
0000
1000
0010
0000
0000
0001
0001
,
0000
0000
1100
0000
0000
0101
0000
0000
,
2200
0000
0000
3000
,
2300
3002
0200
0303
,
0202
0000
0000
0300
,
1003
0001
1000
0002
0000
0000
0003
0000
,
2002
0000
0000
3000
,
0203
0320
2000
3030
,
0220
0000
0000
0300
,
1030
0001
1000
0002
0000
0000
0003
0000
,
0002
0100
1003
0000
,
2000
0100
3001
0000
,
0020
1000
0130
0000
,
0020
0001
0130
0000
,
0002
1000
0103
0000
,
2000
0100
3010
0000
,
0200
0010
0301
0000
,
0020
0001
1030
0000
,
0001
0101
1000
1100
,
0010
0100
0001
1000
,
0010
0101
0010
1100
,
1000
0100
0010
0001
,
1000
1001
0010
0110
,
0100
0001
0010
1000
,
0010
0100
0001
1000
,
0001
0100
0001
1000
0100
0000
0000
0000
,
2002
3003
0010
0100
,
0002
0000
1003
0000
,
0220
0330
0010
0100
,
0002
0000
1003
0000
,
2002
3003
0010
0100
,
0002
0000
1003
0001
,
0100
0001
1000
0110
,
0000
0101
0000
1100
,
2001
0100
0010
3001
,
0102
0010
0100
1003
,
0201
1000
0010
0301
,
2100
0010
0001
3100
,
0120
0100
0001
1030
,
2100
0100
0001
3010
,
1200
1300
0201
0301
,
1002
0103
0120
1030
,
0001
0100
2000
0000
0000
0000
0000
0000
,
0020
0000
0000
3030
,
2002
0000
0000
0000
,
0000
0000
0000
3003
;

//---------------dance-single - ----------------
#NOTES:
     dance-single:
     :
     Medium:
     9:
     :
0000
0000
0000
0000
,
0000
0000
0000
0000
,
0000
0000
0000
0000
,
0000
0000
0000
0000
,
1001
0000
1000
0100
1000
0000
0001
0000
,
0100
0000
0001
1000
0001
1000
0001
0000
,
1001
0000
0010
0100
0010
0000
1000
0000
,
0001
0100
0001
0000
1000
0100
1000
0000
,
0110
0000
1000
0001
1000
0000
0010
0000
,
1000
1100
0001
0101
,
0110
0000
0010
1000
0000
0000
0001
0001
,
1000
0000
1100
0000
0000
0101
0000
0000
,
2002
3000
0020
0030
,
1003
0001
0200
0000
0020
0000
0330
0000
,
2020
0030
0002
0003
,
3010
0100
0002
2000
0000
0000
3003
0000
,
0202
0003
2000
3000
,
0301
0100
0020
0000
2000
0000
3030
0000
,
2200
3000
0002
0003
,
1300
0100
0020
0002
0000
0000
0033
0000
,
1000
0002
0000
0000
0000
0103
0001
0100
,
0020
0000
0000
2030
,
3010
0200
0000
0000
0000
0000
0301
2000
,
0100
0000
0000
0000
0000
0000
3010
1000
,
0010
0100
0020
0000
0000
1030
0010
1000
,
0002
0000
0000
0000
0000
0013
0100
1000
,
0010
0100
0010
0100
0020
0000
0000
0000
,
1030
2000
0000
0001
0002
0000
3003
0000
,
1100
0101
1100
0101
,
0010
1000
0100
0000
0010
0001
0100
0000
,
0011
1010
0011
1010
,
0100
0001
1000
0000
0010
1000
0001
0000
,
0110
1001
0110
1001
,
1000
0100
0010
0000
0001
1000
0010
0000
,
1100
0101
0011
1010
,
1000
0000
0001
0000
1000
0000
0001
0000
0000
0000
0100
0000
0020
0000
0000
0000
0000
0000
0030
0000
0000
0100
0000
0000
,
0001
0002
0000
0103
0020
0000
2030
0000
,
3020
0000
0000
0230
0000
0302
0000
1003
,
0100
0200
0000
1300
0002
0000
0203
0000
,
0320
0000
0000
2030
0000
3020
0000
0130
,
0010
0020
0000
1030
0002
0000
2003
0000
,
3002
0000
0000
0203
0000
0320
0000
2030
,
0000
3200
0000
0320
0000
0000
0031
0100
,
0001
0000
1000
0100
1000
0000
0010
0100
,
0010
0100
0002
0000
1000
0000
0100
0000
,
2003
0000
0000
0010
0000
0100
0000
3001
,
1000
0010
0200
0000
1000
0000
0001
0000
,
0320
0000
0000
0100
0000
0001
0000
1030
,
0010
1000
0200
0000
0001
0000
0010
0000
,
2300
0000
0000
0001
0000
0100
0000
3010
,
1000
1000
0000
0001
0100
0100
0000
0100
,
0010
0010
0000
0100
0001
0001
0000
0000
,
1000
0001
1000
0002
0000
0000
0000
0000
0000
0000
0000
0000
,
0200
0000
0000
0303
,
2002
0000
0000
0000
,
0000
0000
0000
3003
;

//---------------dance-single - ----------------
#NOTES:
     dance-single:
     :
     Hard:
     12:
     :
0000
0000
0000
0000
,
0000
0000
0000
0000
,
0000
0000
0000
0000
,
0000
0000
0000
0000
,
1001
0000
0101
0100
0001
1000
0010
0000
,
1000
0001
0010
0100
0010
0100
1000
0000
,
1001
0000
1100
1000
0100
0010
0001
0000
,
1000
0001
0100
0010
1000
0100
0001
0000
,
0101
0000
1100
1000
0001
0100
0010
0000
,
0100
0001
1000
0100
1000
0010
0001
0000
,
0011
0000
1010
1000
0100
0000
0001
0001
,
1000
0100
1100
0000
0010
1001
0100
0000
,
0012
0100
0100
0100
,
1000
1000
2003
0000
3020
0100
0130
0000
,
2010
0100
0100
0100
,
3001
0010
0100
2000
0000
0001
3001
0000
,
1002
0010
0010
0010
,
1000
1000
2003
0000
3200
0010
0310
0000
,
2100
0010
0010
0010
,
3001
0010
0100
2000
0200
0000
3300
0000
,
0010
0020
0100
0000
0000
0031
1000
0002
,
0100
0000
0010
0000
1000
1000
0203
0000
,
0301
0002
1000
0000
0000
0103
0010
0200
,
1000
0000
0010
0000
1000
0000
0301
0100
,
1000
0100
0002
0000
0000
0013
0001
0100
,
2000
0000
0100
0000
0000
3010
1000
0001
,
0010
0001
1000
0001
0020
0000
0130
0100
,
1000
1000
0010
0010
0100
0100
0001
0001
,
1000
0000
0000
1000
0100
0000
0000
0100
0010
0000
0000
0010
0001
0000
0000
0001
,
0100
0010
1000
0010
1000
0100
0001
0000
,
0001
0000
0000
0001
0010
0000
0000
0010
0100
0000
0000
0100
1000
0000
0000
1000
,
0001
1000
0100
0010
0100
1000
0001
0000
,
0010
0000
0000
0010
1000
0000
0000
1000
0001
0000
0000
0001
0100
0000
0000
0100
,
0001
1000
0100
1000
0010
0100
0001
0000
,
1000
0000
0000
1000
0010
0000
0000
0010
0100
0000
0000
0100
0001
0000
0000
0000
,
1000
0000
0100
0000
0010
0000
0001
0000
0000
0000
0100
0000
0020
0000
0100
0000
0000
0000
0030
0000
0000
0001
0000
0000
,
1000
1200
0000
1300
0100
0010
0001
0000
,
0012
0000
0103
0120
0000
1030
0001
0010
,
0001
2001
0000
3010
1000
0001
0100
0000
,
0120
0000
1030
2010
0000
3010
0100
0001
,
0010
0012
0000
0103
0001
1000
0001
0000
,
0120
0000
0130
0101
0000
0110
0000
1010
,
0000
2100
0001
0000
3100
0000
1001
0010
,
0100
0000
1001
0100
0010
0001
1001
0100
,
0010
0000
1000
0000
0010
0000
2000
0000
0000
0000
0000
0000
0100
0000
0000
0100
0000
0000
0100
0000
0000
0000
0000
0000
,
3002
0100
0100
0000
0010
0010
0010
0000
,
0103
0000
0010
0000
0100
0000
0020
0000
0000
0000
0000
0000
1000
0000
0000
1000
0000
0000
1000
0000
0000
0000
0000
0000
,
0230
0010
0010
0000
0001
0001
0001
0000
,
0301
0000
1000
0000
0001
0000
2000
0000
0000
0000
0000
0000
0010
0000
0000
0010
0000
0000
0010
0000
0000
0000
0000
0000
,
3200
1000
1000
0000
0001
0001
0301
0000
,
1100
1000
0100
0000
0101
0001
0100
0000
,
1001
0100
0010
1000
1001
0100
0001
0000
,
1000
0001
0100
0020
0000
0000
0000
0000
0000
0100
0000
0000
,
2030
0100
0000
3100
,
2002
0000
0000
0000
,
0000
0000
0000
3003
;
