#TITLE:Everytime We Touch;
#ARTIST:Cascada;
#BANNER:Everytime We Touch-bn.png;
#BACKGROUND:Everytime We Touch-bg.png;
#JACKET:Everytime We Touch-jacket.png;
#MUSIC:Everytime We Touch.ogg;
#SAMPLESTART:29.375;
#SAMPLELENGTH:20;
#DISPLAYBPM:142;
#BPMS:0=142;
#BGCHANGES:0=Everytime We Touch.avi=1=0=0=0,
;

//---------------dance-single - ----------------
#NOTES:
     dance-single:
     :
     Beginner:
     2:
     :
0000
0000
0000
0000
,
0000
0000
0000
0000
,
0000
0000
0000
0000
,
0000
0000
0000
0000
,
0000
0000
0000
0000
,
0000
0000
0000
0000
,
1000
0000
0000
0000
,
0000
0000
0000
0000
,
0001
0000
0000
0000
,
0000
0000
0000
0000
,
0010
0000
0000
0000
,
0010
0000
0000
0000
,
0100
0000
0000
0000
,
0100
0000
0000
0000
,
1000
0000
0000
0000
,
0001
0000
0000
0000
,
1000
0000
0000
0000
,
0000
0000
0000
0000
,
0001
0000
0001
0000
,
0010
0000
0000
0000
,
1000
0000
1000
0000
,
0010
0000
0000
0000
,
0001
0000
0000
0000
,
1000
0000
0000
0000
,
0001
0000
0000
0000
,
1001
0000
0000
0000
,
0010
0000
0010
0000
,
1000
0000
0000
0000
,
0010
0000
0010
0000
,
0001
0000
0000
0000
,
1000
0000
0000
0000
,
0001
0000
0000
0000
,
1000
0000
0000
0000
,
1001
0000
0000
0000
,
0000
0000
0000
0000
,
1000
1000
1000
0000
,
0000
0000
0000
0000
,
0010
0010
0010
0000
,
0000
0000
0000
0000
,
0001
0001
0001
0000
,
0000
0000
0000
0000
,
0100
0000
0000
0000
,
1000
0000
0010
0000
,
1000
0000
0000
0000
,
0001
0000
0010
0000
,
0001
0000
0000
0000
,
1000
0000
0100
0000
,
1000
0000
0000
0000
,
0001
0000
1000
0000
,
1001
0000
0000
0000
,
0001
0000
0010
0000
,
1000
0000
0000
0000
,
1000
0000
0010
0000
,
0001
0000
0000
0000
,
0001
0000
0100
0000
,
1000
0000
0000
0000
,
1000
0000
0001
0000
,
1000
0000
0001
0000
,
1001
0000
0000
0000
,
0000
0000
0000
0000
;

//---------------dance-single - ----------------
#NOTES:
     dance-single:
     :
     Easy:
     5:
     :
0000
0000
0000
0000
,
0000
0000
0000
0000
,
0000
0000
0000
0000
,
0000
0000
0000
0000
,
0000
0000
0000
0000
,
0000
0000
0000
0000
,
0002
0000
0003
0000
,
0200
0000
0300
0000
,
2000
0000
3000
0000
,
0020
0000
0030
0000
,
1000
0000
0100
0000
,
0001
0000
0100
0000
,
1000
0000
0100
0000
,
0001
0000
0000
0000
,
1000
0000
0010
0000
,
0001
0000
0010
0000
,
2002
0000
0000
0000
,
0000
0000
3003
0000
,
0010
0010
1000
1000
,
0001
0001
0100
0000
,
0010
0010
0100
0100
,
1000
1000
0001
0000
,
0010
0100
0010
0100
,
0010
0001
0100
0000
,
1000
0010
0001
0100
,
1001
0000
0000
0000
,
0001
0001
1000
1000
,
0001
0010
0100
0000
,
1000
1000
0010
0010
,
0100
0001
0100
0000
,
0010
0100
0010
0100
,
0010
1000
0100
0000
,
0100
0001
0100
1000
,
2002
0000
3003
0000
,
1000
1000
0100
0000
,
0001
0001
0100
0000
,
1000
1000
0010
0000
,
0001
0001
0010
0000
,
1000
1000
1000
1000
,
0100
0100
0100
0100
,
0001
0001
0001
0001
,
2002
0000
3003
0000
,
0100
1000
0100
1000
,
0001
0010
0001
0000
,
0010
1000
0010
0001
,
0200
0000
0010
0310
,
0001
0010
0100
0010
,
1000
0010
0001
0000
,
0100
1000
0010
0100
,
0110
0000
0010
0010
,
0100
0001
0100
0001
,
1000
0010
1000
0000
,
0010
0001
0010
1000
,
0200
0000
0010
0310
,
1000
0010
0100
0010
,
0001
0010
1000
0000
,
0100
0001
0010
1000
,
0010
0000
0100
0000
,
1001
0000
0000
0000
,
0000
0000
0000
0000
;

//---------------dance-single - ----------------
#NOTES:
     dance-single:
     :
     Medium:
     7:
     :
0000
0000
0000
0000
,
0000
0000
0000
0000
,
0000
0000
0000
0000
,
0000
0000
0000
0000
,
0000
0000
0000
0000
,
0000
0000
0000
0000
,
2000
0000
0000
3000
,
0200
0000
0000
0300
,
0002
0000
0000
0003
,
0020
0000
0000
0030
,
0100
0010
0001
0000
,
0100
0001
0010
0000
,
0100
0010
1000
0000
,
0100
1000
0010
0000
,
1000
0001
1001
0000
,
0100
0010
0110
0000
,
0200
0000
0000
0000
,
0000
0000
0000
0300
,
0010
0010
0001
0001
,
1000
0000
1000
0000
0100
0010
0100
0000
,
0010
0010
0100
0100
,
0001
0000
0001
0000
1000
0100
1000
0000
,
2010
3100
0012
0103
,
2010
3100
0012
0103
,
0001
0010
1000
0100
,
1001
0000
0000
0000
0010
0100
0010
0000
,
1000
1000
0001
0010
,
1000
0000
0010
0000
0100
0010
1000
0000
,
0010
0001
0010
1000
,
0100
0000
1000
0000
0001
0001
0001
0000
,
0100
0100
0010
0010
,
0100
0000
1000
0000
0010
0000
0001
1000
,
0100
1000
0100
0001
,
0110
0000
0010
0010
,
0001
0001
0100
0100
,
1000
1000
0010
0010
,
0001
0001
0100
0100
,
1000
1000
0010
0010
,
0001
0100
1000
0010
,
0001
0100
1000
0010
,
0001
0100
1000
0010
,
2002
0000
0000
3003
,
0100
0001
0100
0010
,
1010
0000
0101
0000
1000
0001
0100
0000
,
0010
0001
0010
1000
,
0210
0000
0000
0000
0010
0010
0310
0000
,
1000
0010
0001
0100
,
0002
0010
1000
0013
,
0100
0001
0010
1000
,
0110
0000
0010
0010
,
0100
1000
0100
0010
,
0011
0000
1100
0000
0001
1000
0100
0000
,
0010
1000
0010
0001
,
0210
0000
0000
0000
0010
0010
0310
0000
,
0001
0010
1000
0100
,
2000
0010
0001
3010
,
0100
0000
1000
0000
0010
0000
0001
1000
,
0020
0000
0200
0330
,
1001
0000
0000
0000
,
0000
0000
0000
0000
;

//---------------dance-single - ----------------
#NOTES:
     dance-single:
     :
     Hard:
     9:
     :
0000
0000
0000
0000
,
0000
0000
0000
0000
,
0000
0000
0000
0000
,
0000
0000
0000
0000
,
0000
0000
0000
0000
,
0000
0000
0000
0000
,
0002
0000
0000
0003
,
0020
0000
0000
0030
,
2000
0000
0000
3000
,
0200
0000
0000
0300
,
0010
0100
1000
0000
,
0010
1000
0100
0000
,
0010
0100
0001
0000
,
0010
0001
0100
0000
,
0001
1000
1001
0000
,
0010
0100
0110
0000
,
0020
0000
0000
0000
,
0000
0000
0100
0130
,
0010
0010
1000
1000
,
0001
0000
0001
0000
0010
0100
1000
0001
,
0100
0100
0010
0010
,
1000
0000
1000
0000
0001
0010
0100
0000
,
0010
0000
0011
0000
1000
0100
1000
0000
,
0010
0000
1010
0000
0001
0100
0001
0000
,
1000
0100
0001
0000
0001
0100
1000
0000
,
1001
0000
0000
0010
0100
0010
0100
0000
,
0001
0000
0001
0000
1000
0000
0100
0010
,
0001
0000
0100
0000
0010
0100
0001
0010
,
0100
0000
1000
0000
0100
0000
0001
0100
,
0010
0000
0001
0000
1000
1000
1000
0000
,
0010
1000
0010
0000
0100
0001
0100
0000
,
0010
0001
0100
0000
0010
1000
0100
0000
,
0001
0100
1000
0010
,
0101
0000
0100
0100
,
1000
1000
0010
0010
,
0001
0000
0001
0000
0100
0000
0100
0001
,
0010
0010
0001
0001
,
0100
0000
0100
0000
1000
0000
1000
0100
,
0001
0100
0001
0000
0100
1000
0100
0000
,
1000
0010
1000
0000
0010
0001
0010
0000
,
0001
0100
0001
0100
0010
0100
0010
1000
,
0200
0000
0000
0300
,
0010
0001
1000
0000
0010
0100
0010
1000
,
0000
0001
0100
0000
1000
0100
0001
0100
,
0010
0000
1000
0000
0100
0010
0001
0100
,
0020
0000
0000
0000
0100
0100
0130
0000
,
0001
1000
0100
0000
1000
0001
0010
0000
,
2100
3001
0102
1003
,
0010
1000
0100
0001
,
0110
0000
0000
0010
0100
0010
0100
0000
,
0010
1000
0001
0000
0010
0100
0010
0001
,
0000
1000
0100
0000
0001
0100
1000
0100
,
0010
0000
0001
0000
0100
0010
1000
0100
,
0020
0000
0000
0000
0100
0100
0130
0000
,
1000
0001
0100
0000
0001
1000
0010
0000
,
0102
1003
2100
3001
,
0010
0001
0100
1000
,
0020
0000
0200
0330
,
1001
0000
0000
0000
,
0000
0000
0000
0000
;

//---------------dance-single - ----------------
#NOTES:
     dance-single:
     :
     Challenge:
     12:
     :
0000
0000
0000
0000
,
0000
0000
0000
0000
,
0000
0000
0000
0000
,
0000
0000
0000
0000
,
0000
0000
0000
0000
,
0000
0000
0000
0000
,
0020
0000
0000
2030
0000
0000
3200
0000
,
2300
0000
0000
3002
0000
0000
0203
0000
,
0300
0000
0110
0000
0000
2000
0000
0000
,
3002
0000
0000
0103
,
0101
0000
1000
0001
0200
0000
0310
0000
,
1010
0000
1000
0100
0020
0000
0031
0000
,
0110
0000
0001
0100
2000
0000
3010
0000
,
0100
0001
0010
0001
2000
0000
3100
0000
,
0011
0000
1000
0001
0020
0000
0130
0000
,
1100
0000
0010
1000
0002
0000
0103
0000
,
0002
2000
0000
0000
,
3003
0000
0000
0010
0010
1000
0001
1000
,
0010
1000
0100
0010
0001
0100
0001
1000
,
0010
1000
0100
0010
0001
0100
0001
0010
,
1000
0010
0100
0010
1000
0010
0001
0100
,
0010
1000
0001
0000
0100
0010
0100
0001
,
1001
0000
1100
0000
1001
0000
0101
1000
,
0010
1000
0100
0010
0002
0000
1003
0001
,
0100
0001
0010
0100
1000
0010
1000
0001
,
0200
0000
0300
0010
0010
1000
0001
1000
,
0100
0010
0001
0100
1000
0100
0001
0100
,
0010
1000
0100
0001
0100
1000
0010
0100
,
0010
0001
0010
1000
0100
1000
0010
0001
,
0100
0010
1000
0000
0001
0010
1000
0100
,
0110
0000
0011
0000
0110
0000
1100
0001
,
1000
0010
1000
0100
0010
0001
0100
0001
,
1000
0010
0001
0100
0010
0100
0001
1000
,
0020
0000
0000
0000
0030
0000
1000
0000
1000
0000
0100
0000
0010
0000
0001
1000
,
0001
0000
0200
0000
0320
0000
1030
0001
,
1000
0100
0010
0001
0001
0100
0010
1000
,
0100
0000
1000
0002
0000
0013
0001
0100
,
1000
0000
0000
0000
0010
0000
1000
0100
1000
0000
0001
0000
0100
0000
0010
0000
,
1010
0101
0011
1100
,
0001
0000
0100
0000
1000
0000
0100
0000
0001
0000
0000
0000
0001
0000
0000
1000
,
0100
0000
0000
0010
0001
0000
0000
0100
0010
0000
0000
1000
0001
0000
0100
0000
,
0010
0000
0000
0000
0000
0000
1000
0001
1000
0000
0100
0000
0010
0000
0001
0000
,
0100
1000
0100
0001
0100
0010
1000
0001
,
0010
0100
1000
0001
0001
0100
0010
1000
,
0100
0010
0001
0100
1000
0100
0010
0100
,
1000
0000
0100
0000
0001
0000
0010
0100
0010
0000
0001
0000
1000
0000
0001
0000
,
0100
1000
0100
0001
0010
0100
1000
0000
,
1000
0000
0010
0000
0001
0000
0010
0000
1000
0000
0000
0000
1000
0000
0000
0001
,
0100
0000
0110
0000
1001
0000
1000
0001
,
0100
0000
0000
0000
0010
0000
1000
0100
1000
0000
0010
0000
0100
0000
0001
1000
,
0001
0010
0100
0001
0100
1000
0010
0100
,
1000
0100
0001
0010
0010
0100
1000
0001
,
0100
0010
0100
1000
0100
0010
1000
0001
,
0010
0000
0100
0000
1000
0000
0001
0100
0001
0000
1000
0000
0001
0000
0100
0000
,
0010
1000
0100
0010
0001
0100
1000
0000
,
0001
0000
0010
0000
1000
0000
0010
0000
0001
0000
0000
0000
0001
0000
0000
1000
,
0100
0000
0000
0010
0001
0000
0000
0100
0010
0000
0000
1000
0001
0000
0100
0000
,
0010
0000
1000
0000
0010
0000
0100
0000
0001
1000
0001
1000
0001
0000
0100
0020
,
2000
0000
0000
0000
,
3030
0000
0000
0000
;

//---------------dance-double - ----------------
#NOTES:
     dance-double:
     :
     Easy:
     4:
     :
00000000
00000000
00000000
00000000
,
00000000
00000000
00000000
00000000
,
00000000
00000000
00000000
00000000
,
00000000
00000000
00000000
00000000
,
00000000
00000000
00000000
00000000
,
00000000
00000000
00000000
00000000
,
00002000
00000000
00003000
00000000
,
00000200
00000000
00000300
00000000
,
00000002
00000000
00000003
00000000
,
00000020
00000000
00000030
00000000
,
00000001
00000000
00000100
00000000
,
00001000
00000000
00010000
00000000
,
00001000
00000000
00010000
00000000
,
00100000
00000000
00000000
00000000
,
10000000
00000000
01000000
00000000
,
00010000
00000000
00001000
00000000
,
00022000
00000000
00000000
00000000
,
00000000
00000000
00033000
00000000
,
00000010
00000010
00001000
00001000
,
00000010
00000100
00000001
00000000
,
00000100
00000100
00001000
00001000
,
00010000
00001000
00010000
00000000
,
00000010
00010000
00001000
00000000
,
00100000
00001000
00010000
00000000
,
00010000
00100000
01000000
00000000
,
10010000
00000000
00000000
00000000
,
00100000
00100000
00010000
00010000
,
00100000
01000000
10000000
00000000
,
01000000
01000000
00010000
00010000
,
00001000
00010000
00001000
00000000
,
00100000
00001000
00010000
00000000
,
00000010
00010000
00001000
00000000
,
00001000
00000010
00000100
00000000
,
00002002
00000000
00003003
00000000
,
00000010
00000000
00001000
00000000
,
00000100
00000000
00010000
00000000
,
00001000
00000000
00100000
00000000
,
00010000
00000000
01000000
00000000
,
00100000
00100000
00100000
00100000
,
00010000
00010000
00010000
00010000
,
00001000
00001000
00001000
00001000
,
00022000
00000000
00033000
00000000
,
00001000
00000010
00001000
00000010
,
00000001
00000100
00000010
00000000
,
00000100
00001000
00000100
00001000
,
00010000
00001000
00010000
00000000
,
01000000
00100000
01000000
00100000
,
00010000
10000000
00010000
00000000
,
01000000
00100000
10000000
01000000
,
10000000
00000000
00100000
00100000
,
00010000
00100000
00010000
00100000
,
10000000
01000000
00100000
00000000
,
01000000
00010000
01000000
00010000
,
00001000
00010000
00001000
00000000
,
00000100
00000010
00000100
00000010
,
00001000
00000001
00001000
00000000
,
00000100
00000010
00000001
00000100
,
00000001
00000000
00001000
00000000
,
00001001
00000000
00000000
00000000
,
00000000
00000000
00000000
00000000
;

//---------------dance-double - ----------------
#NOTES:
     dance-double:
     :
     Medium:
     7:
     :
00000000
00000000
00000000
00000000
,
00000000
00000000
00000000
00000000
,
00000000
00000000
00000000
00000000
,
00000000
00000000
00000000
00000000
,
00000000
00000000
00000000
00000000
,
00000000
00000000
00000000
00000000
,
20000000
00000000
00000000
30000000
,
02000000
00000000
00000000
03000000
,
00020000
00000000
00000000
00030000
,
00002000
00000000
00000000
00003000
,
00000010
00001000
00010000
00000000
,
01000000
00010000
00001000
00000000
,
00000010
00000100
00001000
00000000
,
00000010
00001000
00000100
00000000
,
00000100
00001000
00010000
00000000
,
00001000
00010000
00100000
00000000
,
02000000
00000000
00000000
00000000
,
00000000
00000000
00100000
03100000
,
00010000
00010000
01000000
01000000
,
00100000
00000000
00100000
00000000
10000000
00010000
01000000
00000000
,
00100000
00100000
00010000
00010000
,
00001000
00000000
00001000
00000000
00000100
00000001
00001000
00000000
,
00000001
00000100
00000010
00001000
,
00010000
01000000
00100000
10000000
,
00010000
00100000
01000000
10000000
,
10010000
00000000
00000000
00000000
00100000
01000000
00100000
00000000
,
10000000
10000000
01000000
00100000
,
00010000
00000000
00001000
00000000
00000100
00000010
00000001
00000000
,
00000010
00001000
00100000
00010000
,
00001000
00000000
00000100
00000000
00000010
00000010
00000010
00000000
,
00000001
00000100
00000010
00000100
,
00000001
00000000
00000100
00000000
00001000
00000000
00010000
00100000
,
01000000
10000000
01000000
00010000
,
01100000
00000000
00100000
00100000
,
10000000
10000000
01000000
01000000
,
00010000
00010000
00001000
00001000
,
00000100
00000100
00000001
00000001
,
00000010
00000010
00000100
00000100
,
00001000
00010000
00100000
00010000
,
00001000
00000100
00001000
00010000
,
00100000
01000000
10000000
00100000
,
20020000
00000000
00000000
30030000
,
01000000
00010000
01000000
00100000
,
10100000
00000000
00110000
00000000
00100000
00001000
01000000
00000000
,
00100000
00010000
00001000
00000100
,
00000002
00000000
00000000
00000000
00000100
00000100
00000103
00000000
,
00000010
00000100
00010000
00000020
,
00010000
00000100
00010000
00000130
,
00010000
00100000
10000000
00010000
,
01000000
00000000
00001000
00001000
,
00000100
00001000
00000100
00000010
,
00000011
00000000
00001010
00000000
00000010
00010000
00000100
00000000
,
00000010
00001000
00010000
01000000
,
20000000
00000000
00000000
00000000
01000000
01000000
31000000
00000000
,
00100000
01000000
00001000
00200000
,
00001000
01000000
00001000
01300000
,
00001000
00000010
00000001
00000100
,
00001000
00000000
00000001
00000000
,
00001001
00000000
00000000
00000000
,
00000000
00000000
00000000
00000000
;

//---------------dance-double - ----------------
#NOTES:
     dance-double:
     :
     Hard:
     9:
     :
00000000
00000000
00000000
00000000
,
00000000
00000000
00000000
00000000
,
00000000
00000000
00000000
00000000
,
00000000
00000000
00000000
00000000
,
00000000
00000000
00000000
00000000
,
00000000
00000000
00000000
00000000
,
00000002
00000000
00000000
00000003
,
00000200
00000000
00000000
00000300
,
00002000
00000000
00000000
00003000
,
00020000
00000000
00000000
00030000
,
00100000
00010000
00000010
00000000
,
00000100
00001000
01000000
00000000
,
00010000
00000100
00000010
00000000
,
00001000
00100000
01000000
00000000
,
00001000
00100000
01000000
00000000
,
00010000
00001000
00000010
00000000
,
00000200
00000000
00000000
00000000
,
00000000
00000000
00000010
00000310
,
00001000
00001000
00000001
00000001
,
00000010
00000000
00000010
00000000
00000100
00010000
00001000
00100000
,
00010000
00010000
10000000
10000000
,
00100000
00000000
00100000
00000000
01000000
00001000
00010000
00000010
,
00001000
00000000
00001000
00000000
00000001
00000010
00000100
00000000
,
00001000
00000000
00001000
00000000
00000010
00010000
00000100
00000000
,
00000010
00001000
00010000
00000000
00001000
00010000
01000000
00000000
,
10010000
00000000
00000000
00100000
01000000
00100000
01000000
00000000
,
10000000
00000000
01000000
00000000
00010000
00000000
00001000
00100000
,
01000000
00000000
00100000
00000000
00010000
00001000
00000100
00000000
,
00000010
00000000
00000001
00000000
00001000
00000000
00000010
00001000
,
00000100
00000000
00010000
00000000
00001000
00001000
00001000
00000000
,
00000100
00000010
00001000
00000000
00000100
00010000
00000010
00000000
,
00000100
00000001
00000010
00000000
00000100
00001000
00000001
00000000
,
00000100
00001000
00010000
00001000
,
00011000
00000000
00010000
00010000
,
00100000
00100000
10000000
10000000
,
01000000
00000000
01000000
00000000
00010000
00000000
00010000
00001000
,
00000010
00000010
00000001
00000001
,
00000100
00000000
00000100
00000000
00001000
00000000
00001000
00010000
,
00100000
01000000
00100000
00000000
10000000
01000000
10000000
00000000
,
00100000
00001000
01000000
00000000
00010000
10000000
01000000
00000000
,
00100000
01000000
00100000
00010000
00001000
00010000
00001000
00000100
,
00000020
00000000
00000000
00000030
,
00000010
00000001
00001000
00000000
00000010
00000100
00000001
00000100
,
00000000
00000010
00001000
00000000
00010000
01000000
00100000
10000000
,
01000000
00000000
00100000
00000000
00010000
10000000
01000000
00010000
,
02000000
00000000
00000000
00000000
00100000
00100000
03100000
00000000
,
00001000
00000010
00010000
00100000
,
00001000
00000100
00000001
00000100
00000010
00000000
00010000
00000000
,
00001000
00000010
00000001
00000100
,
00000110
00000000
00000000
00000010
00010000
00001000
01000000
00000000
,
00100000
10000000
00010000
00000000
00100000
01000000
10000000
01000000
,
00000000
00100000
00010000
00000000
00001000
00000100
00000010
00000001
,
00000100
00000000
00000010
00000000
00001000
00000001
00000100
00001000
,
00000200
00000000
00000000
00000000
00000010
00000010
00000310
00000000
,
00010000
00100000
00001000
00000010
,
00010000
01000000
10000000
01000000
00100000
00000000
00001000
00000000
,
00010000
00100000
10000000
01000000
,
00100000
00010000
00001000
00000100
,
00001001
00000000
00000000
00000000
,
00000000
00000000
00000000
00000000
;
