#TITLE:Everything;
#SUBTITLE:;
#ARTIST:Michael Bublé;
#TITLETRANSLIT:;
#SUBTITLETRANSLIT:;
#ARTISTTRANSLIT:Michael Buble;
#GENRE:;
#CREDIT:;
#BANNER:Everything-bn.png;
#BACKGROUND:Everything-bg.png;
#LYRICSPATH:;
#CDTITLE:;
#MUSIC:Everything.ogg;
#OFFSET:0.000000;
#SAMPLESTART:45.374699;
#SAMPLELENGTH:20.000000;
#SELECTABLE:YES;
#DISPLAYBPM:123.000000;
#BPMS:0.000000=122.970001
,95.750000=137.970001
,96.000000=122.970001
,103.750000=137.970001
,104.000000=122.970001
,127.750000=142.970001
,128.000000=122.970001
,151.750000=147.970001
,152.000000=122.970001
,159.750000=112.970001
,160.000000=122.970001
,175.750000=117.970001
,176.000000=122.970001
,203.750000=132.970001
,204.000000=122.970001
,223.750000=137.970001
,224.000000=122.970001
;
#STOPS:
;
#BGCHANGES:;
#KEYSOUNDS:;
#ATTACKS:;

//---------------dance-single - ----------------
#NOTES:
     dance-single:
     :
     Hard:
     10:
     0.436992,0.435326,0.244716,0.260010,0.030589,400.000000,368.000000,32.000000,34.000000,0.000000,0.000000,0.436992,0.435326,0.244716,0.260010,0.030589,400.000000,368.000000,32.000000,34.000000,0.000000,0.000000:
0000
0000
0000
0000
,
0000
0000
0000
0000
,
0000
0000
0000
0000
,
0000
0000
0000
0000
,
0001
0010
1000
0100
0000
0010
0001
0100
,
0000
0010
1000
0100
0000
1000
0001
0100
,
0010
1000
0001
1000
0000
0100
0010
0001
,
0100
0000
0000
0120
0000
1030
0001
1000
,
0100
0010
0001
1000
0000
0001
0100
0010
,
1000
0001
0000
1020
0000
0130
0001
1000
,
0001
0000
0100
0010
0100
0000
0002
0000
0000
0000
1003
0000
0001
0000
0010
0000
,
0100
1000
0010
0100
0000
0001
0010
0001
,
1000
0100
0010
0001
0000
0100
0001
1000
,
0001
0010
0100
1000
0000
0010
0100
0010
,
1000
0001
0000
0101
0000
0000
0010
1000
,
0001
0010
0001
0100
0000
0010
1000
0001
,
1000
0100
0010
0001
0000
0100
0001
0010
,
0001
1000
0010
1000
0000
0001
0100
1000
,
0010
1000
0010
1000
0001
0010
0001
0010
,
0100
2000
0000
3002
0000
0103
0001
0010
,
0001
0000
1000
0000
0001
0000
0010
0000
0000
0100
1000
0000
0010
0000
1000
0000
,
0001
1000
0010
0100
0000
0100
0001
0010
,
0100
1000
0010
1000
0001
0100
0000
0010
,
1000
0000
0001
0100
0000
0110
0000
1001
,
1000
0010
1000
0002
0000
0000
0013
0100
,
1000
0001
1000
0010
0000
0100
0001
0010
,
0001
1000
0010
1000
0000
1100
0000
0011
,
0100
0000
1000
0002
0100
0000
1003
0010
,
0100
0001
0010
0100
1000
0001
0100
0010
,
1000
0000
0000
0100
1000
0001
0100
0101
,
0000
0000
0000
0010
1000
0100
1000
1100
,
0000
0000
0000
0010
0001
1000
0000
0110
,
0000
0000
0001
0000
0000
0001
0000
0000
1000
0000
0001
0000
1000
0000
0200
0000
,
0000
0000
0000
0000
1300
0001
1000
0000
0020
0000
0000
0000
0130
0000
0000
0000
,
0000
0001
0010
0100
1000
0010
1000
0002
,
0000
0000
0003
0000
0000
0000
1010
0000
0000
0000
0010
0100
0010
0000
1000
0000
,
0000
0001
0010
0100
0010
0100
1000
0001
,
0100
0010
1000
0001
0000
0010
0001
0100
,
1000
0010
1000
0001
1000
0100
0010
0002
,
0000
0000
0000
0000
0103
0010
0100
0000
0000
0000
0001
0000
1000
0000
0000
0000
,
2100
0000
3010
0100
0201
0000
0301
1000
,
2010
0000
3100
0010
0012
0000
1003
0001
,
2001
0000
3010
0100
0210
0000
0301
1000
,
0100
0010
0001
1000
0000
0001
0100
1000
,
1020
0000
0130
0001
0012
0000
1003
0010
,
0201
0000
0301
1000
1200
0000
0310
0100
,
0210
0000
1300
0001
2001
0000
3010
0100
,
0001
0000
0000
1000
0100
0010
0001
0000
,
0110
0001
1000
0001
0010
0100
1000
0001
,
0100
0010
1000
0001
0000
1000
0100
0010
,
0001
0100
0001
0010
0000
0011
0000
1010
,
0000
0000
0100
0002
0000
0000
0013
0100
,
1000
0001
1000
0010
0100
1000
0100
0001
,
0010
0100
1000
0001
1000
0010
0100
0101
,
0000
0000
0000
0001
0010
0100
1000
1100
,
0000
0000
0000
0000
0000
0000
0000
0000
0010
0000
0000
1000
0000
0000
0001
0000
,
0012
0103
2010
3100
,
1001
0100
0010
2000
0000
3001
1000
0000
,
0200
0000
0000
0000
0000
0000
0000
0000
0000
0310
0000
0000
0001
0000
1000
0000
,
0001
0100
0010
2000
0000
3002
0000
0023
,
0000
0000
0130
0010
0000
0001
1000
0001
,
1000
0010
0100
0002
0000
0023
0000
0230
,
0000
1300
0010
1000
0010
0100
0000
0001
,
1000
0101
0000
0000
;

//---------------dance-single - ----------------
#NOTES:
     dance-single:
     :
     Medium:
     8:
     0.313542,0.362772,0.260010,0.152947,0.000000,287.000000,253.000000,34.000000,20.000000,0.000000,0.000000,0.313542,0.362772,0.260010,0.152947,0.000000,287.000000,253.000000,34.000000,20.000000,0.000000,0.000000:
0000
0000
0000
0000
,
0000
0000
0000
0000
,
0000
0000
0000
0000
,
0000
0000
0000
0000
,
0001
0010
1000
0000
0000
0100
0000
0010
,
0000
0001
0000
0100
0000
0010
0000
1000
,
0000
0100
0010
0001
0000
1000
0000
0001
,
0000
0000
0000
1001
0000
0100
0010
1000
,
0000
0001
0000
0000
0000
0010
0100
1000
,
0000
0001
0000
0101
0000
0100
0000
0010
,
0000
1000
0001
0000
0000
0010
0001
0100
,
0000
1000
0000
0000
0000
0010
1000
0100
,
0000
0010
0000
0000
0000
0001
1000
0001
,
0000
0100
0000
0000
0000
0010
1000
0000
,
0001
1000
0000
1100
0000
0000
0100
0010
,
0001
0000
0000
0000
0000
1000
0001
1000
,
0010
0100
0000
0000
0000
0001
0010
0001
,
1000
0100
0000
0000
0000
1000
0001
0000
,
0100
1010
0100
0011
,
1000
0001
0000
0100
0000
0010
1000
0010
,
0100
0001
0000
0000
0000
0010
0100
0010
,
0001
1000
0000
0000
0000
0010
0100
0000
,
0001
1000
0100
0000
1000
0010
0000
0110
,
0000
0000
0100
0010
0000
1000
0000
0001
,
0200
0000
0000
0000
0000
0000
0310
0100
,
0001
0000
0000
1000
0000
0001
0010
0100
,
2000
0000
0000
3000
0000
1010
0000
0101
,
0000
0000
1000
0020
0000
0000
1030
0100
,
0010
0000
0000
0001
1000
0001
0000
0100
,
0000
0000
0000
0010
1000
0100
0000
1100
,
0000
0000
0000
1000
0001
0100
0000
0101
,
0000
0000
0000
0010
0100
0001
0000
1001
,
0000
0000
0110
0000
1000
0010
0100
0002
,
0000
0010
1000
0103
,
0000
0010
0001
0000
0001
1000
0000
0010
,
0000
0000
0000
1010
0000
0100
0010
0100
,
0000
0001
0010
0001
0010
0001
0010
0100
,
1000
0000
0010
0100
0000
0001
0100
0000
,
0010
1000
0100
0000
1000
0001
0000
0011
,
0000
0000
0001
0100
0000
0010
1000
0000
,
2100
3001
0201
0310
,
1020
0130
1002
0013
,
0012
0000
0103
0000
0110
0000
0000
1000
,
0001
0100
0000
0010
0000
1000
0000
0000
,
1020
0130
0102
1003
,
2100
3001
0210
0301
,
0012
0000
0103
0000
1001
0000
0000
0010
,
1000
0000
0000
0100
1000
0001
0100
0000
,
0020
0000
0000
0000
0000
0000
1030
0001
,
0010
0000
0001
0100
0000
0010
1000
0001
,
2000
0000
0000
3000
0000
1100
0000
0011
,
0000
0000
0100
0020
0000
0000
1030
0001
,
0100
0000
0000
0001
0010
0100
0000
1100
,
0000
0000
0000
0010
1000
0001
0000
0101
,
0000
0000
0000
0001
1000
0010
0000
0110
,
0000
0000
1010
0011
,
2000
0000
3002
0000
,
0203
0000
0000
0000
,
0310
0000
0000
0000
0000
1000
0100
0000
,
1000
0000
0010
0100
0000
0001
0000
1000
,
0000
0000
0001
0010
0000
0001
0000
0100
,
0010
1000
0001
1000
0000
0100
0000
0010
,
0000
0001
0010
0100
1000
0001
0000
0001
,
1000
0101
0000
0000
;

//---------------dance-single - ----------------
#NOTES:
     dance-single:
     :
     Easy:
     5:
     0.171519,0.241848,0.045884,0.152947,0.000000,157.000000,151.000000,6.000000,20.000000,0.000000,0.000000,0.171519,0.241848,0.045884,0.152947,0.000000,157.000000,151.000000,6.000000,20.000000,0.000000,0.000000:
0000
0000
0000
0000
,
0000
0000
0000
0000
,
0000
0000
0000
0000
,
0000
0000
0000
0000
,
0001
0100
0000
0010
,
0000
1000
0000
0001
,
0000
1000
0000
0100
,
0000
0010
0000
0001
,
1000
0000
0000
0000
,
0010
1000
0100
0000
,
1000
0001
0000
0000
,
0010
0100
0000
0000
,
1000
0010
0000
0000
,
0100
0001
0000
0010
,
0001
0100
1000
0000
,
1001
0000
0110
0000
,
1000
0010
0000
0100
,
0001
1000
0000
0100
,
1000
1000
0001
0001
,
1000
0000
0010
0000
,
0100
0001
0000
0010
,
0100
1000
0000
0010
,
1000
0001
0100
0010
,
1000
0000
0100
1000
,
0002
0000
0000
0003
,
0010
0000
0001
0000
,
0200
0000
0000
0300
,
0010
1000
0100
1000
,
0001
0000
0010
0000
,
0001
0000
0100
0010
,
1000
0000
0001
1000
,
0100
0000
1000
0001
,
0100
0010
0010
0100
,
0001
1000
0100
0100
,
0000
0010
0010
0001
,
0100
0000
0110
1001
,
0000
1000
1000
1000
,
1000
0010
1000
0001
,
0100
0010
0100
0000
,
0001
1000
0000
0010
,
2000
3000
0200
0300
,
0020
0030
0002
0003
,
0200
0300
0020
0030
,
0110
0000
0000
0000
,
0020
0030
2000
3000
,
0002
0003
0200
0300
,
0002
0003
2000
3000
,
1001
0000
0010
0010
,
0200
0000
0000
0300
,
0001
0000
1000
0000
,
0020
0000
0000
0030
,
0100
0000
0001
0010
,
0001
0000
0010
0100
,
1000
0000
0001
1000
,
0001
0000
0100
0010
,
1000
0000
0100
0010
,
0002
0003
2000
3000
,
0020
0000
0000
0030
,
0200
0000
0000
0300
,
0001
0001
1000
0001
,
0100
0000
0010
0000
,
1000
1000
0100
0010
,
0001
0000
1000
0000
,
0010
0100
0000
0000
;

//---------------dance-single - ----------------
#NOTES:
     dance-single:
     :
     Beginner:
     2:
     0.103786,0.169294,0.000000,0.030589,0.000000,95.000000,95.000000,0.000000,4.000000,0.000000,0.000000,0.103786,0.169294,0.000000,0.030589,0.000000,95.000000,95.000000,0.000000,4.000000,0.000000,0.000000:
// measure 0
0000
0000
0000
0000
,  // measure 1
0000
0000
0000
0000
,  // measure 2
0000
0000
0000
0000
,  // measure 3
0000
0000
0000
0000
,  // measure 4
0001
0000
0000
0000
,  // measure 5
1000
0000
0001
0000
,  // measure 6
1000
0000
0010
0000
,  // measure 7
0100
0000
0000
0000
,  // measure 8
0001
0000
0000
0000
,  // measure 9
0010
0000
0000
0000
,  // measure 10
0100
0000
0000
0000
,  // measure 11
1000
0000
0000
0000
,  // measure 12
0010
0000
0000
0000
,  // measure 13
0100
0000
0000
0000
,  // measure 14
0010
0000
0010
0000
,  // measure 15
0010
0000
0000
0000
,  // measure 16
1000
1000
0000
0000
,  // measure 17
0001
0001
0000
0000
,  // measure 18
1000
0000
0010
0000
,  // measure 19
0100
0000
0001
0000
,  // measure 20
0010
0010
0000
0000
,  // measure 21
0100
0100
0000
0000
,  // measure 22
1000
0000
0001
0000
,  // measure 23
1000
0000
0010
0000
,  // measure 24
0200
0000
0000
0300
,  // measure 25
0100
0000
0000
0000
,  // measure 26
0002
0000
0000
0003
,  // measure 27
0001
0000
1000
0000
,  // measure 28
0010
0000
0100
0000
,  // measure 29
0100
0000
0001
0000
,  // measure 30
1000
0000
0000
0000
,  // measure 31
0001
0000
0000
0000
,  // measure 32
0010
0000
0100
0000
,  // measure 33
1000
0000
0001
0000
,  // measure 34
1000
0000
0010
0000
,  // measure 35
0100
0000
0000
0000
,  // measure 36
0001
0001
0001
0001
,  // measure 37
0001
0000
1000
0000
,  // measure 38
0001
0000
0100
0000
,  // measure 39
0010
0010
0000
0000
,  // measure 40
1000
0000
1000
0000
,  // measure 41
0001
0000
0001
0000
,  // measure 42
0010
0000
0010
0000
,  // measure 43
0010
0000
0000
0000
,  // measure 44
0001
0000
0001
0000
,  // measure 45
1000
0000
1000
0000
,  // measure 46
0100
0000
0100
0000
,  // measure 47
0100
0000
0000
0000
,  // measure 48
2000
0000
0000
3000
,  // measure 49
1000
0000
0000
0000
,  // measure 50
0020
0000
0000
0030
,  // measure 51
0010
0000
0100
0000
,  // measure 52
0010
0000
1000
0000
,  // measure 53
1000
0000
0001
0000
,  // measure 54
0010
0000
0000
0000
,  // measure 55
0100
0000
0000
0000
,  // measure 56
1000
0000
1000
0000
,  // measure 57
1000
0000
0000
0000
,  // measure 58
0000
0000
0000
0000
,  // measure 59
0010
0000
0010
0000
,  // measure 60
0010
0000
0000
0000
,  // measure 61
1000
0000
0001
0000
,  // measure 62
1000
0000
0000
0000
,  // measure 63
0100
0100
0000
0000
;
