#TITLE:Evans;
#ARTIST:DJ YOSHITAKA;
#BANNER:Evans.png;
#BACKGROUND:Evans-bg.png;
#JACKET:Evans-jacket.png;
#MUSIC:Evans.ogg;
#SAMPLESTART:62.27;
#SAMPLELENGTH:20;
#DISPLAYBPM:185;
#BPMS:0=185,288=370,290=185;
#BGCHANGES:;

//---------------dance-single - ----------------
#NOTES:
     dance-single:
     :
     Beginner:
     5:
     :
0000
0000
0000
0000
,
0000
0000
0000
0000
,
0000
0000
0000
0000
,
0000
0000
0000
0000
,
0000
0000
0000
0000
,
0000
0000
0000
0000
,
0001
0000
0001
0000
,
0100
0000
0100
0000
,
0010
0000
0010
0000
,
1000
0000
1000
0000
,
1000
0100
1000
0000
,
0100
0000
1000
0000
,
0001
0010
0001
0000
,
0010
0000
0001
0000
,
0100
0010
0100
0000
,
0010
0000
1000
0000
,
0100
0010
0100
0000
,
0010
0000
0001
0000
,
2002
0000
0000
0000
,
3003
0000
0000
0000
,
0010
0000
0010
0000
,
0100
0010
0100
0000
,
0001
0000
0001
0000
,
1000
0001
1000
0000
,
0100
0000
0100
0000
,
0010
0100
0010
0000
,
0001
0000
0001
0000
,
1000
0001
1000
0000
,
0001
0000
0100
0000
,
1000
0100
0001
0000
,
0010
0000
0001
0000
,
0100
0010
1000
0000
,
1000
0000
0100
0000
,
0001
0100
1000
0000
,
0010
0000
1000
0000
,
0100
0010
0001
0000
,
1001
0000
0000
0000
,
0010
0000
0010
0000
,
1001
0000
0000
0000
,
0010
0000
0010
0000
,
0010
0000
1000
0000
,
0100
0000
0001
0000
,
0010
0000
1000
0000
,
0100
0000
0001
0000
,
0010
0000
1000
0000
,
0100
0010
0100
0000
,
2002
0000
0000
0000
,
3003
0000
0000
0000
,
0001
0100
0010
0000
,
0100
0001
0010
0000
,
0100
0000
0100
0000
,
0110
0000
1001
0000
,
1000
0100
0010
0000
,
0100
1000
0010
0000
,
0100
0000
0100
0000
,
0110
0000
1001
0000
,
0001
1000
0010
0000
,
1000
0100
0010
0000
,
0001
0000
1000
0000
,
1001
0000
0110
0000
,
1000
0001
0010
0000
,
0001
0100
0010
0000
,
1000
0000
0001
0000
,
1001
0000
0110
0000
,
2002
0000
0000
0000
,
3003
0000
0010
0000
,
1000
0000
0001
0000
,
0100
0000
0100
0000
,
0110
0000
0000
0000
,
1001
0000
0000
0000
,
0110
0000
1001
0000
,
1000
0001
1000
0000
,
0000
0000
0000
1000
,
0000
0100
0010
0100
,
0000
0010
0001
0010
,
0001
0010
0000
0010
,
0000
0001
0000
0001
,
0000
0100
0010
0100
,
0000
0010
1000
0010
,
1000
0010
0000
1000
,
0000
1001
0000
0000
,
0000
0000
0000
0000
;

//---------------dance-single - ----------------
#NOTES:
     dance-single:
     :
     Easy:
     10:
     :
0000
0000
0000
0000
,
0000
0000
0000
0000
,
0000
0000
0000
0000
,
0000
0000
0000
0000
,
0000
0000
0000
0000
,
0000
0000
0000
0000
,
0001
1000
0001
1000
,
0010
0100
0010
0100
,
0101
0000
1010
0000
,
1000
0001
0000
0000
1000
0000
1000
0000
,
0000
1001
0010
0001
,
0100
0000
0010
0000
1000
0001
1000
0000
,
0010
0100
0010
1000
,
0100
0010
0100
0000
0010
0000
0001
0000
,
0100
1001
0010
1000
,
0001
0000
0100
0000
0010
1000
0010
0000
,
1000
0100
0001
0100
,
1000
0010
1000
0010
0100
0000
0001
0000
,
2002
0000
0000
0000
,
0000
0000
0000
3003
,
0010
0000
0000
0010
0000
0000
0010
0000
,
1000
0000
0000
1000
0000
0000
1000
0000
,
0001
0000
0000
0001
0000
0000
0001
0000
,
0100
0000
0000
0100
0000
0000
0100
0000
,
0001
0000
0000
0010
0000
0000
0001
0000
,
1000
0000
0000
0010
0000
0000
1000
0000
,
0001
0000
0000
0100
0000
0000
0001
0000
,
1000
0000
0000
0100
0000
0000
1000
0000
,
0001
0100
0010
0000
1000
0000
0100
0000
,
0010
0001
1000
0000
0100
0000
1000
0000
,
0001
0010
0100
0000
0010
0000
0001
0000
,
1000
0010
0100
0000
0010
0000
1000
0000
,
0001
1000
0010
0000
1000
0000
0100
0000
,
1000
0001
0010
0000
0001
0000
0100
0000
,
0010
1000
0100
0000
0010
0000
0001
0000
,
0100
0001
0010
0000
0100
0000
1000
0000
,
1001
0001
0001
0000
,
1000
1000
1000
0000
,
0110
0110
0100
0000
,
0010
0010
0010
0000
,
1001
0010
0000
0010
,
1001
0100
0000
0100
,
0010
0010
1000
1000
,
0100
0100
0001
0001
,
0010
1000
0100
0001
,
0010
0100
0010
0100
1000
0000
0001
0000
,
2002
0000
0000
0000
,
3003
0000
0000
1001
,
0110
1000
0001
0100
,
0001
0000
0010
0000
0100
1000
0100
0000
,
1100
0001
0010
0001
,
1001
0010
0110
0110
,
0100
1001
0010
1000
,
0001
0000
0010
0000
0100
0010
0001
0000
,
1000
0010
1000
1000
,
1100
0001
0101
1000
,
0010
1001
0010
0100
,
0001
0000
0010
0000
0100
1000
0001
0000
,
0100
0010
1000
0010
,
0110
0001
0011
1100
,
1001
0000
0010
0000
0100
1000
0100
0000
,
1001
0000
0010
0000
0100
0001
0100
0000
,
0011
0100
1010
0100
,
0101
1100
0101
1100
,
0010
2002
0000
0000
,
3003
0010
0010
0010
,
1001
0000
0110
0000
,
1000
0001
1000
0001
1000
0000
0001
0000
,
2002
0000
3003
0110
,
2002
0000
3003
0110
,
1001
0000
0110
0000
,
1000
0100
0010
0001
,
0000
0000
0001
0001
,
0100
0000
0010
0000
1000
0000
0100
0010
,
0100
1000
1000
0010
,
0010
0000
1000
1000
0000
0000
0101
0000
,
0001
0000
0011
0000
1000
0000
0100
1000
,
0100
0000
1010
0000
0100
0000
0001
0100
,
0001
0000
1000
0010
0100
0000
0001
0010
,
0100
0000
1000
0000
0100
0000
0001
0100
,
1000
2002
0000
0000
,
0000
0000
0000
0000
,
0000
3003
0000
0000
,
0000
0000
0000
0000
;

//---------------dance-single - ----------------
#NOTES:
     dance-single:
     :
     Medium:
     14:
     :
0000
0000
0000
0000
,
0000
0000
0000
0000
,
0000
0000
0000
0000
,
0000
0000
0000
0000
,
0000
0000
0000
0000
,
0000
0000
0000
0000
,
0001
0000
1001
0000
1000
0010
1000
0000
,
0100
0010
0001
0000
0100
0010
1000
0000
,
1010
1000
0011
0001
,
0100
0000
0020
0000
0000
0000
0000
0000
0100
0000
0000
0100
0000
0000
0130
0000
,
0000
0000
1001
0000
1000
0001
0010
0000
,
1000
0010
0001
0000
1000
0100
0010
0000
,
0001
0100
1000
0000
0100
0001
1000
0000
,
0010
0100
0000
0000
1010
0000
0101
0000
,
0100
0000
1001
0000
0010
1000
0100
0000
,
0010
0001
0100
0000
0001
0010
0100
0000
,
0110
0000
1000
0100
1100
0000
0001
0100
,
0101
0010
1000
0100
0010
0001
0100
0010
,
2000
0000
0000
0000
,
0000
0000
0000
3000
,
0010
0000
0000
1000
0000
0000
0100
0000
0000
0001
0000
0000
0110
0000
0000
0000
,
0010
0000
0000
0001
0000
0000
0100
0000
0000
1000
0000
0000
0110
0000
0000
0000
,
1000
0000
0000
0010
0000
0000
0001
0000
0000
0100
0000
0000
1001
0000
0000
0000
,
0001
0000
0000
0010
0000
0000
1000
0000
0000
0100
0000
0000
1001
0000
0000
0000
,
1000
0000
0000
0001
0000
0000
0100
0000
0000
0010
0000
0000
1001
0000
0000
0000
,
0001
0000
0000
1000
0000
0000
0100
0000
0000
0010
0000
0000
1001
0000
0000
0000
,
0001
0000
0000
0010
0000
0000
1000
0000
0000
0001
0000
0000
0100
0000
0100
0000
,
1000
0000
0000
0010
0000
0000
0001
0000
0000
1000
0000
0000
0100
0000
0100
0000
,
0001
0000
1000
0010
0000
1000
0010
0000
1000
0010
0000
0000
1000
0000
0100
0000
,
0010
0000
0001
0100
0000
0001
0100
0000
0001
0100
0000
0000
0010
0000
0100
0000
,
0010
0000
1000
0001
0000
1000
0001
0000
1000
0001
0000
0000
1000
0000
0100
0000
,
0010
0000
0100
0010
0000
0100
0010
0000
0100
0010
0000
0000
0001
0000
1000
0000
,
0100
1000
0100
1000
0001
0010
0001
0100
,
0010
1000
0010
1000
0001
0100
0001
1000
,
0010
0100
0001
0000
1000
0000
0010
0000
1000
0100
0010
0000
0001
0000
0100
0000
,
0001
0010
0001
0000
1000
0010
1000
0000
0100
0010
0100
0000
1000
0000
0001
0000
,
1001
0000
0010
0000
0010
0000
0010
1000
,
0100
0000
0100
0000
0100
0000
0100
0001
,
0010
0000
1001
0000
1000
0000
1000
0100
,
0001
0000
0001
0000
0001
0000
0001
0010
,
1000
0000
1000
0100
0010
0000
0001
0100
,
0010
0000
1000
0100
0010
0000
0001
0100
,
0010
1000
0100
0001
,
0010
1000
0100
0001
,
0010
1000
0100
0000
0001
0010
1000
0000
,
0100
1000
0010
0000
1000
0000
0001
0000
0100
0001
0010
0000
0001
0000
1000
0000
,
0200
0000
0000
0000
,
0310
0000
0001
0000
0100
0000
0000
0010
0000
0000
1000
0000
1001
0000
0000
0000
,
0001
0000
0100
0010
0000
1000
0010
0000
1000
0000
0100
0000
0001
0000
0100
0000
,
0010
0000
0001
0100
0000
0010
0100
0000
0001
0000
1000
0000
0010
0000
0100
0000
,
0001
0000
1000
0100
0000
0010
0001
0000
1000
0000
0010
0000
0100
0000
0010
0000
,
1000
0000
0000
0000
0110
0000
0000
0000
0001
0000
0000
0001
0000
0000
0001
0000
,
0100
0000
0010
1000
0000
0100
0010
0000
0001
0000
0010
0000
1000
0000
0010
0000
,
0001
0000
0100
0010
0000
1000
0100
0000
0001
0000
0100
0000
1000
0000
0001
0000
,
0010
0000
0100
0010
0000
0100
0010
0000
0001
0000
1000
0000
0100
0000
0010
0000
,
0001
0100
0001
0000
1000
0000
1001
0000
0000
0000
0001
0000
0100
0000
0010
0000
,
1000
0000
0001
0100
0000
0001
0100
0000
0010
1000
0010
0000
0100
0000
0001
0000
,
0010
0000
0100
1000
0000
0100
1000
0000
0001
0010
0001
0000
0100
0000
0010
0000
,
1000
0000
0001
1000
0000
0001
1000
0000
0100
0010
0100
0000
1000
0000
0001
0000
,
1000
0000
0000
0000
1001
0000
0000
0000
1010
0000
0000
1100
0000
0000
0101
0000
,
1000
0000
0010
0100
0000
0010
1000
0000
0001
0010
0100
0000
1000
0000
0001
0000
,
0100
0000
0001
1000
0000
0010
0100
0000
0001
0010
0100
0000
1000
0000
0010
0000
,
0001
0000
0010
1000
0000
0010
1000
0000
0001
0010
0100
0000
1000
0000
0001
0000
,
1000
0010
1000
0000
0100
0000
0010
0000
0000
0000
0010
0000
0001
0000
0100
0000
,
0010
0000
2000
0002
0000
0000
0000
0000
,
3003
0100
0010
1001
,
0001
0010
1000
0000
1000
0010
0001
0000
,
1000
0000
0100
0000
0001
0000
0100
0000
1000
0000
0000
0001
0000
0000
1000
0000
,
2002
0000
3003
0110
,
2002
0000
3003
0110
,
1000
0100
0010
0000
0001
0100
0010
0000
,
1000
0000
0010
0000
0001
0000
0000
0010
0000
0000
0010
0000
1000
0000
0001
0000
,
0000
0000
0000
0000
0000
0000
0000
0000
1001
0000
0001
0000
1000
0001
0000
0100
,
0010
0100
0010
0000
1000
0000
0100
0000
0010
0000
0001
0000
1000
0010
0000
0100
,
0010
0100
0010
0000
1000
0000
0100
0000
0001
0000
0100
0000
1000
0001
0000
0010
,
0001
0010
0001
0000
0100
0000
0101
0000
0000
0000
0000
0000
1000
0010
0100
0000
,
0110
0000
0000
0000
0001
0000
1001
0000
0000
0000
0000
0000
0001
0100
0010
1000
,
0010
0000
0000
0000
0100
0000
0110
0000
0000
0000
0000
0000
1000
0100
0010
0001
,
0010
0000
0000
0000
0001
0000
0100
0010
1000
0000
0001
0000
1000
0000
0100
1000
,
0001
0000
0100
0000
0001
0000
0010
0001
0100
0000
0010
1000
0100
0000
0010
0100
,
1000
0001
2002
0000
0000
0000
0000
0000
,
0000
0000
0000
0000
,
0000
3003
0000
0000
,
0000
0000
0000
0000
;

//---------------dance-single - ----------------
#NOTES:
     dance-single:
     :
     Hard:
     16:
     :
0000
0000
0000
0000
,
0000
0000
0000
0000
,
0000
0000
0000
0000
,
0000
0000
0000
0000
,
0000
0000
0000
0000
,
0000
0000
0000
0000
,
0101
0000
1010
0001
0100
0010
1000
0100
,
1000
0011
0000
0100
1010
0000
0101
0000
,
1001
0010
0100
0000
1001
0010
0100
0000
,
0110
0000
0110
0000
0001
0000
1000
0000
0010
1000
0000
0010
1000
0000
0101
0000
,
0000
0000
0010
0000
0100
0000
0001
0000
0010
0100
0010
0000
0001
0000
1000
0000
,
0100
0010
0100
0000
1000
0000
0001
0000
0100
0010
0100
0000
0001
0000
1000
0000
,
0001
0000
0010
0000
0100
0000
1000
0000
0010
0100
0010
0000
1000
0000
0001
0000
,
0101
0101
0010
1000
1100
0000
0101
0000
,
0011
0000
1100
0001
0100
0010
1000
0001
,
1010
0000
0000
0001
1000
0000
0100
0000
0010
0001
0010
0000
0001
0000
1000
0000
,
0110
0001
1000
0001
0110
1000
0001
1000
,
0010
0000
0010
0000
0100
0000
0001
0000
1000
0010
1000
0010
1000
0000
0001
0000
,
2200
0000
0000
0300
,
0002
0000
0000
0000
3003
0000
0000
0000
1000
0001
1000
0001
1000
0001
1000
0001
,
1000
0000
0000
0010
0000
0000
0100
0000
0000
0010
0000
0000
1000
0000
0001
0000
,
0010
0000
0000
0100
0000
0000
0010
0000
0000
0001
0000
0000
1000
0000
0010
0000
,
1000
0000
0000
0100
0000
0000
0010
0000
0000
0001
0000
0000
0100
0000
0001
0000
,
0010
0000
0000
0100
0000
0000
1000
0000
0000
0010
0000
0000
1000
0000
0001
0100
,
0001
0000
0000
0010
0000
0000
0001
0000
0000
1000
0000
0000
0100
0000
0010
0000
,
0001
0000
0000
0100
0000
0000
0010
0000
0000
1000
0000
0000
1000
0000
0100
0000
,
0010
0000
0000
0001
0000
0000
0010
0000
0000
0010
0000
0000
0001
0000
1000
0000
,
0010
0000
0000
1000
0000
0000
0100
0000
0000
1000
0000
0000
0001
0000
0100
0000
,
0010
0000
1000
0100
0000
1000
0100
0000
0000
0010
0000
0000
0001
0000
1000
0000
,
0010
0000
0100
0001
0000
0100
0001
0000
0000
1000
0000
0000
0100
0000
0010
0000
,
0001
0000
1000
0010
0000
1000
0010
0000
0000
0100
0000
0000
0001
0000
1000
0000
,
0010
0000
1000
0001
0000
1000
0001
0000
0000
0100
0000
0001
0100
0000
0010
1000
,
0010
0000
0000
0100
0000
0000
0001
0000
0000
1000
0000
0000
1000
0000
0010
0000
,
0100
0000
0001
0010
0000
0001
0010
0000
0000
0100
0000
0000
1000
0000
0010
0000
,
0100
0000
0001
0010
0000
0001
0010
0000
0100
1000
0000
0100
1000
0000
0001
0000
,
0100
0000
0010
1000
0000
0010
1000
0000
0001
0010
0000
0001
0010
0000
0100
0000
,
1001
0000
0010
0100
0001
0100
1000
0100
,
0000
0010
0001
0010
0100
0010
1000
0100
,
0110
0001
0110
0000
1000
0010
1000
0001
,
0100
0010
1000
0000
1000
0100
1000
0001
,
0011
0000
0001
0100
1000
0010
0100
0001
,
1010
0000
0100
1000
0001
0010
0001
0100
,
0101
0101
1100
1100
,
0011
0011
1010
1010
,
0001
0001
1000
1000
0010
0010
0100
0100
,
0001
1000
0001
1000
0010
0100
0010
0100
0001
1000
0001
1000
0010
0100
0010
0100
,
0002
0000
0013
0001
1000
0001
0100
0010
,
1000
0100
0010
0100
1000
0000
0001
0100
0000
0001
0100
0010
1000
0001
0100
0000
,
0110
0000
0010
1000
0000
1000
0001
0000
0000
0010
0000
0001
1000
0000
0100
0000
,
0010
0000
0100
1000
0000
1000
0001
0000
0000
0100
0000
0010
1000
0000
0001
0000
,
0010
0000
0001
0100
0000
0100
0010
0000
1000
0001
0000
0001
1000
0000
0100
0000
,
0110
0000
0000
0001
0000
0000
0100
0000
0000
1010
0000
0000
0101
0000
1000
0001
,
0100
0000
0010
1000
0000
0010
0100
0000
0000
0001
0000
0010
0001
0000
1000
0000
,
1100
0000
0001
0010
0000
0001
1000
0000
0000
0010
0000
1000
0001
0000
0100
0000
,
0101
0000
0010
1000
0000
1000
0100
0000
1000
0001
0000
0010
0001
0000
0100
0000
,
1010
0000
0001
0100
0000
0001
0100
0000
0010
1000
0000
0010
1000
0001
0100
0000
,
0010
0000
1000
0100
0000
0100
0010
0000
0010
0001
0000
0001
1000
0000
0010
0000
,
0100
0000
0001
0010
0000
0010
0100
0000
0100
1000
0000
1000
0001
0000
0100
0000
,
0010
0000
1000
0001
0000
0001
0010
0000
0010
0100
0000
0100
1000
0000
0001
0000
,
0101
0000
0000
1100
0000
0000
0101
0000
0000
1100
0000
0000
0101
0000
0010
0100
,
1000
0000
0001
0010
0000
0001
0010
0000
0001
0100
0000
0010
1000
0000
0001
0000
,
0110
0000
0001
0010
0000
0001
1000
0000
0100
0010
0000
0001
1000
0000
0100
0000
,
0011
0000
0010
0001
0000
0100
1000
0000
0010
0100
0000
0001
1000
0000
0010
0000
,
1010
0000
0000
0101
0000
0000
1100
0000
0000
0011
0000
1000
0010
0100
0001
0000
,
1001
0000
1001
0100
0010
0100
0001
0000
,
1000
1100
0110
0011
,
0101
0100
0010
0000
0101
0100
0010
1000
,
0001
0001
0100
0100
1000
0010
1000
0001
,
0011
1000
0010
1000
0100
0010
0110
0000
,
1001
0010
1000
0100
1000
0010
0110
0000
,
1001
0010
1000
0001
0100
0010
1000
0001
,
1000
0001
0010
0001
1000
0000
0010
0100
0000
0100
0001
0000
1000
0010
0100
0001
,
2000
0000
0000
0000
0000
0000
0000
0000
3010
0000
1000
0000
0100
0010
0000
0010
,
0001
0000
1000
0010
0100
0000
0001
0010
0000
0001
0100
0000
0010
1000
0000
1000
,
0100
0000
0010
0000
0001
0000
1000
0001
0000
0010
0100
0000
0010
0001
0000
0100
,
1000
0000
0001
0100
0010
0000
0010
0000
0001
0000
0100
0010
0000
1000
0000
0001
,
1000
0100
0010
0001
0100
0000
0010
1000
0000
0010
1000
0000
0010
1000
0000
0010
,
1000
0000
0001
0000
0100
0000
0001
0010
0000
0001
0010
0000
0001
0010
0000
0001
,
0010
0000
0100
0000
1000
0000
0001
0100
0000
0001
0100
0000
0010
1000
0000
0010
,
1000
0000
0001
0000
0010
0000
0001
0100
0000
0100
1000
0000
0001
0010
0000
0010
,
1000
0001
2020
0000
0000
0000
0000
0000
,
0000
0000
0000
0000
,
0000
3030
0000
0000
;

//---------------dance-single - ----------------
#NOTES:
     dance-single:
     :
     Challenge:
     17:
     :
0000
0000
0000
0000
,
0000
0000
0000
0000
,
0000
0000
0000
0000
,
0000
0000
0000
0000
,
0000
0000
0000
0000
,
0000
0000
0000
0000
,
0110
0000
1001
0000
1000
0100
0010
0100
,
0000
0101
0000
0000
1010
0000
1100
0000
,
0110
0000
0001
0100
0110
0000
1000
0100
,
0110
0000
0110
0000
0000
0000
0000
0000
1100
0000
0000
1001
0000
0000
1010
0000
,
0000
0000
0110
0010
1000
0001
0100
0001
,
0010
0100
1000
0010
0100
0001
0010
0100
,
1000
0100
0001
0100
1000
0010
0001
0010
,
1000
1010
0000
0000
0011
0000
0101
0000
,
0110
0000
1001
1000
0100
0010
0001
0100
,
0110
1000
0010
0100
0010
0001
0010
0100
,
0101
0010
1000
0000
1100
0010
0001
0000
,
1000
0000
0000
0010
0000
0000
0100
0000
0000
0010
0000
0000
1000
0000
0000
0001
0010
0100
1000
0000
0000
0010
1000
0001
,
0200
0000
0000
0000
,
0000
0000
0000
0300
,
0010
0000
1000
0001
0000
0010
0001
0000
0010
0100
0000
1000
0100
0010
0001
0000
,
0100
0000
0010
1000
0000
0100
1000
0000
0100
0010
0000
0001
0010
0100
1000
0000
,
0010
0000
0100
0010
0000
1000
0010
0000
0100
0001
0000
0010
0001
1000
0100
0000
,
1000
0000
0001
1000
0000
0010
1000
0000
0100
0010
0000
0100
1000
0001
0010
0001
,
0010
0000
0001
0100
0000
0010
1000
0000
0100
1000
0000
0100
0010
0001
1000
0000
,
0010
0000
0100
0001
0000
0010
0001
0000
1000
0010
0000
1000
0001
0100
0010
0000
,
1000
0000
0100
0010
0000
0100
0001
0000
0100
0010
0000
0100
1000
0010
0100
0000
,
0001
0000
0100
0010
0000
0100
1000
0000
0100
0010
0000
0100
0001
0000
0010
0000
,
0001
0000
1000
0010
0000
0100
0010
0000
0100
0001
0000
1000
0001
0010
0001
0000
,
1000
0000
0001
0010
0000
0100
0010
0000
0100
1000
0000
0001
1000
0010
1000
0000
,
0100
0000
0010
0001
0000
0100
0001
0000
0010
0001
0000
1000
0010
0100
0001
0000
,
1000
0000
0010
1000
0000
0100
1000
0000
0010
1000
0000
0100
0010
0001
1000
0000
,
0001
0000
0010
1000
0000
0010
0001
0000
1000
0100
0000
0010
0001
0100
0001
0000
,
1000
0000
0100
0001
0000
0100
1000
0000
0001
0010
0000
0100
1000
0010
1000
0000
,
0100
0010
0001
0000
0010
0100
1000
0000
0010
0100
0001
0000
0100
0010
1000
0000
,
0100
0010
0100
0010
0001
1000
0001
1000
0010
0100
0010
0100
0001
0010
0100
1000
,
0100
0000
0000
0000
0010
0000
0000
0000
0010
0000
0000
0000
0010
0000
0010
0001
,
0010
0000
0000
0000
0100
0000
0000
0000
0100
0000
0000
0000
0100
0000
0100
1000
,
0100
0000
0000
0000
1001
0000
0000
0000
1000
0000
0000
0000
1000
0000
1000
0001
,
1000
0000
0000
0000
0001
0000
0000
0000
0001
0000
0000
0000
0001
1000
0001
1000
,
0001
0000
0000
0000
0100
0000
0001
0000
0010
0000
0000
0000
0100
1000
0001
0010
,
0001
0000
0000
0000
1000
0000
0010
0000
0100
0000
0000
0000
0001
0100
0010
1000
,
0010
0001
0011
0100
,
0101
1000
1100
0010
,
0001
0100
1000
0010
0001
0100
1000
0010
,
1000
0010
0100
0001
0010
0100
1000
0010
0100
0001
0010
0100
1000
0010
0100
0001
,
0020
0000
0000
0000
,
0130
1000
0010
1000
0100
0000
0010
0001
0000
1000
0001
0100
0001
0000
0010
0000
,
1001
0000
0100
1000
0000
0010
1000
0000
0100
0010
0000
0001
0100
0010
0100
0001
,
1000
0000
0100
0010
0000
0001
1000
0000
0010
0100
0000
0001
1000
0010
1000
0100
,
1000
0000
0100
0001
0000
0100
1000
0000
0010
0000
1000
0000
0001
0100
0001
0100
,
0002
0000
0000
0000
0103
0000
0000
0000
1010
0000
0000
1100
0000
0000
0101
0000
,
1000
0000
0000
0000
0110
0000
0001
0000
1000
0010
0000
1000
0100
0010
0001
0000
,
0110
0000
1000
0010
0000
0100
0001
0000
0010
0001
0000
0010
0100
1000
0100
0000
,
0110
0000
0100
0010
0000
0100
1000
0000
0001
0100
0000
0010
0100
1000
0100
0000
,
0001
1000
0001
0000
1000
0000
1001
0000
0000
0000
1000
0000
0001
0000
1000
0000
,
1001
0000
0100
0001
0000
0100
0010
0000
1000
0100
0000
0010
0001
1000
0010
0100
,
0010
0000
1000
0001
0000
0010
1000
0000
0010
0001
0000
1000
0100
1000
0001
0010
,
0001
0000
0100
0010
0000
1000
0010
0000
1000
0001
0000
0010
0100
1000
0100
1000
,
0001
0000
0000
0000
1001
0000
0000
0000
0011
0000
0000
0101
0000
0000
1100
0000
,
1010
0000
0001
0100
0000
0010
1000
0000
0001
0010
0000
0001
1000
0010
0100
0000
,
0110
0000
1000
0100
0000
0010
0001
0000
1000
0010
0000
1000
0001
0010
0100
0000
,
1100
0000
0010
0001
0000
0010
0001
0000
0100
0001
0000
0100
0010
0000
1000
0000
,
0001
0010
1000
0010
0001
0000
0001
0000
1000
0100
0000
0001
0100
0000
1000
0000
,
1001
0000
0020
0200
0000
0000
0000
0000
,
0330
0101
1010
0011
,
1100
0001
0100
0000
0011
1000
0010
0000
,
1100
0000
0100
0000
0110
0000
0010
0000
0011
0000
0000
0001
0000
0000
1000
0000
,
0220
0000
0330
1001
,
0220
0000
0330
1001
,
1000
0010
1000
0000
0001
0100
0001
0000
0010
0001
0010
0000
0100
1000
0100
0000
,
1000
0010
0100
0001
0100
0000
0001
0010
0000
0001
0100
0001
0010
0000
0100
0000
,
0000
0000
0000
0000
0000
0000
0000
0000
0110
0000
1000
0000
0001
0100
0000
0010
,
1000
0010
0100
0001
1000
0000
0100
0010
0000
0100
1000
0000
0001
0010
0000
0001
,
0010
0100
0010
0100
1000
0000
0010
0100
0000
0001
0100
0000
0010
0100
0010
1000
,
0001
0100
0010
0100
0001
0000
1001
0000
0010
1000
0100
1000
0010
0100
0001
0010
,
0001
0000
0100
0000
0110
0000
0110
0000
0000
0000
0000
0000
1000
0100
0010
0001
,
0100
0010
1000
0100
0010
0000
0110
0000
0000
0000
0000
0000
0001
0010
0100
1000
,
0010
0100
0001
0010
0100
0000
1000
0010
0001
0000
0010
1000
0100
0000
0001
0100
,
1000
0000
0001
0010
0100
1000
0100
1000
0010
1000
0010
0100
0001
1000
0001
0100
,
0001
0010
0100
1000
0002
0000
0000
0000
0000
0000
0000
0000
0000
0000
0000
0000
,
0000
0000
0000
0000
,
0000
0003
0000
0000
;

//---------------dance-double - ----------------
#NOTES:
     dance-double:
     :
     Easy:
     10:
     :
00000000
00000000
00000000
00000000
,
00000000
00000000
00000000
00000000
,
00000000
00000000
00000000
00000000
,
00000000
00000000
00000000
00000000
,
00000000
00000000
00000000
00000000
,
00000000
00000000
00000000
00000000
,
00000001
00000010
00000001
00000010
,
00000100
00001000
00000100
00000100
,
00010000
00001000
00010000
00000000
,
01000000
00100000
01000000
00000000
,
00000000
10010000
10000000
01000000
,
00100000
00000000
00010000
00000000
01000000
00100000
01000000
00000000
,
00010000
00100000
00001000
00010000
,
00001000
00010000
00001000
00000000
00000010
00000000
00000100
00000000
,
00001000
00001001
00000010
00000100
,
00001000
00000000
00010000
00000000
00001000
01000000
00001000
00000000
,
00100000
00010000
10000000
01000000
,
00010000
00001000
00010000
00001000
00010000
00000000
00001000
00000000
,
00022000
00000000
00000000
00000000
,
00000000
00000000
00000000
00033000
,
00001000
00000000
00000000
00000010
00000000
00000000
00000001
00000000
,
00001000
00000000
00000000
00000100
00000000
00000000
00000010
00000000
,
00000100
00000000
00000000
00010000
00000000
00000000
00001000
00000000
,
00100000
00000000
00000000
00010000
00000000
00000000
01000000
00000000
,
00010000
00000000
00000000
01000000
00000000
00000000
10000000
00000000
,
00010000
00000000
00000000
00100000
00000000
00000000
01000000
00000000
,
00010000
00000000
00000000
00100000
00000000
00000000
00001000
00000000
,
00010000
00000000
00000000
00001000
00000000
00000000
00000010
00000000
,
00000001
00001000
00000001
00000000
00000100
00000000
00000010
00000000
,
00001000
00000100
00001000
00000000
00000010
00000000
00010000
00000000
,
00001000
00010000
00001000
00000000
01000000
00000000
00010000
00000000
,
00100000
01000000
00100000
00000000
01000000
00000000
10000000
00000000
,
00100000
00010000
00001000
00001000
,
00000010
00000100
00010000
00010000
,
00001000
00000100
00000010
00001000
,
00010000
01000000
00100000
00010000
,
00011000
00001000
00010000
00000000
,
00000100
00000010
00000100
00000000
,
00011000
00010000
00001000
00000000
,
01000000
00100000
01000000
00000000
,
10010000
00100000
00000000
00010000
,
00011000
00001000
00000000
00000010
,
00000001
00000001
00000100
00000100
,
00001000
00001000
00010000
00010000
,
01000000
01000000
10000000
10000000
,
00100000
01000000
00100000
01000000
00100000
00000000
00010000
00000000
,
00022000
00000000
00000000
00033000
,
00000100
00000010
00000001
00001001
,
00000010
00000100
00000010
00001000
,
00000100
00000000
00010000
00000000
00001000
00010000
00001000
00000000
,
00100000
00010000
01000000
00100000
,
01100000
10000000
10010000
10010000
,
01000000
00010000
00001000
00000010
,
00000100
00010000
00001000
00000100
,
00000001
00001000
00000001
00000000
00001000
00000001
00001000
00000000
,
00000100
00010000
00001000
01000000
,
00100000
10010000
01000000
00100000
,
10000000
00000000
01000000
00000000
00010000
00001000
00010000
00000000
,
00000010
00001000
00000001
00000010
,
00000110
00001000
00001100
00011000
,
00110000
00000000
01000000
00000000
10000000
00010000
10000000
00000000
,
00110000
00000000
00001000
00000000
00000100
00000010
00000100
00000000
,
00001100
00000010
00000101
00000010
,
00010000
00000010
00010000
00000000
00001000
01000000
00001000
00000000
,
00010000
00022000
00000000
00000000
,
00033000
00001000
00100000
00010000
,
01010000
00000000
10100000
00000000
,
01000000
00100000
01000000
00100000
01000000
00000000
00100000
00000000
,
02200000
00000000
03300000
00001000
,
00022000
00000000
00033000
00000010
,
00000100
00000000
00000110
00000000
,
00000001
00000010
00000100
00001000
,
00000000
00000000
00001000
00001000
,
00000100
00000000
00010000
00000000
00001000
00000000
01000000
00010000
,
00100000
01000000
10000000
01000000
,
00010000
00011000
00000000
00000110
,
00000001
00000000
00001001
00000000
00000010
00000000
00000100
00001000
,
00000100
00000000
00000010
00000000
00010000
00000000
00001000
00100000
,
00010000
00000000
01000000
00100000
10000000
00000000
01000000
00100000
,
00010000
00000000
00100000
00000000
00001000
00000000
00010000
00000100
,
00001000
00000220
00000000
00000000
,
00000000
00000000
00000000
00000000
,
00000000
00000330
00000000
00000000
,
00000000
00000000
00000000
00000000
;

//---------------dance-double - ----------------
#NOTES:
     dance-double:
     :
     Medium:
     14:
     :
00000000
00000000
00000000
00000000
,
00000000
00000000
00000000
00000000
,
00000000
00000000
00000000
00000000
,
00000000
00000000
00000000
00000000
,
00000000
00000000
00000000
00000000
,
00000000
00000000
00000000
00000000
,
10000000
00000000
10010000
00000000
00100000
01000000
00100000
00000000
,
00010000
00001000
00010000
00000000
00000100
00001000
00000100
00000000
,
00001010
00000001
00000011
00000100
,
00000010
00000000
00000200
00000000
00000000
00000000
00000000
00000000
00000010
00000000
00000000
00000010
00000000
00000000
00000310
00000000
,
00000000
00000000
00001001
00000000
00000010
00000001
00000100
00000000
,
00000010
00001000
00000100
00000000
00010000
00001000
00100000
00000000
,
00010000
01000000
10000000
00000000
00010000
00100000
10000000
00000000
,
00100000
01000000
00000000
00000000
01010000
00000000
00110000
00000000
,
00001000
00000000
00011000
00000000
00001000
00000010
00000001
00000000
,
00001000
00000100
00000001
00000000
00000010
00000100
00001000
00000000
,
00001100
00000000
00010000
00001000
00011000
00000000
00001000
01000000
,
00010000
00100000
01000000
10000000
00100000
01000000
00010000
00100000
,
00002000
00000000
00000000
00000000
,
00000000
00000000
00000000
00003000
,
00001000
00000000
00000000
00000010
00000000
00000000
00000001
00000000
00000000
00000010
00000000
00000000
00001000
00000000
00000000
00000000
,
00010000
00000000
00000000
00100000
00000000
00000000
10000000
00000000
00000000
00100000
00000000
00000000
00010000
00000000
00000000
00000000
,
00001000
00000000
00000000
00000100
00000000
00000000
00000001
00000000
00000000
00000100
00000000
00000000
00001000
00000000
00000000
00000000
,
00010000
00000000
00000000
01000000
00000000
00000000
10000000
00000000
00000000
01000000
00000000
00000000
00010000
00000000
00000000
00000000
,
00001000
00000000
00000000
00000010
00000000
00000000
00000001
00000000
00000000
00000100
00000000
00000000
00001000
00000000
00010000
00000000
,
00100000
00000000
00000000
10000000
00000000
00000000
01000000
00000000
00000000
00010000
00000000
00000000
00001000
00000000
00000010
00000000
,
00000001
00000000
00000000
00000010
00000000
00000000
00001000
00000000
00000000
00010000
00000000
00000000
01000000
00000000
10000000
00000000
,
00100000
00000000
00000000
00010000
00000000
00000000
00001000
00000000
00000000
00000100
00000000
00000000
00000001
00000000
00001000
00000000
,
00000010
00000000
00000100
00000001
00000000
00000100
00000001
00000000
00000100
00000000
00000001
00000000
00000010
00000000
00000000
00000000
,
00000100
00000000
00010000
00000100
00000000
00010000
00000100
00000000
00010000
00000000
00001000
00000000
00010000
00000000
00000000
00000000
,
00001000
00000000
01000000
00010000
00000000
01000000
00010000
00000000
01000000
00000000
00100000
00000000
10000000
00000000
00000000
00000000
,
00010000
00000000
00100000
01000000
00000000
00100000
01000000
00000000
00100000
00000000
00010000
00000000
01000000
00000000
00000000
00000000
,
00001000
00010000
00001000
00000000
00000010
00000001
00000010
00000000
,
00000100
00001000
00000100
00000000
00010000
00001000
00010000
00000000
,
01000000
00100000
00001000
00010000
01000000
00100000
00001000
00010000
,
00000010
00000100
00001000
00010000
00000010
00000100
00001000
00010000
,
00011000
00000000
00001000
00000000
00001000
00000000
00010000
00100000
,
00010000
00000000
00001000
00000000
00001000
00000000
00010000
01000000
,
00010000
00000000
00011000
00000000
00010000
00000000
00001000
00000010
,
00001000
00000000
00010000
00000000
00010000
00000000
00001000
00000100
,
00001000
00000000
00010000
00100000
01000000
00000000
00010000
00100000
,
01000000
00000000
00010000
00001000
00000010
00000000
00000100
00001000
,
00000010
00000010
00000100
00000100
,
00001000
00001000
00010000
00010000
,
01000000
10000000
00100000
01000000
00010000
00100000
00001000
00010000
,
00000100
00001000
00000010
00000000
00000100
00000000
00000001
00000000
00000010
00000001
00000100
00000000
00000010
00000000
00001000
00000000
,
00000200
00000000
00000000
00000000
,
00000301
00000000
00000100
00000000
00001000
00000000
00000000
00000100
00000000
00000000
00010000
00000000
00011000
00000000
00000000
00000000
,
01000000
00000000
00010000
00100000
00000000
00010000
01000000
00000000
10000000
00000000
01000000
00000000
00100000
00000000
10000000
00000000
,
01000000
00000000
00010000
00001000
00000000
00010000
00001000
00000000
00100000
00000000
00001000
00000000
00000010
00000000
00000100
00000000
,
00001000
00000000
00000001
00000100
00000000
00000010
00001000
00000000
00000001
00000000
00000010
00000000
00001000
00000000
00010000
00000000
,
00001000
00000000
00000000
00000000
00011000
00000000
00000000
00000000
01000000
00000000
00000000
01000000
00000000
00000000
01000000
00000000
,
00100000
00000000
10000000
00010000
00000000
01000000
00100000
00000000
10000000
00000000
00010000
00000000
00100000
00000000
00001000
00000000
,
00010000
00000000
00000100
00001000
00000000
00000010
00010000
00000000
00000100
00000000
00001000
00000000
00000010
00000000
00000001
00000000
,
00000010
00000000
00001000
00000001
00000000
00001000
00000001
00000000
00001000
00000000
00000100
00000000
00010000
00000000
00001000
00000000
,
00100000
00010000
01000000
01100000
00000000
10000000
00100000
10000000
,
01000000
00000000
00010000
00001000
00000000
00010000
00001000
00000000
00000010
00000000
00000001
00000000
00001000
00000000
00000010
00000000
,
00010000
00000000
00001000
00010000
00000000
00001000
00010000
00000000
00001000
00000000
01000000
00000000
00010000
00000000
00100000
00000000
,
01000000
00000000
10000000
00010000
00000000
10000000
00010000
00000000
01000000
00000000
00100000
00000000
00010000
00000000
00001000
00000000
,
00010000
00000000
00000000
00000000
00011000
00000000
00000000
00000000
00000010
00000000
00000000
00000100
00000000
00000000
00000100
00000000
,
00000001
00000000
00000100
00001000
00000000
00010000
00001000
00000000
00010000
00000000
00000010
00000000
00010000
00000000
00001000
00000000
,
01000000
00000000
00100000
00010000
00000000
00001000
00010000
00000000
00001000
00000000
00100000
00000000
01000000
00000000
00010000
00000000
,
00001000
00000000
00010000
00001000
00000000
00010000
00001000
00000000
00000010
00000000
00000100
00000000
00000010
00000000
00000001
00000000
,
00001000
00000100
00001000
00000000
00000100
00000000
00010000
00000000
00000000
00000000
00001000
00000000
00010000
00000000
00001000
00000000
,
00010000
00000000
00020000
00002000
00000000
00000000
00000000
00000000
,
00033000
00100000
01000000
10010000
,
10000000
01000000
00010000
00000000
00001000
00000010
00000001
00000000
,
00000001
00000000
00000100
00000000
00001000
00000000
00010000
00000000
00100000
00000000
00000000
10000000
00000000
00000000
00010000
00000000
,
20020000
00000000
30030000
00100000
,
02200000
00000000
03300000
00010000
,
00011000
00000100
00000110
00000001
,
00001000
00000000
00000010
00000000
00000001
00000000
00000000
00001000
00000000
00000000
00000100
00000000
00010000
00000000
00001000
00000000
,
00000000
00000000
00000000
00000000
00000000
00000000
00000000
00000000
00011000
00000000
00001000
00000000
01000000
00010000
00000000
00100000
,
01000000
00100000
01000000
00000000
10000000
00000000
00100000
00000000
00010000
00000000
00100000
00000000
01000000
00010000
00000000
01000000
,
00001000
01000000
00001000
00000000
00010000
00000000
00000100
00000000
00001000
00000000
00000100
00000000
00000010
00000000
00000001
00000000
,
00000100
00000000
00001000
00000000
00000100
00000000
00000110
00000000
00000000
00000000
00000000
00000000
00000010
00001000
00000010
00000000
,
00010000
00000000
00000000
00000000
00001000
00000000
00011000
00000000
00000000
00000000
00000000
00000000
01000000
00100000
01000000
00100000
,
01000000
00000000
00000000
00000000
00001000
00000000
00011000
00000000
00000000
00000000
00000000
00000000
00000100
00000010
00000100
00000010
,
00000100
00000000
00000010
00000001
00000100
00001000
00010000
00100000
,
01000000
00000000
00010000
00000000
10000000
00000000
01000000
00100000
01000000
00000000
00010000
00000000
00001000
00000000
00000010
00000100
,
00000010
00000001
00002002
00000000
00000000
00000000
00000000
00000000
,
00000000
00000000
00000000
00000000
,
00000000
00003003
00000000
00000000
,
00000000
00000000
00000000
00000000
;

//---------------dance-double - ----------------
#NOTES:
     dance-double:
     :
     Hard:
     17:
     :
00000000
00000000
00000000
00000000
,
00000000
00000000
00000000
00000000
,
00000000
00000000
00000000
00000000
,
00000000
00000000
00000000
00000000
,
00000000
00000000
00000000
00000000
,
00000000
00000000
00000000
00000000
,
00100000
00000000
10010000
00000000
00100000
01000000
00010000
00000000
,
00100000
01000000
00000000
00000000
00011000
00000000
00001010
00000000
,
00000110
00000000
00000001
00000100
00001000
00000000
00000001
00000100
,
00001000
00000000
00010000
00000000
00000000
00000000
00000000
00000000
00001000
00000000
00000000
00010000
00000000
00000000
00001000
00000000
,
00000000
00000000
00011000
00000000
00100000
00010000
01000000
00010000
,
00100000
01000000
10000000
00100000
01000000
00001000
00010000
00000100
,
00001000
00000010
00000100
00000001
00000010
00000001
00000100
00000010
,
00001000
00001100
00000000
00000000
00011000
00000000
01010000
00000000
,
01100000
00000000
10010000
00000000
00100000
10000000
01000000
00100000
,
00110000
00010000
01000000
00100000
00010000
00001000
00000100
00000010
,
00001010
00001000
00000001
00000000
00000101
00000001
00000010
00000000
,
00000100
00000000
00010000
00000000
00001000
00000000
00100000
00000000
00010000
00000000
01000000
00100000
10000000
00000000
01000000
00100000
,
00020000
00000000
00000000
00000000
,
00000000
00000000
00000000
00030000
,
10000000
00000000
01000000
00100000
00000000
01000000
00100000
00000000
00010000
00100000
00000000
00001000
00010000
00001000
00010000
00000000
,
00000100
00000000
00001000
00000010
00000000
00001000
00000010
00000000
00000100
00000001
00000000
00000010
00000001
00000010
00000001
00000000
,
00000100
00000000
00000001
00001000
00000000
00000001
00001000
00000000
00000010
00000100
00000000
00000010
00001000
00000010
00001000
00000000
,
00000100
00000000
00010000
00001000
00000000
00010000
00001000
00000000
01000000
00010000
00000000
00100000
00010000
00100000
01000000
00100000
,
01000000
00000000
10000000
00010000
00000000
10000000
00010000
00000000
01000000
00010000
00000000
01000000
00010000
01000000
00100000
00000000
,
10000000
00000000
01000000
00010000
00000000
01000000
00010000
00000000
00001000
00010000
00000000
00000100
00010000
00000100
00001000
00000000
,
00000100
00000000
00000010
00000100
00000000
00000010
00000100
00000000
00001000
00000010
00000000
00000100
00000010
00000100
00000001
00000000
,
00000100
00000000
00000010
00001000
00000000
00000010
00001000
00000000
00000100
00010000
00000000
00001000
00010000
00000000
00001000
00000000
,
00100000
00000000
00010000
01000000
00000000
00010000
00100000
00000000
01000000
10000000
00000000
01000000
00010000
00000000
00001000
00000000
,
00000010
00000000
00000001
00000100
00000000
00000001
00000010
00000000
00000100
00001000
00000000
00000100
00000001
00000000
00000100
00000000
,
00001000
00000000
00000010
00000100
00000000
00001000
00010000
00000000
00100000
01000000
00000000
00010000
10000000
00000000
00010000
00000000
,
00100000
00000000
01000000
00010000
00000000
00001000
00000010
00000000
00000001
00000100
00000000
00000001
00000010
00000000
00000001
00000000
,
00001000
00000000
00000010
00000001
00000000
00000010
00001000
00000000
00000001
00000100
00000000
00001000
00010000
00001000
00010000
00000000
,
00100000
00000000
10000000
01000000
00000000
00010000
01000000
00000000
10000000
00010000
00000000
00100000
00001000
00010000
00001000
00000000
,
00000100
00000010
00001000
00000000
00000001
00000000
00000010
00000000
00000100
00010000
00001000
00000000
00100000
00000000
00010000
00000000
,
01000000
00100000
10000000
00000000
00100000
01000000
00010000
00000000
00100000
00001000
00010000
00000100
00001000
00000100
00000010
00000001
,
00000010
00000000
00000000
00000000
00000010
00000000
00000000
00000000
00000010
00000000
00000000
00000000
00000001
00000000
00000100
00001000
,
00000100
00000000
00000000
00000000
00010000
00000000
00000000
00000000
00010000
00000000
00000000
00000000
01000000
00000000
01000000
00100000
,
01000000
00000000
00000000
00000000
10010000
00000000
00000000
00000000
00100000
00000000
00000000
00000000
10000000
00000000
01000000
00010000
,
01000000
00000000
00000000
00000000
00001000
00000000
00000000
00000000
00001000
00000000
00000000
00000000
00000100
00000010
00000100
00000010
,
00000100
00000000
00000000
00000000
00001000
00000000
00000010
00000000
00000100
00000000
00000000
00000000
00000100
00001000
00010000
01000000
,
00100000
00000000
00000000
00000000
00010000
00000000
01000000
00000000
00100000
00000000
00000000
00000000
00100000
00010000
00001000
00000010
,
00000100
00000100
00010100
00010100
,
00001000
00001000
00011000
00011000
,
01000000
00010000
01000000
00010000
00100000
00010000
00100000
00010000
,
10000000
00100000
01000000
00010000
00100000
01000000
00010000
00001000
00000010
00000100
00001000
00000010
00000100
00000001
00000010
00000100
,
00002000
00000000
00000000
00003000
,
00001000
00000100
00000001
00000100
00001000
00000000
00000100
00000010
00000000
00001000
00010000
00000000
00011000
00000000
00000000
00000000
,
00001000
00000000
01000000
10000000
00000000
00010000
00100000
00000000
10000000
01000000
00000000
00100000
00010000
10000000
00010000
00000000
,
01000000
00000000
00100000
00010000
00000000
00000010
00001000
00000000
00000100
00000001
00000000
00000100
00000010
00000100
00001000
00000000
,
00000001
00000000
00000010
00001000
00000000
00010000
00001000
00000000
01000000
00000000
00100000
00000000
10000000
00010000
10000000
00010000
,
20000000
00000000
00000000
00000000
31000000
00000000
00000000
00000000
00100000
00000000
00000000
00101000
00000000
00000000
00011000
00000000
,
00000100
00000000
00000000
00000000
00000110
00000000
00000000
00000000
00001000
00000100
00000000
00000010
00000001
00000010
00000100
00000000
,
00001100
00000000
00010000
00001000
00000000
01000000
00010000
00000000
01000000
00100000
00000000
10000000
00100000
01000000
00010000
00000000
,
10000000
00000000
01000000
00010000
00000000
01000000
10000000
00000000
00100000
01000000
00000000
00010000
00100000
00010000
00100000
00000000
,
00001000
00010000
00001000
00000000
00010000
00000000
00011000
00000000
00000000
00000000
00000010
00000000
00000100
00000000
00001000
00000000
,
00010000
00000000
00000100
00000001
00000000
00001000
00000010
00000000
00000001
00000100
00000000
00000010
00001000
00000001
00001000
00000000
,
00000100
00000000
00000010
00001000
00000000
00100000
00010000
00000000
01000000
10000000
00000000
01000000
00100000
01000000
00010000
00000000
,
10000000
00000000
00100000
00010000
00000000
00001000
00010000
00000000
00000100
00000000
00000010
00000000
00000001
00001000
00000001
00001000
,
00000001
00000000
00000000
00000000
00001001
00000000
00000000
00000000
00000110
00000000
00000000
00010010
00000000
00000000
00011000
00000000
,
01000000
00000000
00100000
10000000
00000000
00100000
01000000
00000000
00010000
01000000
00000000
00100000
10000000
00100000
01000000
00000000
,
01010000
00000000
00001000
00010000
00000000
00000100
00001000
00000000
00000100
00000010
00000000
00000001
00000010
00000100
00001000
00000000
,
00000001
00000000
00000100
00001000
00000000
00000100
00000001
00000000
00000010
00000100
00000000
00001000
00000010
00001000
00000010
00000000
,
00010000
00001000
00010000
00001000
00010000
00000000
00011000
00000000
00000000
00000000
00010000
00000000
01000000
00000000
10000000
00000000
,
10010000
00000000
00200000
02000000
00000000
00000000
00000000
00000000
,
03300000
11000000
00110000
00011000
,
00001000
00000010
00000001
00000000
00001000
00000100
00000001
00000000
,
00000001
00000000
00000100
00000000
00010000
00000000
00001000
00000000
00100000
00000000
00000000
01000000
00000000
00000000
10000000
00000000
,
20020000
00000000
30030000
00010000
,
00022000
00000000
00033000
00001000
,
00001000
00000010
00001000
00000000
00010000
00000000
00001000
00000000
00010000
00100000
00010000
00000000
00001000
00000000
00010000
00000000
,
00001000
00000100
00000010
00000100
00000001
00000000
00000010
00000100
00000000
00000010
00001000
00010000
00001000
00000000
00010000
00000000
,
00000000
00000000
00000000
00000000
00000000
00000000
00000000
00000000
00011000
00000000
00001000
00000000
00100000
00010000
00000000
01000000
,
00100000
10000000
00100000
01000000
00010000
00000000
00100000
01000000
00000000
00100000
00001000
00000000
00010000
00001000
00000000
00010000
,
00000100
00001000
00000100
00000010
00000001
00000000
00000100
00000010
00000000
00000100
00000001
00000000
00001000
00000010
00001000
00000010
,
00010000
00001000
00010000
00001000
00010000
00000000
00011000
00000000
00001000
00100000
00010000
00100000
01000000
10000000
01000000
10000000
,
00100000
00000000
00000000
00000000
01100000
00000000
01100000
00000000
00000000
00000000
00000000
00000000
10000000
01000000
00010000
00000000
,
00001000
00000010
00000001
00000000
00000110
00000000
00000110
00000000
00000000
00000000
00000000
00000000
00000001
00000100
00001000
00000000
,
00010000
00100000
10000000
00000000
01000000
00000000
00010000
00001000
00010000
00000000
00100000
01000000
00001000
00000000
00010000
00000100
,
00000010
00000000
00001000
00010000
00100000
01000000
00100000
01000000
00001000
00010000
00001000
00010000
00000100
00000010
00000100
00000010
,
00001000
00010000
01000000
10000000
00020000
00000000
00000000
00000000
00000000
00000000
00000000
00000000
00000000
00000000
00000000
00000000
,
00000000
00000000
00000000
00000000
,
00000000
00030000
00000000
00000000
,
00000000
00000000
00000000
00000000
;
