#TITLE:Enter Sandman;
#ARTIST:Metallica;
#BANNER:Enter Sandman-bn.png;
#BACKGROUND:Enter Sandman-bg.png;
#JACKET:Enter Sandman-jacket.png;
#MUSIC:Enter Sandman.ogg;
#OFFSET:1.667;
#SAMPLESTART:38.875;
#SAMPLELENGTH:20;
#LASTBEATHINT:1.362;
#DISPLAYBPM:123:126;
#BPMS:0=123.99,28=125,44=123,48=125.6,56=124.65,72=123.75,80=126,84=124.573,112=124,116=125.137,120=123.675,136=124.357,148=125.8,152=124.9,160=124.47,172=123.91,184=125.18,192=125.976,196=125.084,200=125.3,208=125.73,220=125.222,232=124.62,240=123.321;
#BGCHANGES:;

//---------------dance-single - ----------------
#NOTES:
     dance-single:
     :
     Beginner:
     3:
     :
0000
0000
0000
0000
,
0000
0000
0000
0000
,
0000
0000
0000
0000
,
0000
0000
0000
0000
,
0000
0000
0000
0000
0000
0000
0000
0001
,
0000
0000
0010
0000
,
0001
0000
0100
0000
,
1000
0000
0010
0000
,
0100
0000
0000
0000
0000
0000
0000
0010
,
0000
0000
1000
0000
,
0100
0000
0001
0000
,
0010
0000
0001
0000
,
0200
0000
0000
0300
,
0000
0000
0010
0000
,
1000
0000
0001
0000
,
1000
0000
0100
0000
,
0020
0000
0000
0000
0030
0000
0000
0001
,
0000
0000
1000
0000
,
1000
0000
0001
0000
,
0000
0000
0100
0000
,
0010
0000
1000
0000
,
0001
0000
0001
0000
,
0001
0000
0000
0000
,
1000
0000
1000
0000
,
1000
0000
0000
0000
,
0020
0000
0000
0000
0030
0000
0000
0200
,
0000
0000
0300
0000
,
0001
0001
0001
0000
,
1000
0000
0001
0000
,
0010
0000
0001
0000
,
0100
0000
0010
0000
,
1000
0000
0000
0000
0000
0000
0000
0001
,
0000
0000
1000
0000
,
0100
0000
0001
0000
,
0010
0000
0001
0000
,
2000
0000
0000
0000
3000
0000
0000
0010
,
0000
0000
0100
0000
,
0001
0000
0010
0000
,
0100
0000
1000
0000
,
0001
0000
1000
1000
,
0000
0000
0010
0000
,
1000
0000
0001
0000
,
0010
0000
0001
0000
,
0200
0000
0000
0000
0300
0000
0000
0010
,
0000
0000
0100
0000
,
0001
0000
1000
0000
,
0000
0000
0010
0000
,
1000
0000
0100
0000
,
0010
0000
0010
0000
,
0010
0000
0000
0000
,
0100
0000
0100
0000
,
0100
0000
0000
0000
,
2000
0000
0000
0000
3000
0000
0000
0002
,
0000
0000
0003
0000
,
0010
0000
0001
0000
,
1000
0000
0000
0000
,
0100
0000
0010
0000
,
0001
0000
0000
0000
,
2000
0000
0000
0000
3000
0000
0000
0020
,
0000
0000
0030
0000
,
0100
0000
0100
0000
0100
0000
0000
0001
;

//---------------dance-single - ----------------
#NOTES:
     dance-single:
     :
     Easy:
     6:
     :
0000
0000
0000
0000
,
0000
0000
0000
0000
,
0000
0000
0000
0000
,
0000
0000
0000
0000
,
0000
0000
0000
0000
0000
0000
0000
0010
,
0000
0000
1000
0000
0001
0000
0000
0010
,
0000
0000
0001
0000
0100
0000
0000
0010
,
0000
0000
1000
0000
0100
0000
0000
0010
,
0000
0000
0001
0000
0100
0000
0001
1000
,
0000
1001
0010
1000
,
0100
1000
0010
0100
,
0001
0000
0010
0000
0001
0000
1000
0020
,
0000
0200
0000
0000
0330
0000
0000
0001
,
0000
0110
0001
0100
,
0010
1000
0100
1000
,
0001
0000
0010
0000
0001
0000
0100
0002
,
0000
2000
0000
0000
3003
0000
0000
1010
,
0000
0000
0001
0000
0100
0000
0000
0010
,
0000
0000
1000
0000
0001
0000
0000
0011
,
0000
0000
0100
0000
1000
0000
0000
0010
,
0000
1000
0000
0001
0000
0000
0000
0000
,
0200
0000
0000
0000
0310
0000
0000
1000
,
0000
0001
0100
0000
,
0002
0000
0000
0000
0013
0000
0000
0100
,
0000
1000
0010
0100
,
0202
0000
0000
0300
0000
1000
0000
2000
,
0000
0000
0000
3003
,
0010
0000
0010
0000
1000
0000
0001
1000
,
0000
0000
0010
0000
1000
0000
0000
0100
,
0000
0000
0010
0000
0001
0000
0000
1000
,
0000
0000
0001
0000
0100
0000
0000
0010
,
0000
0000
1000
0000
0100
0000
0010
0001
,
0000
0000
0100
0000
0001
0000
0000
0010
,
0000
0000
1000
0000
0100
0000
0000
1000
,
0000
0000
0010
0000
1000
0000
0001
0100
,
0000
0000
0100
0000
0010
0000
1000
0001
,
0000
1001
0010
1000
,
0010
0100
0001
0010
,
0001
0000
0100
0000
0010
0000
1000
0002
,
0000
0000
0100
0000
0100
0000
0103
0010
,
0000
0110
1000
0010
,
1000
0100
0010
0001
,
0100
0000
0001
0000
0010
0000
0001
2000
,
0000
0000
0000
0000
0000
3010
0000
0101
,
0000
0000
1000
0000
0001
0000
0000
0010
,
0000
0000
0001
0000
0100
0000
0000
0010
,
0000
0000
0100
0000
0001
0000
0000
1000
,
0000
0100
0000
0010
0000
0000
0000
0000
,
0002
0000
0000
0000
1003
0000
0000
0010
,
0000
1000
0100
0000
,
0020
0000
0000
0000
0130
0000
0000
0010
,
0000
0001
1000
0010
,
0202
0000
0000
0300
0000
1000
0000
2000
,
0000
0000
0000
3003
,
0200
0000
0000
0000
1300
0000
0000
0001
,
0000
0010
0001
0000
,
2000
0000
0000
0000
3010
0000
0000
0001
,
0000
0010
0001
0100
,
2020
0000
0000
0030
0000
0001
0000
0002
,
0000
0000
0000
3003
,
0010
0000
0010
0000
1000
0000
0001
0200
,
0000
0000
0000
0000
,
0000
0000
0000
0000
,
0000
0000
0000
0300
;

//---------------dance-single - ----------------
#NOTES:
     dance-single:
     :
     Medium:
     9:
     :
0000
0000
0000
0000
,
0000
0000
0000
0000
,
0000
0000
0000
0000
,
0000
0000
0000
0000
,
0000
0000
0000
0000
0000
0000
0000
0100
,
0000
0010
1000
0010
2000
0000
3000
0100
,
0000
0010
0001
0010
0002
0000
0003
0100
,
0000
0001
1000
0001
2000
0000
3000
0010
,
0000
1000
0001
1000
0001
1000
0001
0100
,
0000
0000
0001
0010
1000
0000
0001
0100
,
0010
0000
1000
0100
1000
0001
0000
0100
,
0000
0000
0010
1000
0010
0100
0001
2000
,
0000
3200
0000
0300
1000
0001
1000
0010
,
0000
0000
1000
0100
0001
0000
0010
0001
,
0100
0000
0010
1000
0001
1000
0000
0100
,
0000
0000
0010
0100
0010
0001
1000
0020
,
0000
0230
0000
0300
0001
0010
0001
1000
,
0000
0000
0000
0000
1000
0001
0000
0011
,
0000
0110
0000
1100
0000
0101
0000
1001
,
0000
0000
0000
0000
0010
1000
0001
0200
,
0000
0320
0000
2030
0000
3001
0100
0000
,
0201
0000
0310
0000
2010
0000
3001
1000
,
0000
0010
1000
0100
0002
0000
0003
0000
,
0021
0000
0130
0000
1100
0000
0000
0001
,
1000
0020
0100
0000
0130
0001
0100
0000
,
2010
0000
3001
1000
0010
0200
0000
0320
,
0000
1000
0100
0031
,
1000
0010
1000
0010
1000
0010
1000
0001
,
0000
0000
0010
0001
0200
0000
0300
0010
,
0000
1000
0100
1000
0002
0000
0003
0100
,
0000
0001
0010
0100
2000
0000
3000
0010
,
0000
1000
0001
1000
0001
1000
0001
0100
,
0000
0010
1000
0010
2000
0000
3000
0001
,
0000
0010
0001
1000
0200
0000
0300
0010
,
0000
0001
0100
0010
1000
0100
1000
0002
,
0000
0103
0010
0100
0010
0100
0010
1000
,
0000
0000
0001
1000
0010
0000
1000
0100
,
0001
0000
0010
0100
0010
0001
0000
2000
,
0000
3000
0010
1000
0001
1000
0100
0020
,
0000
0032
0100
0000
1000
0000
0103
0010
,
0000
0000
1000
0010
1000
0000
0100
0010
,
0001
0000
0100
0001
0010
0100
0000
1000
,
0000
0000
0010
1000
0001
0100
0001
0200
,
0000
0310
1000
0010
1000
0001
0100
0010
,
0000
0000
0000
0000
1000
0001
0000
0101
,
0000
0110
0000
1010
0000
1100
0000
1001
,
0000
0000
0000
0000
0010
0001
0100
0002
,
0000
2003
0000
3010
1000
0100
0001
0000
,
0012
0000
0103
0000
2010
0000
3001
1000
,
0000
0010
0100
0010
2000
0000
3000
0000
,
1200
0000
0310
0000
0011
0000
0000
0001
,
0100
0020
1000
0000
1030
0001
0100
0000
,
0110
0000
0001
0100
0010
1000
0000
0002
,
0100
0000
0100
0000
0103
0010
1000
0001
,
0020
0000
0130
0000
2000
0000
3001
0100
,
0010
0000
1000
0001
0200
0000
0300
0000
,
0002
0000
0013
0000
1000
0000
0000
0010
,
1000
0002
0100
0000
0103
0010
1000
0000
,
0200
0000
1000
0000
0301
0100
0000
2000
,
0010
0100
0010
3100
,
0001
1000
0001
0100
0010
1000
0001
0020
,
0000
0000
0000
0000
,
0000
0000
0000
0000
,
0000
0000
0000
0030
;

//---------------dance-single - ----------------
#NOTES:
     dance-single:
     :
     Hard:
     11:
     :
0000
0000
0000
0000
,
0000
0000
0000
0000
,
0000
0000
0000
0000
,
0000
0000
0000
0000
,
0000
0000
0000
0000
0000
0000
0000
1010
,
0000
0001
0100
0010
2000
0000
3100
0010
,
0000
0010
0001
0100
0002
0000
1003
0010
,
0000
1000
0100
0010
0002
0000
0103
0010
,
0000
1000
1000
0001
0001
1000
0100
1100
,
0000
0000
1001
0100
0001
0010
0001
0100
,
0010
0000
1000
0100
1000
0001
0010
0100
,
1000
0000
0010
1000
0100
0010
0001
0200
,
0000
0310
1000
1000
0001
0001
0100
0110
,
0000
1000
0010
1000
0001
0010
0100
1000
,
0001
0000
0010
0001
0100
0010
1000
0001
,
0100
0000
0001
0010
0001
0100
0010
2000
,
0000
3100
0010
0010
0001
0001
0100
1010
,
0000
0001
0100
0010
1000
1000
0000
0002
,
0000
0203
0000
0310
1000
0100
0001
0011
,
0000
0100
0010
0100
1000
0001
1000
0020
,
0000
2030
0000
3001
0100
0010
0010
0000
,
1001
0100
0010
0100
0001
0010
0100
1000
,
0000
0010
1000
0100
0020
0000
0031
0100
,
0020
0000
1030
0001
1000
0100
0010
0001
,
0100
0100
0100
0010
1000
0001
0100
0010
,
2000
0000
3100
0010
0001
0011
0000
1100
,
0000
0001
0100
0001
0100
0010
1000
0001
,
0010
0010
0010
0010
0001
0100
1000
1010
,
0000
0100
1000
0001
0200
0000
0310
1000
,
0000
0100
1000
0001
0020
0000
0130
0010
,
0000
0010
0001
1000
0002
0000
0103
0010
,
0000
1000
1000
0001
0001
1000
0100
1100
,
0000
0001
0010
1000
0200
0000
0310
0001
,
0000
0001
1000
0001
0200
0000
0310
1000
,
0000
0000
0100
0000
1000
0000
0001
0100
0001
0100
0001
0000
1000
0000
0020
0000
,
0000
0130
0010
0010
1000
1000
0001
0101
,
0000
0000
1001
0010
1000
0100
1000
0010
,
0001
0000
0100
0001
1000
0001
0010
0100
,
1000
0000
1000
0010
0100
0001
0010
0200
,
0000
1300
0010
1000
0001
0001
0100
0110
,
0000
0000
1000
1000
0010
0100
0001
0010
,
0100
0000
0010
0001
0100
0010
1000
0001
,
0100
0000
0001
0001
1000
1000
0010
1010
,
0000
0001
0001
1000
1000
0020
0130
0110
,
0000
0001
0100
0001
1000
1000
0000
0020
,
0000
0230
0000
0301
1000
0100
0010
0001
,
0000
0100
0010
0100
0001
0010
0100
2000
,
0000
3002
0000
1003
0010
0100
0100
0000
,
1001
0010
0001
1000
0010
1000
0100
0010
,
0000
0001
0100
0001
2000
0000
3010
0100
,
0001
1000
0010
1000
0100
0010
0001
0100
,
0010
0010
0010
1000
0100
1000
0001
0100
,
0102
0000
0013
0100
1000
1100
0000
0011
,
0000
0000
0100
0000
0001
0000
0000
0000
1000
0010
1000
0000
0001
0100
0001
0000
,
0010
0100
1000
0010
1000
0100
1000
0001
,
0000
0010
0100
0010
0002
0000
1003
0010
,
0200
0000
0301
0010
0001
0100
0010
1000
,
0001
0001
0001
1000
0010
1000
0100
0010
,
0002
0000
1003
0001
0100
0101
0000
1010
,
0001
0100
0001
0010
0100
1000
0001
1000
,
0010
0010
0010
0010
1000
0100
0001
2002
,
0000
0000
0000
0000
,
0000
0000
0000
0000
,
0000
0000
0000
3003
;
