#VERSION:0.83;
#TITLE:Electronic Sports Complex;
#SUBTITLE:;
#ARTIST:栄免建設;
#TITLETRANSLIT:;
#SUBTITLETRANSLIT:;
#ARTISTTRANSLIT:Amenkensetsu;
#GENRE:;
#ORIGIN:;
#CREDIT:;
#BANNER:Electronic Sports Complex-bn.png;
#BACKGROUND:Electronic Sports Complex-bg.png;
#PREVIEWVID:;
#JACKET:Electronic Sports Complex-jacket.png;
#CDIMAGE:;
#DISCIMAGE:;
#LYRICSPATH:;
#CDTITLE:;
#MUSIC:Electronic Sports Complex.ogg;
#OFFSET:0.000000;
#SAMPLESTART:74.181999;
#SAMPLELENGTH:20.000000;
#SELECTABLE:YES;
#DISPLAYBPM:110.000000:220.000000;
#BPMS:0.000=110.000,
40.000=220.000,
168.000=110.000,
198.000=220.000;
#STOPS:198.000=0.818;
#DELAYS:;
#WARPS:;
#TIMESIGNATURES:0.000=4=4;
#TICKCOUNTS:0.000=4;
#COMBOS:0.000=1;
#SPEEDS:0.000=1.000=0.000=0;
#SCROLLS:0.000=1.000;
#FAKES:;
#LABELS:0.000=Song Start;
#BGCHANGES:;
#KEYSOUNDS:;
#ATTACKS:
;

//---------------dance-single - ----------------
#NOTEDATA:;
#CHARTNAME:;
#STEPSTYPE:dance-single;
#DESCRIPTION:;
#CHARTSTYLE:;
#DIFFICULTY:Beginner;
#METER:6;
#RADARVALUES:0.216576,0.324250,0.052885,0.070513,0.000000,172.000000,166.000000,6.000000,8.000000,0.000000,0.000000,0.000000,0.000000,0.000000,0.216576,0.324250,0.052885,0.070513,0.000000,172.000000,166.000000,6.000000,8.000000,0.000000,0.000000,0.000000,0.000000,0.000000;
#CREDIT:;
#NOTES:
0000
0000
0000
0000
,
0000
0000
0000
0000
,
0000
0000
0000
0000
,
0000
0000
0000
0000
,
0000
0000
0000
0000
,
0000
0000
0000
0000
,
0100
0001
0100
0001
,
0010
1000
0010
1000
,
0100
0010
0100
0010
,
0001
1000
0001
0000
,
0100
0000
0010
0000
,
0110
0000
0000
0000
,
0001
0000
0001
0000
,
1000
0000
1000
0000
,
0100
0000
0001
0000
,
1001
0000
0000
0000
,
0010
0000
0010
0000
,
0100
0000
0100
0000
,
1000
0000
0001
0000
,
1001
0000
0000
0000
,
0010
0000
1000
0000
,
0001
0000
0100
0000
,
0010
0000
0100
0000
,
0110
0000
0000
0000
,
0001
0000
0001
0000
,
0010
0000
0010
0000
,
0100
0000
1000
0000
,
0100
0000
1000
0000
,
0001
0000
0010
0000
,
0001
0000
0010
0000
,
0100
0000
0010
0000
,
0100
0000
1000
0000
,
0010
0000
0100
0000
,
0010
0000
1000
0000
,
0001
0000
0001
0000
,
0100
0000
0100
0000
,
0010
0000
0010
0000
,
1000
0000
1000
0000
,
0001
0000
0100
0000
,
0001
0000
0100
0000
,
0010
0000
1000
0000
,
0010
0000
1000
0000
,
0200
0000
0300
0000
,
0020
0000
0030
0000
,
0002
0000
0003
0000
,
2000
0000
3000
0000
,
0100
0100
0100
0100
,
0010
0010
0010
0010
,
0001
0001
0001
0001
,
0100
0000
0000
0000
0000
0000
0000
0000
0010
0000
0000
0000
0000
0000
0000
0000
2000
3000
0000
0000
0000
0000
0000
0000
0100
0000
0000
0000
0000
0000
0000
0000
,
0000
0010
0000
0001
,
0000
0010
0000
0100
,
0000
1000
0000
0010
,
0000
0100
0000
0001
,
0000
1000
0000
0010
,
0000
0100
0000
0001
,
0000
0010
0000
0100
,
0000
1000
0000
0001
,
0001
0001
0000
0100
,
0000
0010
0000
1000
,
1000
1000
0000
0100
,
0000
0010
0000
0100
,
0100
0100
0000
0010
,
0000
0001
0000
0100
,
0100
0100
0000
0010
,
0000
1000
0000
2002
,
0000
0000
0000
0000
,
0000
3003
0000
0100
,
0000
0010
0000
1000
,
0000
0010
0000
1000
,
0000
0100
0000
0001
,
0000
0100
0000
0010
,
0000
0100
0000
0010
,
0000
0100
0000
2000
,
0000
3000
0000
0010
,
0010
0010
0000
0001
,
0001
0001
0000
0100
,
0100
0100
0000
1000
,
1000
1000
0000
0010
,
0010
0010
0000
1000
,
1000
1000
0000
0001
,
0001
0001
0000
1001
,
0000
0000
0000
0000
;

//---------------dance-single - ----------------
#NOTEDATA:;
#CHARTNAME:;
#STEPSTYPE:dance-single;
#DESCRIPTION:;
#CHARTSTYLE:;
#DIFFICULTY:Easy;
#METER:10;
#RADARVALUES:0.459595,0.756584,0.220354,0.141026,0.022035,365.000000,340.000000,25.000000,16.000000,0.000000,0.000000,0.000000,0.000000,0.000000,0.459595,0.756584,0.220354,0.141026,0.022035,365.000000,340.000000,25.000000,16.000000,0.000000,0.000000,0.000000,0.000000,0.000000;
#CREDIT:;
#NOTES:
0000
0000
0000
0000
,
0000
0000
0000
0000
,
0000
0000
0000
0000
,
0000
0000
0000
0000
,
0000
0000
0000
0000
,
0000
0000
0000
0000
,
1000
0100
1000
0000
0001
0100
0001
0000
,
1000
0010
1000
0000
0001
0010
0001
0000
,
1000
0100
1000
0100
0010
0001
0010
0001
,
0100
0010
0100
0010
2000
0000
3200
0000
,
0310
0000
0001
0000
1000
0010
1000
0000
,
0110
0000
2002
3003
,
0100
0100
0010
0010
,
1000
0100
0010
0001
,
1001
1000
0010
0100
,
0110
0000
1001
1001
,
0010
0010
1000
1001
,
0001
0010
0100
1000
,
0010
1000
0010
0100
,
0110
0000
2002
3003
,
0100
0010
0000
0010
0100
0000
0002
0000
,
1003
0100
1000
0010
,
1001
0100
0001
1000
,
1001
0000
0220
0330
,
0001
0001
0100
0010
,
1000
1000
0001
0010
,
0001
0100
0001
0000
1000
0010
1000
0000
,
0100
0100
0010
0001
,
0100
0010
0100
0000
0001
0010
0001
0000
,
1000
0010
0100
0100
,
0001
0001
1000
0100
,
0110
0010
1001
1000
,
0100
1000
0100
0000
0010
0001
0010
0000
,
0001
1000
0010
1000
,
0110
0001
0001
0010
,
0100
0100
0010
0001
,
1000
0100
0000
0001
0100
0000
0010
1000
,
0010
0100
0001
0001
,
0100
0100
0010
0010
,
0110
1000
1001
0100
,
0010
0010
1000
1000
,
0001
0000
0100
0000
0010
1000
0100
0000
,
0020
0000
0000
0000
,
0032
0000
0000
0000
,
2003
0000
0000
0000
,
3200
0000
0000
0000
0000
0000
0000
0000
0310
0000
0000
0010
0000
0000
0010
0000
,
0001
0001
0001
0001
0100
0100
0100
0100
,
1000
1000
1000
1000
0100
0100
0100
0100
,
0010
0000
1000
0000
0010
0100
0010
0000
0100
0000
0001
0000
0010
0001
0010
0000
,
0100
0000
1000
0000
0100
0000
0000
0000
0010
0000
0100
0000
0010
0000
0000
0000
0002
0003
0000
0000
0000
0000
0000
0000
1000
0000
0000
0000
0000
0000
0000
0000
,
0100
1000
0100
0010
,
0001
0000
0100
0010
0100
0000
0001
0000
,
0100
0001
0100
0010
,
1000
0000
0100
0010
0100
0000
1000
0000
,
0010
1000
0001
0100
,
0001
0000
1000
0010
1000
0000
0001
0100
,
0001
0000
0010
0000
0010
0000
0100
1000
,
0100
0000
1000
0010
1000
0000
0001
0000
,
0010
0001
0010
0100
,
1000
0000
0010
0100
0010
0000
0100
0000
,
0001
0100
0001
0010
,
0100
0000
1000
0001
1000
0000
0010
0000
,
0100
0001
0010
0100
,
1000
0000
0010
0100
0010
0000
1000
0100
,
1000
0000
0001
0100
0001
0000
0010
0001
,
0010
0000
0100
0010
0100
0000
2000
0000
,
0000
0000
0000
0000
,
0000
0000
0000
0000
3001
0000
0100
0010
,
0000
0010
0100
0000
0001
0000
1000
0000
,
0010
0100
0010
0000
1000
0000
0100
0000
,
0100
0010
0001
0100
,
0010
1000
0010
1000
0001
0000
0010
0000
,
0001
0100
0010
0110
,
1001
0100
0100
0110
,
0000
1001
0000
0010
,
0010
0000
0100
0000
0001
0100
0002
0000
,
0103
0010
0100
0000
0010
0000
1000
0000
,
0100
0000
0010
0001
0010
0000
0001
0000
,
0100
0010
0100
0110
,
0000
0110
1001
0110
,
1000
0100
0010
0100
,
1000
0000
0010
0100
0010
0100
0001
0000
,
0000
0000
0000
0000
;

//---------------dance-single - ----------------
#NOTEDATA:;
#CHARTNAME:;
#STEPSTYPE:dance-single;
#DESCRIPTION:;
#CHARTSTYLE:;
#DIFFICULTY:Medium;
#METER:14;
#RADARVALUES:0.608176,0.900695,0.185097,0.149840,0.096956,483.000000,462.000000,21.000000,17.000000,0.000000,0.000000,0.000000,0.000000,0.000000,0.608176,0.900695,0.185097,0.149840,0.096956,483.000000,462.000000,21.000000,17.000000,0.000000,0.000000,0.000000,0.000000,0.000000;
#CREDIT:;
#NOTES:
0000
0000
0000
0000
,
0000
0000
0000
0000
,
0000
0000
0000
0000
,
0000
0000
0000
0000
,
0000
0000
0000
0000
,
0000
0000
0000
0000
,
0001
0010
0100
0010
0001
1000
0100
0000
,
0010
1000
0100
1000
0010
0100
0001
0000
,
0010
0000
0100
0000
0010
0001
0010
0000
0100
0000
1000
0000
0010
1000
0010
0000
,
0100
0001
0100
0000
0001
0010
0001
0000
0010
0100
0010
0000
0001
0000
0200
0000
,
0310
0010
1000
0000
0100
0100
0010
0000
,
0001
0000
0000
0001
0000
0000
0001
0000
2000
0000
0000
0000
3010
0000
0000
0000
,
0100
0010
0100
0000
0001
1000
0200
0000
,
0310
0000
0001
0100
0010
1000
0100
0000
,
1100
0000
0001
0000
1000
0000
0100
0010
,
0001
0000
0000
0001
0000
0000
0001
0000
0100
0000
0000
0000
0110
0000
0000
0000
,
1000
0000
0010
1000
0010
0000
1001
0000
,
0010
0000
0001
0000
0010
0100
1000
0000
,
0010
0100
0001
0000
0010
0100
1000
0000
,
0010
0000
0000
0010
0000
0000
0010
0000
0200
0000
0000
0000
0310
0000
0000
0000
,
0001
0100
0000
1000
0100
0000
0020
0000
,
0130
0000
1000
0000
0001
0100
0001
0000
,
1001
0000
0010
0000
0100
1000
0100
0000
,
0010
0000
0000
0010
0000
0000
0010
0000
0002
0000
0000
0000
1003
0000
0000
0000
,
0100
0010
0100
0000
0001
1000
0010
0000
,
1000
0100
1000
0000
0010
0100
0001
0000
,
1000
0010
0100
0010
1000
0001
0010
0000
,
0001
0100
0001
1000
0100
0010
0001
0000
,
1000
0100
1000
0100
0010
0001
0100
0000
,
0010
0000
2000
0000
3001
0010
0001
0010
,
0100
0000
0110
0000
1000
0100
1000
0000
,
0101
0011
1100
1010
,
0100
0001
0100
0001
1000
0010
1000
0010
,
0100
0000
0001
0010
0001
0000
1001
0000
,
0110
0000
1000
0000
0010
0100
0010
0000
,
0100
0000
0001
0000
0010
0100
0020
0000
,
0031
1000
0100
0000
1000
0100
0010
0000
,
0100
0010
0001
0000
0100
0010
0100
0000
,
0001
0000
0101
0000
0010
1000
0010
0000
,
1100
1001
0011
1001
,
0100
0001
0100
0001
1000
0010
1000
0010
,
2000
0000
3001
0000
0100
0010
0100
0010
,
0200
0000
0000
0000
,
0302
0000
0000
0000
,
2003
0000
0000
0000
,
3020
0000
0000
0000
0000
0000
0000
0000
0130
0001
0000
0001
0010
0000
0100
0000
,
1000
1000
0001
0001
0100
0100
0010
0010
,
1000
1000
0100
0100
0010
0001
0100
0010
,
1000
0010
1000
0000
0100
1000
0100
0000
0010
0001
0010
0000
0001
0100
0001
0000
,
1000
0000
0010
0000
1000
0000
0010
0000
1000
0000
0100
0000
1000
0000
0100
0000
0020
0030
0000
0000
0000
0000
0000
0000
0001
0000
0000
0000
0100
0000
0000
0000
,
0001
0100
0000
0010
1000
0010
0000
1000
,
0100
1000
0001
0010
0001
0000
1000
0100
,
1000
0010
0000
0100
0010
0100
0001
0100
,
0010
0100
1000
0100
0010
0000
0100
0001
,
0010
0001
0000
0100
0010
0100
0000
0001
,
0100
0010
0100
0010
1000
0000
0100
0010
,
0100
0001
0100
0010
0100
1000
0100
0010
,
0100
0001
0100
0010
0100
0000
1000
0001
,
0100
0010
0000
0100
0001
0100
0000
0010
,
1000
0010
1000
0100
0010
0000
0001
0100
,
0010
0100
0000
0010
1000
0010
0000
1000
,
0100
1000
0100
0010
0001
0000
1000
0001
,
0010
0100
1000
0001
0010
0000
0001
0100
,
0010
1000
0001
0100
0010
0000
1000
0100
,
1000
0100
0010
0001
0010
0001
0100
0010
,
0100
0010
1000
0010
1000
0010
0200
0000
,
0000
0000
0000
0000
,
0000
0000
0000
0000
0310
0000
1000
0100
,
0000
1000
0001
0000
0100
0000
0010
1000
,
0010
1000
0100
0010
0001
0000
0100
0010
,
0100
0000
0001
0100
0001
0000
0010
0001
,
0100
0000
0010
1000
0100
0000
0010
0001
,
0010
0001
1000
0001
2000
0000
3010
0000
,
0110
0000
0000
0000
0000
0000
0100
0000
0000
0001
0000
0000
0100
0000
0000
0001
0000
0000
1000
0000
0000
0000
1000
0000
,
0000
0000
1000
0000
0000
0000
1010
0000
0000
0000
0000
0000
0011
0000
0000
0000
0000
0000
0100
0000
0000
0001
0000
0000
,
0100
0000
0010
1000
0010
0000
0200
0000
,
0301
1000
0001
1000
0100
0000
0010
0001
,
0010
0001
0100
0010
0100
0000
0001
0100
,
0001
0000
1000
0000
0010
0000
1000
0000
0001
0000
0000
0000
1000
0000
0000
1000
,
0000
0001
1000
0000
1001
0000
0110
0000
,
0001
0010
0100
0010
0001
0000
1000
0010
,
1000
0010
0100
0001
0100
0001
0010
0000
,
0000
0000
0000
0000
;

//---------------dance-single - ----------------
#NOTEDATA:;
#CHARTNAME:;
#STEPSTYPE:dance-single;
#DESCRIPTION:;
#CHARTSTYLE:;
#DIFFICULTY:Hard;
#METER:17;
#RADARVALUES:0.836085,1.188918,0.246796,0.132212,0.599362,664.000000,636.000000,28.000000,15.000000,0.000000,0.000000,0.000000,0.000000,0.000000,0.836085,1.188918,0.246796,0.132212,0.599362,664.000000,636.000000,28.000000,15.000000,0.000000,0.000000,0.000000,0.000000,0.000000;
#CREDIT:;
#NOTES:
0000
0000
0000
0000
,
0000
0000
0000
0000
,
0000
0000
0000
0000
,
0000
0000
0000
0000
,
0000
0000
0000
0000
,
0000
0000
0000
0000
,
1000
0010
0100
0010
1000
0100
0010
0100
,
1000
0001
0100
0010
0100
0001
0010
0100
,
0010
0001
0100
0000
0010
1000
0100
0000
0010
0001
1000
0000
0010
1000
0001
0000
,
1000
0000
0100
0000
0010
0000
0001
0000
0100
0000
0010
0000
1000
0000
0100
0000
0010
0000
0100
0000
1000
0001
1000
0000
0001
0000
1000
0100
0020
0000
0000
0000
,
0130
0000
0100
0000
0010
0001
0010
0001
0100
0000
0100
0000
0001
0000
0001
0000
,
1000
0000
0000
1000
0000
0000
0001
0000
2000
0000
0000
0000
3001
0000
0000
0000
,
1000
1000
0010
0100
0100
0001
0020
0000
,
0130
1000
0010
0100
0001
0010
0001
0000
,
0011
0000
0001
0010
0100
0000
1000
0010
,
0100
0000
0000
0100
0000
0000
0010
0000
0100
0000
0000
0000
0110
0000
0000
0000
,
0001
0000
0100
0000
0010
0000
1000
0000
0010
0100
0000
0010
0100
0010
0100
0001
,
0010
0000
0100
1000
0010
0100
0001
1000
,
0001
0000
0001
0000
1000
0010
1000
0010
0100
0000
0010
0000
1000
0000
1000
0000
,
0001
0000
0000
0001
0000
0000
1000
0000
0200
0000
0000
0000
0310
0000
0000
0000
,
0100
0100
1000
0010
0010
0100
0001
0000
,
1001
0000
0001
0100
1000
0100
0001
0000
,
1001
0000
1000
0010
0001
0000
0010
1000
,
0100
0000
0000
0100
0000
0000
0010
0000
0200
0000
0000
0000
1300
0000
0000
0000
,
0001
0001
0001
0001
0010
0100
1000
0010
,
0100
0010
1000
0000
0001
0100
0010
0000
1000
0100
0010
0000
0100
0010
0001
0000
,
1000
0000
0010
0000
0100
0000
0001
0000
1000
0001
1000
0001
0010
0000
0000
0000
,
0100
0100
0010
0001
0001
1000
0100
0000
,
1000
0010
1000
0010
0100
0000
0001
0100
0001
0100
0010
0000
1000
0000
0001
0000
,
0010
0000
0110
0000
1000
0010
0001
0010
,
0100
0000
0000
0000
0110
0000
0000
0000
0100
0010
1000
0001
0100
0000
0000
0000
,
0101
1010
0011
1100
,
0100
0000
1000
0000
0001
0000
0100
0000
0001
0100
0010
1000
0001
0000
0100
0000
,
0010
0000
0000
0000
1000
0100
0010
0001
1000
0000
0000
0000
1001
0000
0000
0000
,
0110
0000
0000
0000
0100
0000
0010
0000
1000
0010
0100
0001
0010
0000
0000
0000
,
0001
0001
1000
0010
0010
0100
0200
0000
,
0310
1000
0010
1000
0100
0000
0010
0001
0010
0001
0100
0000
0001
0000
0100
0000
,
0010
1000
0010
0000
1000
0100
0010
0001
,
1000
0000
0000
0000
0110
0000
0000
0000
0100
0010
0100
0000
0010
0000
0000
0000
,
1010
0101
0011
1100
,
0010
0000
0100
0000
0001
0000
1000
0000
0001
0100
0010
0000
1000
0000
0001
0000
,
2000
0000
0000
0000
3001
0010
0100
1000
0001
0000
0001
0000
1000
0000
1000
0000
,
0002
0000
0000
0000
,
2003
0000
0000
0000
,
3020
0000
0000
0000
,
0230
0000
0000
0000
0000
0000
0000
0000
0301
0001
0010
0100
0100
1000
0001
1000
,
0001
0100
0001
0100
0010
1000
0010
1000
0100
0010
0100
0010
0001
1000
0001
1000
,
0010
0001
0010
0001
1000
0100
1000
0100
0001
0010
0100
1000
0001
0010
0100
1000
,
0100
1000
0010
0000
0100
0001
0010
0000
0100
1000
0001
0000
0100
0001
1000
0000
,
0010
0000
0010
0000
0100
0000
0100
0000
0001
0000
0001
0000
1000
0000
1000
0000
2002
3003
0000
0000
0000
0000
0000
0000
0001
0000
0010
0000
0001
0000
0000
0000
,
0010
0000
0100
0000
1000
0000
0010
0000
0100
0000
0001
0000
1000
0001
1000
0000
,
0010
0000
0100
0000
0001
0000
0010
0000
0100
0000
1000
0000
0100
0010
0001
0000
,
1000
0000
0010
0000
0100
0000
0001
0000
1000
0000
0001
0000
1000
0010
0100
0000
,
0001
0000
0010
0000
0100
0000
1000
0000
0010
0000
0100
0000
0001
1000
0010
0000
,
0100
0000
0010
0000
1000
0000
0001
0000
0010
0000
0100
0000
0010
0001
1000
0000
,
0010
0000
0100
0000
0001
0000
1000
0000
0010
0000
0100
0000
0001
0010
0100
0000
,
1000
0000
0010
0000
0100
0000
0001
0000
1000
0000
0010
0000
0100
0010
1000
0000
,
0100
0000
0010
0001
1000
0000
0100
0000
1000
0100
0010
0000
0001
0100
0010
0000
,
1000
0000
0010
0000
0100
0000
0001
0000
0010
0000
0100
0000
1000
0100
0010
0000
,
0001
0000
1000
0000
0001
1000
0100
0000
0010
0000
0100
0000
1000
0010
0100
0000
,
0001
0000
0010
0000
0100
0000
0010
0000
0001
0000
0100
0000
0010
1000
0100
0000
,
1000
0000
0010
0000
0100
0001
0010
0000
0001
0000
0010
0000
0100
0010
0001
0000
,
1000
0000
0010
0000
0100
0000
0010
0000
1000
0000
0001
0000
1000
0010
0100
0000
,
0001
0000
0010
0000
0100
0010
0001
0000
1000
0000
0001
0000
1000
0010
0100
0000
,
0010
0000
0100
0000
0001
0010
0100
0000
1000
0000
0001
0000
1000
0100
1000
0100
,
0010
0000
0001
0100
0001
0100
0010
0000
1000
0001
1000
0000
0002
0000
0000
0000
,
0000
0000
0000
0000
,
0000
0000
0000
0000
0003
0000
0000
0000
1001
0000
0000
0000
0001
1000
0001
1000
,
0010
0000
1000
0001
1000
0001
0010
0000
0001
1000
0010
0000
0100
0000
0010
0100
,
0010
0000
1000
0000
0100
0010
0100
0000
0010
0000
0001
0000
0100
0010
0100
0000
,
0001
1000
0001
0000
1000
0000
0010
0000
0100
0000
0001
0000
1000
0100
0010
0001
,
1000
0100
0010
0000
0001
0000
0010
0000
0100
0000
1000
0000
0001
0100
0010
1000
,
0001
0010
0100
0010
0100
0000
0110
0000
,
1001
0000
0000
0000
0000
0000
0001
0000
0000
1000
0000
0000
0010
0000
0000
0100
0000
0000
0110
0000
0000
0000
1010
0000
,
0000
0000
0101
0000
0000
0000
0110
0000
0000
0000
0000
0000
1001
0000
0000
0000
0000
0000
1000
0000
0000
0001
0000
0000
,
1000
0010
0100
0001
0100
0000
0001
0000
0010
0000
0100
0000
2000
0000
0000
0000
,
3001
0000
0100
0000
0010
0000
1000
0000
0001
0000
0000
0000
0001
0100
0010
0100
,
0001
0000
1000
0000
0100
0000
0010
0000
0001
0000
0100
0000
0001
0010
0100
0010
,
0001
0000
1000
0100
0010
0100
1000
0000
0001
0100
0010
0100
0001
0000
0000
1000
,
0000
0001
1000
0000
1001
0000
0110
0000
,
1000
0000
0010
0000
0100
0000
0001
0000
0010
0000
0100
0000
1000
0100
0010
0001
,
0100
0010
1000
0100
0010
0000
0100
0000
1000
0000
0001
0000
0010
0000
0000
0000
,
0000
0000
0000
0000
;

//---------------dance-double - ----------------
#NOTEDATA:;
#CHARTNAME:;
#STEPSTYPE:dance-double;
#DESCRIPTION:;
#CHARTSTYLE:;
#DIFFICULTY:Easy;
#METER:10;
#RADARVALUES:0.435671,0.684528,0.123398,0.141026,0.013221,346.000000,332.000000,14.000000,16.000000,0.000000,0.000000,0.000000,0.000000,0.000000,0.435671,0.684528,0.123398,0.141026,0.013221,346.000000,332.000000,14.000000,16.000000,0.000000,0.000000,0.000000,0.000000,0.000000;
#CREDIT:;
#NOTES:
00000000
00000000
00000000
00000000
,
00000000
00000000
00000000
00000000
,
00000000
00000000
00000000
00000000
,
00000000
00000000
00000000
00000000
,
00000000
00000000
00000000
00000000
,
00000000
00000000
00000000
00000000
,
00000001
00000010
00000001
00000000
00001000
00000100
00001000
00000000
,
00000100
00010000
00000100
00000000
00010000
00001000
00010000
00000000
,
00001000
00010000
00001000
00010000
01000000
00100000
01000000
00100000
,
00010000
10000000
00010000
10000000
02000000
00000000
03200000
00000000
,
00310000
10000000
01000000
00010000
,
00011000
00000000
00002200
00003300
,
00000010
00000010
00000001
00000001
,
00001000
00000100
00010000
00001000
,
00011000
01000000
00100000
10000000
,
10010000
00000000
00100000
00100000
,
01000000
01000000
00001000
00001000
,
00010000
00001000
00000100
00000001
,
00000010
00000100
00001000
00000100
,
00001100
00000000
00022000
00033000
,
01000000
00010000
00000000
00010000
01000000
00000000
00200000
00000000
,
10300000
00010000
01000000
00010000
,
00100000
00001000
00010000
00000010
,
00001010
00000000
00002002
00003003
,
00000100
00000100
00001000
00010000
,
00100000
00100000
10000000
01000000
,
00100000
00010000
00100000
00000000
00001000
00010000
00001000
00000000
,
00010000
00000100
00001000
00000010
,
00001000
00000100
00001000
00000000
00000001
00000010
00000001
00000000
,
00000100
00000010
00001000
00001000
,
00000100
00000100
00010000
00001000
,
00011000
01000000
01010000
00100000
,
10000000
01000000
10000000
00000000
00010000
01000000
00010000
00000000
,
10000000
00100000
00010000
00001000
,
00000010
00000100
00001000
00000001
,
00000100
00000010
00001000
00000100
,
00010000
00001000
00000000
01000000
00010000
00000000
00100000
00000000
,
00010000
00010000
10000000
10000000
,
01000000
01000000
00010000
00010000
,
00001000
00001000
00000100
00000100
,
00000001
00001000
00000100
00001000
,
00000010
00000000
00010000
00000000
00001000
00010000
00001000
00000000
,
00020000
00000000
00000000
00000000
,
00032000
00000000
00000000
00000000
,
00023000
00000000
00000000
00000000
,
00032000
00000000
00000000
00000000
00000000
00000000
00000000
00000000
00103000
00000000
00000000
00010000
00000000
00000000
01000000
00000000
,
00010000
00010000
00010000
00010000
00100000
00100000
00100000
00100000
,
00001000
00001000
00001000
00001000
00010000
00010000
00010000
00010000
,
00000100
00001000
00000001
00000010
00000100
00001000
00000100
00010000
,
00001000
00000000
00010000
00000000
00001000
00000000
00000000
00000000
00010000
00000000
00001000
00000000
00010000
00000000
00000000
00000000
00002000
00003000
00000000
00000000
00000000
00000000
00000000
00000000
00100000
00000000
00000000
00000000
00000000
00000000
00000000
00000000
,
00010000
00100000
00010000
10000000
,
01000000
00000000
00100000
01000000
00100000
00000000
00010000
00000000
,
01000000
00001000
00010000
00000100
,
00001000
00000000
00000100
00000010
00000100
00000000
00001000
00000000
,
00000001
00000010
00000001
00000100
,
00001000
00000000
00010000
00001000
00010000
00000000
00001000
00000000
,
00010000
01000000
10000000
00100000
,
01000000
00000000
00010000
00100000
00010000
00000000
10000000
00000000
,
00100000
00010000
00001000
00000010
,
00000001
00000000
00001000
00000001
00001000
00000000
00000001
00000000
,
00000010
00001000
00010000
00100000
,
10000000
00000000
00010000
10000000
00010000
00000000
10000000
00000000
,
00100000
01000000
00010000
00100000
,
00001000
00000000
00010000
00000000
00000010
00000000
00001000
00000100
,
00001000
00000000
00000100
00010000
00000100
00000000
00010000
00001000
,
00010000
00000000
00001000
00100000
00001000
00000000
02000000
00000000
,
00000000
00000000
00000000
00000000
,
00000000
00000000
00000000
00000000
03010000
00000000
10000000
00100000
,
00000000
00100000
00010000
00000000
00001000
00000000
00010000
00000000
,
00000010
00001000
00000010
00000000
00001000
00000000
00000001
00000000
,
00000100
00000001
00001000
00000010
,
00001000
00000000
00000100
00010000
00001000
00000000
00010000
00000000
,
00001000
00100000
00010000
10010000
,
00110000
00001000
00001000
00011000
,
00000000
00001010
00000000
00000001
,
00000100
00000000
00000001
00000000
00000010
00000001
00000020
00000000
,
00000130
00001000
00000100
00000000
00010000
00000000
00001000
00000000
,
00100000
00001000
00100000
00000000
00010000
00000000
10000000
00000000
,
01000000
00010000
00001000
00010000
,
00000000
00000010
00001000
00000001
,
00000010
00001000
00010000
00100000
,
10000000
00000000
00010000
00100000
00010000
00100000
00001000
00000000
,
00000000
00000000
00000000
00000000
;

//---------------dance-double - ----------------
#NOTEDATA:;
#CHARTNAME:;
#STEPSTYPE:dance-double;
#DESCRIPTION:;
#CHARTSTYLE:;
#DIFFICULTY:Medium;
#METER:14;
#RADARVALUES:0.571660,0.756584,0.149840,0.149840,0.066106,454.000000,437.000000,17.000000,17.000000,0.000000,0.000000,0.000000,0.000000,0.000000,0.571660,0.756584,0.149840,0.149840,0.066106,454.000000,437.000000,17.000000,17.000000,0.000000,0.000000,0.000000,0.000000,0.000000;
#CREDIT:;
#NOTES:
00000000
00000000
00000000
00000000
,
00000000
00000000
00000000
00000000
,
00000000
00000000
00000000
00000000
,
00000000
00000000
00000000
00000000
,
00000000
00000000
00000000
00000000
,
00000000
00000000
00000000
00000000
,
00000010
00001000
00000100
00001000
00000100
00010000
00001000
00000000
,
00100000
00010000
01000000
00100000
01000000
00100000
10000000
00000000
,
01000000
00100000
00010000
01000000
00001000
00010000
00001000
00010000
,
00000100
00001000
00000100
00000000
00000010
00000001
00000010
00000000
00001000
00000000
00010000
00000000
00100000
00000000
20000000
00000000
,
31000000
01000000
00100000
00000000
00010000
00010000
10000000
00000000
,
01000000
00000000
00000000
01000000
00000000
00000000
01000000
00000000
00020000
00000000
00000000
00000000
00031000
00000000
00000000
00000000
,
00010000
00001000
00010000
00000000
00001000
00000100
00000002
00000000
,
00000013
00000000
00000001
00000000
00001000
00000100
00001000
00000000
,
00011000
00000000
00100000
00000000
00010000
00000000
01000000
00100000
,
10000000
00000000
00000000
10000000
00000000
00000000
10000000
00000000
01000000
00000000
00000000
00000000
01100000
00000000
00000000
00000000
,
00010000
00000000
01000000
00010000
01000000
00000000
00011000
00000000
,
00000100
00000000
00001000
00000000
00000010
00001000
00000100
00000000
,
00000010
00000001
00000100
00000000
00000010
00001000
00000100
00000000
,
00010000
00000000
00000000
00010000
00000000
00000000
00010000
00000000
00002000
00000000
00000000
00000000
01003000
00000000
00000000
00000000
,
00010000
00100000
00000000
01000000
10000000
00000000
00200000
00000000
,
01300000
00000000
00010000
00000000
00100000
00001000
00100000
00000000
,
00011000
00000000
00000100
00000000
00001000
00000010
00001000
00000000
,
00000001
00000000
00000000
00000001
00000000
00000000
00000001
00000000
00000020
00000000
00000000
00000000
00000130
00000000
00000000
00000000
,
00001000
00000010
00001000
00000000
00000100
00010000
00001000
00000000
,
00100000
00010000
00100000
00000000
01000000
10000000
01000000
00000000
,
10000000
00000000
01000000
00000000
00010000
00001000
00000100
00000000
,
00000001
00000000
00000001
00000000
00000010
00000100
00000010
00000000
,
00000100
00001000
00000100
00001000
00000100
00000000
00010000
00000000
,
00001000
00000000
00020000
00000000
00031000
00010000
01000000
00000000
,
10000000
00000000
10100000
00000000
01000000
00010000
01000000
00000000
,
00110000
00001000
00011000
00000010
,
00001000
00000100
00001000
00000000
00000001
00000100
00000001
00000000
,
00000010
00000000
00000100
00001000
00000100
00000000
00011000
00000000
,
01000000
00000000
00010000
00000000
10000000
00100000
10000000
00000000
,
00010000
00000000
00100000
00000000
00001000
00010000
00002000
00000000
,
00013000
00001000
00000100
00000000
00000001
00000010
00000100
00000000
,
00001000
00000010
00010000
00000000
00001000
00010000
00001000
00000000
,
01000000
00000000
01010000
00000000
10000000
01000000
10000000
00000000
,
10100000
00110000
00011000
00001010
,
00000001
00000100
00000001
00000000
00001000
00000100
00001000
00000000
,
00000020
00000000
00010030
00000000
00001000
00010000
00001000
00010000
,
00002000
00000000
00000000
00000000
,
00023000
00000000
00000000
00000000
,
00032000
00000000
00000000
00000000
,
00023000
00000000
00000000
00000000
00000000
00000000
00000000
00000000
00031000
00100000
00000000
00100000
00010000
00000000
10000000
00000000
,
01000000
01000000
00010000
00010000
00001000
00001000
00000100
00000100
,
00000001
00000001
00000010
00000010
00001000
00001000
00010000
00010000
,
00100000
01000000
00010000
10000000
01000000
00100000
00010000
01000000
,
00001000
00000000
00010000
00000000
00001000
00000000
00010000
00000000
00000100
00000000
00001000
00000000
00000100
00000000
00001000
00000000
00000002
00000003
00000000
00000000
00000000
00000000
00000000
00000000
00000010
00000000
00000000
00000000
00000001
00000000
00000000
00000000
,
00000010
00000001
00000000
00001000
00000010
00001000
00000000
00000100
,
00010000
00001000
00010000
00001000
00100000
00000000
00010000
01000000
,
00010000
10000000
00000000
00100000
01000000
00100000
10000000
01000000
,
00010000
00000000
00001000
00000100
00000001
00000000
00001000
00000010
,
00001000
00000100
00000000
00010000
00001000
00010000
00000000
00001000
,
01000000
00010000
01000000
00010000
00100000
00000000
00010000
10000000
,
00100000
01000000
00000000
00010000
00100000
00001000
00010000
00000010
,
00001000
00000010
00000100
00000001
00000010
00000000
00000001
00000100
,
00001000
00010000
00000000
01000000
10000000
01000000
00000000
00100000
,
00010000
00100000
00001000
00010000
00001000
00000000
00010000
00000100
,
00001000
00000010
00000000
00000100
00000001
00000100
00000000
00000001
,
00000010
00001000
00010000
00001000
00010000
00000000
00001000
00100000
,
00010000
01000000
00000000
00100000
10000000
01000000
00000000
00100000
,
00010000
10000000
01000000
00010000
00001000
00000000
00010000
00001000
,
00010000
00001000
00000100
00000010
00000100
00000010
00001000
00000001
,
00001000
00000001
00000010
00000001
00000010
00000001
00002000
00000000
,
00000000
00000000
00000000
00000000
,
00000000
00000000
00000000
00000000
00003100
00000000
00010000
00001000
,
00000000
01000000
00010000
00000000
10000000
00000000
00100000
01000000
,
00100000
00000000
10000000
01000000
10000000
00000000
00010000
00100000
,
00010000
00000000
00100000
00001000
00100000
00000000
00001000
00010000
,
00000100
00000000
00001000
00000001
00000010
00000000
00000100
00001000
,
00000100
00010000
00001000
00000000
00020000
00000000
00031000
00000000
,
01010000
00000000
00000000
00000000
00000000
00000000
00100000
00000000
00000000
10000000
00000000
00000000
00100000
00000000
00000000
00000000
00000000
00000000
10000000
00000000
00000000
00000000
01000000
00000000
,
00000000
00000000
00010000
00000000
00000000
00000000
00001000
00000000
00000000
00000000
00000000
00000000
00011000
00000000
00000000
00000000
00000000
00000000
00000010
00000000
00000000
00001000
00000000
00000000
,
00000001
00000000
00000100
00000001
00001000
00000000
00000200
00000000
,
00001300
00000010
00001000
00000001
00000010
00000000
00000100
00001000
,
00000100
00000000
00010000
00001000
00010000
00000000
00001000
00010000
,
00001000
00000000
00100000
00000000
00010000
00000000
00100000
00000000
01000000
00000000
00000000
00000000
10000000
00000000
00000000
10000000
,
00000000
10000000
00100000
00000000
01100000
00000000
01010000
00000000
,
10000000
00100000
00010000
00001000
00000010
00000000
00000001
00000100
,
00000010
00001000
00000100
00010000
00001000
01000000
00010000
00000000
,
00000000
00000000
00000000
00000000
;

//---------------dance-double - ----------------
#NOTEDATA:;
#CHARTNAME:;
#STEPSTYPE:dance-double;
#DESCRIPTION:;
#CHARTSTYLE:;
#DIFFICULTY:Hard;
#METER:17;
#RADARVALUES:0.797051,1.188918,0.246796,0.132212,0.458336,633.000000,605.000000,28.000000,15.000000,0.000000,0.000000,0.000000,0.000000,0.000000,0.797051,1.188918,0.246796,0.132212,0.458336,633.000000,605.000000,28.000000,15.000000,0.000000,0.000000,0.000000,0.000000,0.000000;
#CREDIT:;
#NOTES:
00000000
00000000
00000000
00000000
,
00000000
00000000
00000000
00000000
,
00000000
00000000
00000000
00000000
,
00000000
00000000
00000000
00000000
,
00000000
00000000
00000000
00000000
,
00000000
00000000
00000000
00000000
,
01000000
00010000
00100000
00010000
01000000
00001000
00010000
00000100
,
00001000
00000010
00001000
00000100
00010000
00001000
00100000
00010000
,
10000000
00100000
01000000
00000000
00010000
00100000
00001000
00000000
00010000
00000100
00001000
00000000
00000010
00001000
00000100
00000000
,
00000010
00000000
00000001
00000000
00000010
00000000
00000100
00000000
00001000
00000000
00000100
00000000
00010000
00000000
00001000
00000000
01000000
00000000
00010000
00000000
10000000
01000000
10000000
00000000
00100000
00000000
01000000
00010000
02000000
00000000
00000000
00000000
,
03001000
00000000
00001000
00000000
00010000
00001000
00010000
00000000
00000010
00000000
00001000
00000000
00000001
00000000
00000001
00000000
,
00000100
00000000
00000000
00000100
00000000
00000000
00000010
00000000
00002000
00000000
00000000
00000000
00003100
00000000
00000000
00000000
,
00010000
00010000
00001000
00100000
00100000
00010000
20000000
00000000
,
31000000
00010000
00001000
00000100
00000001
00000100
00001000
00000000
,
00000110
00000000
00000001
00000010
00001000
00000000
00010000
00100000
,
00010000
00000000
00000000
00010000
00000000
00000000
00001000
00000000
00010000
00000000
00000000
00000000
00011000
00000000
00000000
00000000
,
01000000
00000000
10000000
00000000
00100000
00000000
01000000
00000000
00010000
00100000
00000000
00001000
00010000
00001000
00010000
00000000
,
00000100
00000000
00001000
00000001
00000100
00001000
00010000
01000000
,
10000000
00000000
10000000
00000000
01000000
00100000
01000000
00000000
10000000
00000000
00010000
00000000
00100000
00000000
00100000
00000000
,
00001000
00000000
00000000
00001000
00000000
00000000
00010000
00000000
00002000
00000000
00000000
00000000
00013000
00000000
00000000
00000000
,
00000100
00000100
00001000
00000010
00000010
00000100
00000001
00000000
,
00001001
00000000
00000100
00001000
00010000
00100000
10000000
00000000
,
11000000
00000000
00100000
00010000
01000000
00001000
00010000
00000100
,
00001000
00000000
00000000
00001000
00000000
00000000
00000001
00000000
00000020
00000000
00000000
00000000
00000130
00000000
00000000
00000000
,
00001000
00000010
00010000
00001000
01000000
00010000
10000000
00010000
,
00100000
00001000
00100000
00000000
00001000
00010000
00001000
00000000
00010000
00000010
00010000
00000000
00000010
00001000
00000010
00000000
,
00000100
00000000
00000001
00000000
00000010
00000000
00000100
00000000
00001000
00000010
00001000
00000000
00000100
00000000
00000000
00000000
,
00010000
00010000
00001000
01000000
01000000
00010000
10000000
00000000
,
00010000
00100000
00010000
00000000
01000000
00000000
00001000
00010000
00001000
00000000
00010000
00000000
00000010
00000000
00001000
00000000
,
00000001
00000000
00001001
00000000
00000100
00001000
00010000
01000000
,
00010000
00000000
00000000
00000000
00011000
00000000
00000000
00000000
00000010
00001000
00000100
00000000
00010000
00000000
00000000
00000000
,
00001010
00011000
01010000
11000000
,
00100000
00000000
00010000
00000000
10000000
00000000
01000000
00000000
00100000
00010000
01000000
00000000
00001000
00000000
00010000
00000000
,
00000100
00000000
00000000
00000000
00001000
00000010
00001000
00000010
00000100
00000000
00000000
00000000
00011000
00000000
00000000
00000000
,
00110000
00000000
00000000
00000000
10000000
00000000
01000000
00000000
00100000
00010000
00100000
00000000
00001000
00000000
00000000
00000000
,
00010000
00010000
00000100
00001000
00001000
00000001
00000002
00000000
,
00000103
00000010
00000100
00000000
00000010
00000000
00001000
00000100
00001000
00000000
00000100
00000000
00010000
00000000
00001000
00000000
,
01000000
00010000
01000000
00000000
00100000
10000000
01000000
00010000
,
00001000
00000000
00000000
00000000
00011000
00000000
00000000
00000000
00000010
00001000
00000010
00000000
00000100
00000000
00000000
00000000
,
00000101
00001010
00011000
01010000
,
00100000
00000000
10000000
00000000
00010000
00000000
01000000
00000000
00001000
00010000
00001000
00000000
00010000
00000000
00000010
00000000
,
00002000
00000000
00000000
00000000
00003001
00000100
00000001
00000000
00001000
00000000
00001000
00000000
00000100
00000000
00010000
00000000
,
00002000
00000000
00000000
00000000
,
00023000
00000000
00000000
00000000
,
00032000
00000000
00000000
00000000
,
00023000
00000000
00000000
00000000
00000000
00000000
00000000
00000000
00031000
00001000
00100000
00010000
00010000
01000000
00100000
10000000
,
01000000
00010000
01000000
00010000
00001000
00010000
00001000
00010000
00001000
00000100
00001000
00000100
00000001
00000100
00000001
00000100
,
00000001
00000010
00000001
00000010
00000100
00001000
00000100
00001000
00000010
00010000
00001000
01000000
00010000
00100000
01000000
10000000
,
00100000
00010000
00001000
00000000
00000010
00001000
00010000
00000000
01000000
00010000
00001000
00000000
00000100
00001000
00010000
00000000
,
00100000
00000000
10000000
00000000
01000000
00000000
00010000
00000000
00001000
00000000
00000100
00000000
00000001
00000000
00000010
00000000
00000022
00000033
00000000
00000000
00000000
00000000
00000000
00000000
00000100
00000000
00000000
00000000
00000100
00000000
00000000
00000000
,
00001000
00000010
00010000
00001000
00100000
00010000
10000000
10000000
,
01000000
00010000
00001000
00000010
00000001
00000100
00000010
00000010
,
00010000
00001000
00010000
01000000
10000000
01000000
00100000
00010000
,
00100000
00001000
00010000
00001000
00000100
00000001
00000100
00000010
,
00001000
00000100
00010000
00001000
00010000
00100000
10000000
00100000
,
01000000
00010000
01000000
00001000
00010000
00001000
00000010
00000001
,
00000100
00000000
00000010
00000000
00001000
00000000
00000100
00000000
00010000
00000000
00001000
00000000
01000000
00010000
01000000
00000000
,
00100000
01000000
00100000
00000000
10000000
01000000
10000000
00000000
00010000
01000000
00010000
00000000
00100000
00000000
00100000
00000000
,
00001000
00000000
00010000
00000000
00000010
00000000
00001000
00000000
00000100
00000000
00000010
00000000
00000001
00000100
00000001
00000000
,
00001000
00000000
00000100
00000000
00010000
00000000
00010000
00000000
00001000
00000000
01000000
00000000
00010000
00100000
00010000
00000000
,
10000000
00100000
01000000
00100000
10000000
01000000
00010000
00001000
,
00000100
00000000
00000001
00000000
00000010
00000000
00000010
00000000
00000001
00000000
00001000
00000000
00000100
00001000
00000100
00000000
,
00010000
00000000
00001000
00000000
01000000
00000000
00010000
00000000
10000000
00000000
01000000
00000000
00100000
01000000
00100000
00000000
,
00010000
00000000
00100000
00000000
00001000
00000000
00010000
00000000
00000100
00000000
00001000
00000000
00000001
00000100
00000010
00000000
,
00001000
00000000
00000001
00000000
00001000
00000100
00010000
00000000
00001000
00000000
00100000
00000000
00010000
01000000
00010000
01000000
,
00100000
00000000
10000000
01000000
10000000
01000000
00100000
00000000
00010000
00000000
01000000
00000000
00002000
00000000
00000000
00000000
,
00000000
00000000
00000000
00000000
,
00000000
00000000
00000000
00000000
00003000
00000000
00000000
00000000
00011000
00000000
00000000
00000000
00000100
00001000
00000100
00001000
,
00000010
00000000
00000100
00000001
00000100
00000001
00000010
00000000
00000100
00001000
00000100
00000000
00001000
00000000
00000001
00000000
,
00000100
00001000
00010000
01000000
10000000
00010000
00100000
00001000
,
00010000
00001000
00010000
00000000
00000010
00000000
00001000
00000000
00000001
00000000
00000010
00000000
00000100
00001000
00000100
00000000
,
00010000
00000000
00001000
00000000
00010000
00000000
01000000
00000000
10000000
00000000
01000000
00000000
00100000
00010000
00100000
00000000
,
00001000
00010000
00001000
00000010
00000001
00000000
00001001
00000000
,
00001100
00000000
00000000
00000000
00000000
00000000
00010000
00000000
00000000
00001000
00000000
00000000
01000000
00000000
00000000
00010000
00000000
00000000
10010000
00000000
00000000
00000000
01010000
00000000
,
00000000
00000000
00011000
00000000
00000000
00000000
00001100
00000000
00000000
00000000
00000000
00000000
00000101
00000000
00000000
00000000
00000000
00000000
00000010
00000000
00000000
00000001
00000000
00000000
,
00001000
00000100
00001000
00000000
00000001
00000000
00000100
00000000
00001000
00000000
00010000
00000000
02000000
00000000
00000000
00000000
,
13000000
00000000
00100000
00000000
00010000
00000000
00001000
00000000
00000010
00000000
00000000
00000000
00000001
00000100
00000001
00000000
,
00001000
00000000
00000100
00000000
00010000
00000000
00001000
00000000
00100000
00000000
00010000
00000000
10000000
01000000
00100000
00010000
,
00100000
00000000
00010000
00100000
00001000
00010000
00000100
00000000
00001000
00000010
00000100
00000001
00000100
00000000
00000000
00000010
,
00000000
00001000
00000100
00000000
00000110
00000000
00000011
00000000
,
00000001
00000000
00000100
00000000
00001000
00000000
00010000
00000000
01000000
00000000
10000000
00000000
00100000
00010000
00100000
00010000
,
00001000
00010000
00000010
00001000
00000100
00000000
00000010
00000000
00000001
00000000
00000100
00000000
00001000
00000000
00000000
00000000
,
00000000
00000000
00000000
00000000
;

//---------------dance-single - ----------------
#NOTEDATA:;
#CHARTNAME:;
#STEPSTYPE:dance-single;
#DESCRIPTION:;
#CHARTSTYLE:;
#DIFFICULTY:Challenge;
#METER:18;
#RADARVALUES:1.139543,1.643397,0.828530,0.211539,1.220759,905.000000,811.000000,94.000000,24.000000,0.000000,0.000000,0.000000,0.000000,0.000000,1.139543,1.643397,0.828530,0.211539,1.220759,905.000000,811.000000,94.000000,24.000000,0.000000,0.000000,0.000000,0.000000,0.000000;
#CREDIT:;
#DISPLAYBPM:110.000000:220.000000;
#NOTES:
// measure 0
0000
0000
0000
0000
,  // measure 1
0000
0000
0000
0000
,  // measure 2
0000
0000
0000
0000
,  // measure 3
0000
0000
0000
0000
,  // measure 4
0000
0000
0000
0000
,  // measure 5
0000
0000
0000
0000
,  // measure 6
0110
0000
0001
0100
0001
0010
0100
0010
0001
1000
0010
1000
0100
0010
0001
0100
,  // measure 7
0110
0000
0000
0000
1000
0000
0010
0000
1000
0000
0001
0000
1000
0000
0100
0000
0010
0000
0100
0000
1000
0000
0001
0000
0100
0000
0010
0000
1000
0000
0001
0100
,  // measure 8
0001
0001
0010
0010
0100
0100
1000
1000
0010
0010
0100
0100
0001
0001
1000
1000
,  // measure 9
0001
0010
0100
1000
0001
0100
0010
1000
0100
0010
0001
1000
0010
0100
0001
1000
0100
0000
0010
0000
0001
1000
0001
0000
0100
0000
0010
1000
0100
0000
0000
0000
,  // measure 10
0110
0000
1001
0000
0100
0010
1000
0100
0010
0000
0000
0000
0011
0000
0011
0000
,  // measure 11
1001
0000
0000
0110
0000
0000
1001
0000
0100
0010
1000
0001
0100
0000
0000
0000
,  // measure 12
0001
0010
0100
0010
0100
0000
1000
0000
1000
0100
0010
0001
0100
0000
0000
0000
,  // measure 13
1010
0000
0000
0000
0001
0000
0100
0000
0010
0000
0101
0000
1000
0000
0100
0010
,  // measure 14
0001
0000
0000
0000
0110
0000
1000
0001
0100
0000
0010
1000
0001
0000
0001
0000
,  // measure 15
0011
0000
0000
0110
0000
0000
1100
0000
0101
0000
0000
0000
0020
0000
0000
0000
,  // measure 16
1030
0000
1000
0000
0001
0000
0010
0000
0001
0100
0010
1000
0100
0010
0001
1000
,  // measure 17
0020
0000
0130
0001
1000
0001
0010
0100
,  // measure 18
1100
0000
1100
0000
0001
1000
0001
0010
0100
0000
0000
1000
0001
0000
0001
0000
,  // measure 19
1001
0000
0000
0101
0000
0000
0011
0000
0001
0100
1000
0010
0001
0000
0000
0000
,  // measure 20
0100
0010
1000
0001
0010
0000
0100
0000
1000
0010
0100
0001
0010
0000
0000
0000
,  // measure 21
0101
0000
0000
0000
1000
0000
0001
0000
0100
0000
1010
0000
0010
0000
1000
0001
,  // measure 22
0100
0000
0000
0000
1001
0000
0100
0000
0100
0000
0000
0001
1000
0000
1000
0000
,  // measure 23
1100
0000
0000
0110
0000
0000
0011
0000
1010
0000
0000
0000
0200
0000
0000
0000
,  // measure 24
0301
0001
0001
1000
0001
0001
1000
0100
,  // measure 25
0010
0001
0010
0100
1000
0010
0100
0001
2000
0000
3200
0000
0320
0000
0032
0000
,  // measure 26
0103
0000
1000
0010
1000
0100
0010
0001
0100
0010
1000
0001
0010
0000
0000
0000
,  // measure 27
0110
0110
0001
0110
0110
1000
0001
0000
,  // measure 28
1000
0100
0001
0010
1000
0000
0001
0100
1000
0010
0001
0100
0010
0000
0010
0000
,  // measure 29
1000
0000
0101
0000
0011
0000
0100
0010
0001
0000
0001
0000
1000
0000
0001
0000
,  // measure 30
0001
0000
0000
0000
0000
0000
0000
0000
0000
0000
0000
0000
1001
0000
0000
0000
0000
0000
0000
0000
0000
0000
0000
0000
1000
0000
0000
0100
0000
0000
0010
0000
0000
0001
0000
0000
0100
0000
0000
0000
0000
0000
0010
0000
1000
0000
0010
0000
,  // measure 31
1000
0110
0001
0110
1000
0110
0002
0000
,  // measure 32
0013
0000
0010
0000
0010
0000
0010
0000
0001
0100
0010
0100
0001
0000
0001
0000
,  // measure 33
2000
0000
0000
0000
3001
0010
0100
0010
0001
0100
0010
0100
0001
0000
0000
0000
,  // measure 34
1010
0000
1000
0100
0001
0000
0010
0000
0001
0100
0010
1000
0100
0000
0000
0000
,  // measure 35
1100
0000
1100
0000
0001
0000
1100
0000
1100
0000
0010
0001
0100
0000
0000
0000
,  // measure 36
0010
1000
0100
1000
0001
0000
0100
0001
0010
0100
1000
0000
0001
0000
0001
0000
,  // measure 37
0110
0000
1000
0100
0001
0000
0000
0000
0011
0000
1100
0000
0010
0000
0101
0000
,  // measure 38
1100
0000
0000
0000
0000
0000
0000
0000
0000
0000
0000
0000
0110
0000
0000
0000
0000
0000
0000
0000
0000
0000
0000
0000
0001
0000
0000
0100
0000
0000
1000
0000
0000
0010
0000
0000
0001
0000
0000
0000
0000
0000
1000
0000
0100
0000
1000
0000
,  // measure 39
0100
1001
0010
1001
0100
1001
0110
0000
,  // measure 40
0001
0000
0001
0000
0001
0000
0001
0000
1000
0100
0010
0100
1000
0000
1000
0000
,  // measure 41
0101
0000
0000
0000
0001
0010
0100
1000
0020
0000
0230
0000
0302
0000
2003
0000
,  // measure 42
3100
0000
0000
0000
0000
0000
0000
0000
0000
0000
0000
0000
0000
0000
0000
0000
0000
0000
0000
0000
0000
0000
0000
0000
0001
0000
0000
0000
0000
0000
1000
0000
0000
0000
0000
0000
0001
0000
0000
0000
0000
0000
1000
0000
0000
0000
0000
0000
0001
0000
0000
0000
1000
0000
0000
0000
0001
0000
0000
0000
1000
0000
0000
0000
0001
0000
0000
0000
1000
0000
0000
0000
0001
0000
0000
0000
0000
0000
1000
0000
0000
0000
0000
0000
0001
0000
0000
0000
0000
0000
1000
0000
0000
0000
0000
0000
0001
0000
0000
0000
0000
0000
0000
0000
1000
0000
0000
0000
0000
0000
0000
0000
0001
0000
0000
0000
0000
0000
0000
0000
1000
0000
0000
0000
0000
0000
0000
0000
0001
0000
0000
0000
0000
0000
0000
0000
1000
0000
0000
0000
0000
0000
0000
0000
0001
0000
0000
0000
0000
0000
0000
0000
0000
0000
0000
0000
1000
0000
0000
0000
0000
0000
0000
0000
0000
0000
0000
0000
0001
0000
0000
0000
0000
0000
0000
0000
0000
0000
0000
0000
1000
0000
0000
0000
0000
0000
0000
0000
0000
0000
0000
0000
,  // measure 43
0001
0000
0000
0000
1000
0000
0000
0000
0001
0000
0000
0000
1000
0000
0000
0000
0000
0000
0001
0000
0000
0000
0000
0000
0000
0000
0000
1000
0000
0000
0100
0000
0000
0010
0000
0000
0001
0000
0000
0010
0000
0000
0100
0000
0000
1000
0000
0000
,  // measure 44
0001
0000
0100
0010
0000
0100
0001
1000
0000
0001
0010
0001
0100
0010
1000
0001
,  // measure 45
0100
0000
0000
0000
0010
0000
1000
0000
0100
0000
1000
0000
0001
0000
0100
0000
1001
0000
1001
0000
0100
0000
1001
0000
0001
0010
0001
0010
0100
1000
0100
1000
,  // measure 46
0001
0000
0100
0001
0010
0100
1000
0010
1000
0001
1000
0100
0010
0001
0100
0010
,  // measure 47
0110
0000
0000
0000
1000
0000
0001
0000
1000
0000
0100
0000
0010
0000
0001
0000
0100
0000
0001
0000
1000
0000
0001
0000
0010
0000
0100
0000
1000
0000
0001
0100
,  // measure 48
0010
0010
0010
0010
0010
0010
0010
0010
0100
0100
0100
0100
0100
0100
0100
0100
,  // measure 49
0001
1000
0010
0100
1000
0010
1000
0001
1000
0001
0100
0010
0100
0010
0001
0100
2000
0000
0000
0000
0000
0000
0000
0000
3001
0000
0000
0000
1000
0000
0100
0000
,  // measure 50
0010
0000
0001
0000
0100
0000
0000
0000
0010
1000
0100
0001
0010
0000
0010
0000
,  // measure 51
0001
0000
0100
0000
1000
0000
0100
0010
0001
0000
0100
0000
0110
0000
1000
0000
,  // measure 52
0101
0000
0001
0000
0010
0001
0100
0010
1000
0000
0100
0000
1000
0010
0001
0100
,  // measure 53
1000
0100
0001
0010
1000
0000
0001
0000
0100
0000
0010
0000
1010
0000
0000
0000
,  // measure 54
0001
0010
0100
1000
0001
0000
0100
0000
0010
0000
1000
0000
1001
0000
0011
0000
,  // measure 55
0110
1100
0101
0010
0100
0100
0001
0000
,  // measure 56
0010
0001
0100
1000
0001
0000
0100
0010
1000
0000
1000
0000
0100
1000
0100
0010
,  // measure 57
0001
0000
0100
0001
0020
0000
0230
0000
2300
0000
3002
0000
0103
0000
0001
0010
,  // measure 58
1000
0100
0001
0000
1000
0001
0100
0000
0010
1000
0001
0100
0010
0000
0010
0000
,  // measure 59
0010
0000
0100
0000
0010
0000
1000
0100
0001
0000
0010
0000
1100
0000
0000
0000
,  // measure 60
0101
0000
0000
0000
0001
0000
0000
0000
1000
0000
0100
0000
0010
0000
0001
0000
0100
0000
0000
0000
0000
0000
0000
0000
0001
0010
0001
0010
0001
0010
0001
0010
,  // measure 61
0100
0000
0100
0000
0100
0000
1000
0001
0100
0000
0010
0000
1010
0000
0000
0000
,  // measure 62
0001
1000
0001
1000
0100
0000
0010
0000
0020
0000
0000
0000
0031
0100
0001
0010
,  // measure 63
1000
0000
0100
0000
0001
0000
0010
0001
0100
0000
0010
1000
0100
0000
0010
0000
,  // measure 64
1001
0000
0100
0000
0100
0000
0000
0000
0001
0010
1000
0001
1000
0100
0001
0010
,  // measure 65
0100
0000
1000
0000
0010
0010
0100
0100
0010
0010
0100
0100
0001
0000
0000
0000
,  // measure 66
1000
0000
0001
0000
0000
0000
1000
0000
0100
0000
0010
0000
0001
0100
0001
0100
,  // measure 67
0001
0010
0001
0010
0001
0100
0001
0010
0001
0000
0000
0000
1000
0100
0001
1000
,  // measure 68
0010
0000
0100
0001
0010
0000
0100
0000
0001
1000
0100
0010
1000
0000
0001
0100
,  // measure 69
0001
0000
0010
0000
1000
0100
0001
0000
1001
0000
1001
0000
0110
0000
0000
0000
,  // measure 70
2100
0000
0000
0000
3001
0000
0001
0000
1000
0000
0010
0000
1000
0100
0010
0001
,  // measure 71
0100
0000
0010
1000
0100
0000
0000
0000
0011
0000
0000
0000
1000
0010
1000
0001
,  // measure 72
1000
0100
0010
0001
0100
0000
0010
1000
0001
0000
0000
0000
0102
0000
0000
0000
,  // measure 73
0013
0000
0000
0000
0000
0000
1100
0000
0000
0110
0000
0000
0011
0000
0000
0110
0000
0000
1100
0000
0000
0000
0101
0000
,  // measure 74
0000
0000
0000
0000
1100
0000
0000
0000
0000
0000
0000
0000
0101
0000
0000
0000
0000
0000
0000
0000
0000
0000
0000
0000
1000
0000
0000
0100
0000
0000
0001
0000
0000
0010
0000
0000
1000
0000
0000
0000
0000
0000
1000
0000
0000
0000
0000
0000
,  // measure 75
1000
0100
0010
0001
0100
0000
0010
0100
0001
0000
0001
0000
0001
0000
0000
0000
,  // measure 76
0011
0000
1001
0000
0101
0000
1001
0000
1100
0000
0000
0000
1000
0100
0010
1000
,  // measure 77
0001
0000
0100
1000
0010
0000
0010
0000
1000
0000
0001
0000
0100
0001
0010
0001
,  // measure 78
0100
0000
0010
1000
0100
1000
0010
0000
1000
0001
1000
0001
1001
0000
0000
0110
,  // measure 79
0000
1001
0110
0000
2000
0000
3001
0001
,  // measure 80
0001
0000
0001
0000
0001
0000
0000
0000
1200
0000
0000
0000
0310
0001
0100
1000
,  // measure 81
0010
0001
0100
1000
0010
0000
0100
0000
0001
0000
1000
0000
0200
0000
0000
0000
,  // measure 82
0000
0000
0000
0000
,  // measure 83
0000
0000
0000
0000
,  // measure 84
0000
0000
0000
0300
;
