#VERSION:0.83;
#TITLE:ESCAPE TO THE SKY??;
#SUBTITLE:;
#ARTIST:T??RA;
#TITLETRANSLIT:ESCAPE TO THE SKY;
#SUBTITLETRANSLIT:;
#ARTISTTRANSLIT:TERRA;
#GENRE:;
#ORIGIN:;
#CREDIT:;
#BANNER:ESCAPE TO THE SKY-bn.png;
#BACKGROUND:ESCAPE TO THE SKY-bg.png;
#PREVIEWVID:;
#JACKET:ESCAPE TO THE SKY-jacket.png;
#CDIMAGE:;
#DISCIMAGE:;
#LYRICSPATH:;
#CDTITLE:;
#MUSIC:ESCAPE TO THE SKY.ogg;
#OFFSET:0.316000;
#SAMPLESTART:35.683998;
#SAMPLELENGTH:20.000000;
#SELECTABLE:YES;
#DISPLAYBPM:190.000000;
#BPMS:0.000=190.000;
#STOPS:;
#DELAYS:;
#WARPS:;
#TIMESIGNATURES:0.000=4=4;
#TICKCOUNTS:0.000=4;
#COMBOS:0.000=1;
#SPEEDS:0.000=1.000=0.000=0;
#SCROLLS:0.000=1.000;
#FAKES:;
#LABELS:0.000=Song Start;
#BGCHANGES:;
#KEYSOUNDS:;
#ATTACKS:
;

//---------------dance-single - ----------------
#NOTEDATA:;
#CHARTNAME:;
#STEPSTYPE:dance-single;
#DESCRIPTION:;
#CHARTSTYLE:;
#DIFFICULTY:Hard;
#METER:13;
#RADARVALUES:0.669793,0.698784,0.258424,0.073835,0.059991,508.000000,480.000000,28.000000,8.000000,0.000000,0.000000,0.000000,0.000000,0.000000,0.669793,0.698784,0.258424,0.073835,0.059991,508.000000,480.000000,28.000000,8.000000,0.000000,0.000000,0.000000,0.000000,0.000000;
#CREDIT:;
#DISPLAYBPM:190.000000;
#NOTES:
0000
0000
0000
0000
,
0000
0000
0000
0000
,
0000
0000
0000
0000
,
0000
0000
0000
0000
,
0000
0000
0000
0000
,
0000
0000
0000
0000
,
0000
0000
0000
0000
,
0000
0000
0000
0000
,
0010
0000
0001
0100
1000
0100
0001
0000
,
0010
0000
0100
1000
0001
0000
0100
0010
,
1000
0000
0001
1000
0010
0100
0001
0000
,
0010
0000
0100
0010
0001
0000
1000
0001
,
1000
0010
0100
0000
0001
1000
0100
0000
,
0010
0000
0001
0000
1000
0001
1000
0100
,
0010
0000
0001
1000
0001
0000
0100
0010
,
2000
0000
3100
0000
0020
0000
0031
1000
,
0002
0000
0013
0001
0200
0000
0300
0010
,
1000
0010
1000
0001
0000
0011
0000
1100
,
0000
0101
0000
1100
0000
0010
1000
0001
,
0000
1000
0100
0010
0000
0001
1000
0001
,
0100
0010
1000
0001
0000
0000
0000
0010
,
0001
1000
0001
0100
0000
0010
1000
0100
,
0000
1001
0000
0110
0000
1000
0010
1000
,
0000
0001
0010
0100
0000
0010
0001
1000
,
0001
0100
0010
1000
0100
0010
0100
0010
,
0100
1000
0001
1000
0000
0010
0100
0001
,
0000
1000
0010
1000
0000
0001
0010
0100
,
1000
0010
1000
0001
1000
0100
0010
0001
,
0100
0000
0000
0000
0000
0000
0010
1000
0010
0000
0000
0000
1001
0000
0000
0000
,
0101
0000
1000
0010
1000
0100
0010
0001
,
0100
0000
0010
1000
0001
1000
0100
0010
,
0001
0000
0100
0010
0000
1000
0001
1000
,
0100
0000
0010
0001
0000
0001
0100
1000
,
0010
0100
0010
1000
0000
0001
0010
0001
,
1000
0000
0010
0100
0000
0100
0001
1000
,
0100
0000
0010
0001
1000
0000
0010
0100
,
0010
0000
1000
0000
0000
0000
0010
0000
1000
0001
1000
0001
1000
0000
0000
0000
,
1010
0000
0100
0001
0000
0010
0100
1000
,
0001
0100
0010
0100
0000
0001
1000
0100
,
0010
0000
0001
1000
0000
0001
0100
0010
,
1000
0000
0000
0100
0010
0100
1000
0001
,
0100
0000
0010
1000
0000
1000
0001
0010
,
0100
0000
1000
0001
0000
0011
0000
0100
,
1000
0010
1000
0001
0010
0001
1000
0100
,
0000
0000
0010
0000
0010
0000
0010
0000
0010
0000
0001
1000
0001
1000
0001
0000
,
0100
0000
0110
0000
0010
1000
0000
1000
,
0100
0010
0002
0000
0200
0000
0303
0000
,
1010
1000
0000
0002
0000
1003
0100
0000
,
0010
0001
0000
0010
0001
0010
0100
1000
,
0010
0010
0000
1000
0001
1000
0100
0010
,
0001
1000
0010
0000
0101
0000
1100
0000
,
0001
0010
0100
1000
0000
0010
1000
0001
,
1000
0000
0100
0000
0000
0000
0010
0000
0001
1000
0001
1000
0001
0000
0100
0000
,
0000
0010
1000
0001
1000
0010
1000
0001
,
0010
0001
0010
0100
0000
1000
0001
1000
,
0000
1010
0000
0101
0000
0001
0100
1000
,
0010
0100
0010
1000
0000
0100
0010
0001
,
0000
0010
0001
1000
0010
0100
0010
1000
,
0001
0010
0100
1000
0000
1000
0010
0100
,
0000
0110
0000
1001
0000
0101
0000
1100
,
0000
0001
0010
1000
0000
0100
0010
0001
,
0100
0000
0010
0000
1000
0000
0010
0000
0000
0000
1000
0100
1000
0000
0001
0000
,
0010
0001
0010
0100
0000
1100
0000
0011
,
0000
0100
0010
1000
0000
0001
0100
0010
,
1000
0001
1000
0010
0100
0001
0010
0100
,
1000
0000
0000
0010
0100
0010
0100
0000
,
1001
0000
1000
0010
0000
1000
0100
0001
,
0010
0100
0010
0001
0000
1000
0001
0100
,
0010
0000
1000
0001
0000
1000
0000
0100
,
0010
0000
0000
0011
0000
1000
0001
1000
,
0010
0100
0010
1000
0000
1000
0100
0001
,
1000
0010
1000
0001
0000
0010
0100
1000
,
0001
0000
0100
0000
0010
0000
1000
0001
,
1000
0100
0010
0001
0000
0100
0010
1000
,
0001
0000
0010
0001
1000
0010
0100
0001
,
1000
0100
1000
0010
0000
0100
0001
1000
,
0100
0000
1000
0010
1000
0001
0010
0100
,
1000
0001
0101
1010
,
1100
0000
0010
0001
0000
1000
0001
0100
,
0010
1000
0100
1000
0000
0001
0000
0001
,
1000
0010
0100
0010
0000
1000
0001
0100
,
0000
0000
0010
0000
0010
0000
0010
0000
0010
0000
1000
0001
1000
0001
1000
0001
,
2000
0100
0100
0100
,
0100
0000
0000
0000
0100
0000
0000
0000
3100
0000
0000
0000
1000
0001
1000
0001
,
1000
0110
0000
0000
0000
0000
0000
0000
;

//---------------dance-single - ----------------
#NOTEDATA:;
#CHARTNAME:;
#STEPSTYPE:dance-single;
#DESCRIPTION:;
#CHARTSTYLE:;
#DIFFICULTY:Medium;
#METER:10;
#RADARVALUES:0.524759,0.543498,0.221506,0.092294,0.000000,398.000000,374.000000,24.000000,10.000000,0.000000,0.000000,0.000000,0.000000,0.000000,0.524759,0.543498,0.221506,0.092294,0.000000,398.000000,374.000000,24.000000,10.000000,0.000000,0.000000,0.000000,0.000000,0.000000;
#CREDIT:;
#DISPLAYBPM:190.000000;
#NOTES:
0000
0000
0000
0000
,
0000
0000
0000
0000
,
0000
0000
0000
0000
,
0000
0000
0000
0000
,
0000
0000
0000
0000
,
0000
0000
0000
0000
,
0000
0000
0000
0000
,
0000
0000
0000
0000
,
0010
0000
0001
0000
0100
0010
1000
0000
,
0001
0000
0010
0000
0100
0000
1000
0001
,
1000
0000
0000
0010
0100
0000
0001
0000
,
1000
0000
0100
0010
0100
0000
1000
0001
,
1000
0010
0100
0001
,
0010
0000
0100
0000
1000
0000
0010
1000
,
0001
0000
0000
1000
0100
0000
0000
1000
,
0002
0000
0003
0000
0200
0000
0300
0010
,
2000
0000
3000
0001
0020
0000
0030
0000
,
0100
1000
0100
1000
0000
0010
0000
0100
,
0000
0001
0000
1000
0000
0001
0010
0100
,
0000
1000
0000
0010
0000
1000
0000
0001
,
1000
0010
1000
0010
0000
0000
0000
0100
,
0001
0100
0010
1000
0000
0100
0000
0010
,
0000
0001
0000
1000
0000
0001
0100
0010
,
0000
0100
0000
0010
0000
1000
0000
0100
,
1000
0010
1000
0001
0000
0000
0000
0100
,
0010
0100
0010
1000
0000
0001
0000
0010
,
0000
0001
0100
0010
0000
1000
0001
1000
,
0000
0100
0000
1000
0010
1000
0001
0100
,
0000
0000
0110
1001
,
0110
0000
1000
0010
0000
0100
0001
0000
,
0011
0000
0010
0100
0000
1000
0001
0000
,
0101
0000
0010
1000
0000
0001
1000
0100
,
0000
0000
0000
0010
0000
0010
0001
1000
,
0001
0000
1000
0010
0000
1000
0100
0000
,
1100
0000
0010
0100
0000
0001
1000
0001
,
1000
0100
0010
0001
,
0100
0001
0000
1000
0000
0001
0100
0000
,
1010
0000
1000
0001
0000
0010
0100
0000
,
1100
0000
0010
0001
0000
1000
0100
0000
,
0011
0000
0001
0100
0000
0010
0000
1000
,
0000
0000
0000
0001
0000
0010
0001
0100
,
0010
0000
0000
1000
0000
0010
1000
0001
,
0100
0000
0010
1000
0000
0100
0000
0010
,
0001
0000
1000
0010
0000
1000
0001
0100
,
0000
0010
0100
0010
0100
0010
0100
0000
,
0001
0000
1001
0000
1000
0001
0000
1000
,
0010
0100
0002
0000
0200
0000
0303
0000
,
0010
1000
0000
0002
0000
1003
0100
0000
,
0000
0010
0000
0001
0000
0100
0010
1000
,
0000
0001
0100
0000
0010
0000
1000
0001
,
1000
0100
0020
0000
0002
0000
0033
0000
,
0100
0010
0000
1000
0000
0001
0010
0000
,
0100
1000
0000
0100
1000
0000
0001
0000
,
0000
0100
0010
0100
0010
0100
0010
0000
,
1000
0010
0100
0001
0000
0010
0000
0100
,
0000
1000
0001
1000
0000
0010
0100
0001
,
0000
0010
0100
1000
0000
0001
0000
0100
,
0000
0010
1000
0001
0000
0000
0000
0001
,
0010
0100
1000
0001
0000
1000
0000
0001
,
0000
1000
0000
0010
0000
0100
0000
0001
,
0000
0010
0100
1000
0000
1000
0000
0001
,
0000
1000
0100
0010
0000
0000
0000
0001
,
0100
0010
0100
0010
0000
1000
0000
0001
,
0000
1000
0100
0010
0000
0001
1000
0001
,
0000
0010
0001
0100
0000
0010
1000
0100
,
0000
0000
0110
1001
,
0110
0000
1000
0010
0000
0100
0001
0000
,
0011
0000
0000
0100
0000
1000
0001
0010
,
0001
0000
0100
0010
0000
1000
0000
0100
,
0000
0000
0000
1000
0000
1000
0010
0100
,
0001
0000
0010
0001
0000
1000
0010
0000
,
0101
0000
1000
0010
0000
1000
0100
0000
,
1010
0000
0100
0000
0010
0000
0100
0001
,
1000
0001
0000
0010
0000
0100
1000
0000
,
1001
0000
0010
0001
0000
1000
0100
0000
,
1100
0000
0010
1000
0000
0001
0100
0000
,
0110
0000
0010
0100
0000
0001
0000
1000
,
0100
0000
1010
0101
,
0011
0000
0100
0010
0000
0001
1000
0000
,
1010
0000
0100
0010
0000
1000
0000
0001
,
0010
0000
0100
1000
0000
0010
1000
0001
,
0000
0100
0010
0100
0010
0100
0010
0000
,
0102
0100
0100
0100
,
0100
0000
0100
0000
0100
0000
0103
0010
,
1000
0001
0000
0000
0000
0000
0000
0000
;

//---------------dance-single - ----------------
#NOTEDATA:;
#CHARTNAME:;
#STEPSTYPE:dance-single;
#DESCRIPTION:;
#CHARTSTYLE:;
#DIFFICULTY:Easy;
#METER:7;
#RADARVALUES:0.374451,0.465164,0.129212,0.073835,0.000000,284.000000,270.000000,14.000000,8.000000,0.000000,0.000000,0.000000,0.000000,0.000000,0.374451,0.465164,0.129212,0.073835,0.000000,284.000000,270.000000,14.000000,8.000000,0.000000,0.000000,0.000000,0.000000,0.000000;
#CREDIT:;
#DISPLAYBPM:190.000000;
#NOTES:
0000
0000
0000
0000
,
0000
0000
0000
0000
,
0000
0000
0000
0000
,
0000
0000
0000
0000
,
0000
0000
0000
0000
,
0000
0000
0000
0000
,
0000
0000
0000
0000
,
0000
0000
0000
0000
,
0000
0000
0000
0000
,
0010
1000
0001
1000
,
0100
0000
0100
0000
,
0010
0001
0010
0100
,
1000
1000
0001
0001
,
0100
0010
0100
0001
,
1000
0000
1000
0000
,
0002
0003
0020
0030
,
0200
0300
2000
3000
,
0010
1000
0010
0100
,
0001
0010
0100
1000
,
0010
1000
0100
0010
,
0001
0100
1000
0000
,
0001
0010
0001
1000
,
0010
0100
0001
1000
,
0100
0010
0100
1000
,
0010
0100
0001
0000
,
1000
0001
0010
0001
,
0010
0100
1000
0001
,
0101
1000
1100
0001
,
0101
0000
0010
0010
,
1001
0100
0001
0010
,
0100
0010
0001
0100
,
1000
0010
1000
0001
,
0100
0000
0010
0010
,
0010
1000
0001
1000
,
0100
0010
0100
1000
,
0001
0010
0010
0100
,
1000
0010
1000
0001
,
1001
0100
0001
0100
,
0010
1000
0100
0001
,
0010
0100
1000
0010
,
0100
0000
0001
0001
,
0001
0000
1000
0100
,
1000
0010
1000
0001
,
0100
0010
0100
0001
,
0000
1000
1000
1000
,
0010
1000
0100
0010
,
0001
0001
0002
0003
,
0011
0000
1100
0000
,
0001
0100
1000
0010
,
0100
0000
0010
1000
,
0100
0100
0200
0300
,
1000
1000
0001
0001
,
0100
0000
1000
0001
,
0000
0010
0001
0100
,
1000
1000
0001
0001
,
0010
0001
0010
0100
,
1000
0010
1000
0100
,
0001
0010
0001
0000
,
1000
0010
1000
0100
,
0010
0010
0001
0100
,
0001
1000
0001
0010
,
0100
0100
1000
0000
,
0100
1000
0010
0100
,
0001
0010
0001
1000
,
1010
0001
0011
1000
,
1010
0000
0100
0100
,
1001
0010
1000
0100
,
0010
0001
1000
0001
,
1000
0010
0100
0010
,
1000
0000
0100
0100
,
0100
0010
0001
0100
,
0010
1000
0001
0010
,
0100
1000
0001
1000
,
0001
0100
0010
1000
,
1001
0010
0001
0100
,
0001
0010
1000
0001
,
1000
0010
1000
0100
,
0010
0000
0001
0001
,
0001
0100
0001
0100
,
0010
1000
0010
1000
,
0100
0010
0100
1000
,
0000
0001
0001
0001
,
0022
0000
0000
0030
,
1000
1000
1000
1003
,
0110
0000
0000
0000
;

//---------------dance-single - ----------------
#NOTEDATA:;
#CHARTNAME:;
#STEPSTYPE:dance-single;
#DESCRIPTION:;
#CHARTSTYLE:;
#DIFFICULTY:Beginner;
#METER:4;
#RADARVALUES:0.170085,0.232582,0.000000,0.000000,0.000000,129.000000,129.000000,0.000000,0.000000,0.000000,0.000000,0.000000,0.000000,0.000000,0.170085,0.232582,0.000000,0.000000,0.000000,129.000000,129.000000,0.000000,0.000000,0.000000,0.000000,0.000000,0.000000,0.000000;
#CREDIT:;
#DISPLAYBPM:190.000000;
#NOTES:
// measure 0
0000
0000
0000
0000
,  // measure 1
0000
0000
0000
0000
,  // measure 2
0000
0000
0000
0000
,  // measure 3
0000
0000
0000
0000
,  // measure 4
0000
0000
0000
0000
,  // measure 5
0000
0000
0000
0000
,  // measure 6
0000
0000
0000
0000
,  // measure 7
0000
0000
0000
0000
,  // measure 8
0000
0000
0000
0000
,  // measure 9
0010
0000
1000
0000
,  // measure 10
0100
0000
1000
0000
,  // measure 11
0001
0000
0010
0000
,  // measure 12
0001
0000
0100
0000
,  // measure 13
0010
0000
1000
0000
,  // measure 14
0001
0000
0100
0000
,  // measure 15
0001
0000
0010
0000
,  // measure 16
0100
0000
1000
0000
,  // measure 17
0010
0000
0010
0000
,  // measure 18
1000
0000
0001
0000
,  // measure 19
1000
0000
1000
0000
,  // measure 20
0100
0000
0000
0000
,  // measure 21
0010
0000
0001
0000
,  // measure 22
0100
0000
0010
0000
,  // measure 23
1000
0000
1000
0000
,  // measure 24
1000
0000
0000
0000
,  // measure 25
0001
0000
0010
0000
,  // measure 26
0001
0000
0100
0000
,  // measure 27
0010
0000
0010
0000
,  // measure 28
0010
0000
1000
1000
,  // measure 29
1000
0000
0000
0000
,  // measure 30
0001
0000
0000
0000
,  // measure 31
0010
0000
0001
0000
,  // measure 32
0100
0000
0000
0000
,  // measure 33
0010
0000
0000
0000
,  // measure 34
0100
0000
0000
0000
,  // measure 35
0001
0000
1000
0000
,  // measure 36
0001
0000
0010
0000
,  // measure 37
0100
0000
0000
0000
,  // measure 38
1000
0000
0000
0000
,  // measure 39
0010
0000
0100
0000
,  // measure 40
0010
0000
1000
0000
,  // measure 41
0001
0000
0000
0000
,  // measure 42
1000
0000
0001
0000
,  // measure 43
0100
0000
0010
0000
,  // measure 44
0000
1000
1000
1000
,  // measure 45
0000
0000
0001
0000
,  // measure 46
1000
0000
0010
0000
,  // measure 47
0000
0000
0100
0000
,  // measure 48
0000
0000
0010
0000
,  // measure 49
0000
0000
1000
0000
,  // measure 50
0100
0000
1000
0000
,  // measure 51
0001
0000
0000
0000
,  // measure 52
0010
0000
0010
0000
,  // measure 53
0000
0000
0000
0000
,  // measure 54
0100
0000
0010
0000
,  // measure 55
0100
0000
1000
0000
,  // measure 56
0001
0000
0001
0000
,  // measure 57
0010
0000
0000
0000
,  // measure 58
0100
0000
0010
0000
,  // measure 59
0100
0000
1000
0000
,  // measure 60
0001
0000
1000
0000
,  // measure 61
0010
0000
0000
0000
,  // measure 62
0100
0000
0100
0000
,  // measure 63
0001
0000
1000
0000
,  // measure 64
0010
0000
0010
0000
,  // measure 65
0010
0000
0100
0100
,  // measure 66
0100
0000
0000
0000
,  // measure 67
0001
0000
0000
0000
,  // measure 68
1000
0000
0001
0000
,  // measure 69
0010
0000
0000
0000
,  // measure 70
0100
0000
0000
0000
,  // measure 71
1000
0000
0000
0000
,  // measure 72
0010
0000
0100
0000
,  // measure 73
0001
0000
1000
0000
,  // measure 74
1000
0000
0001
0000
,  // measure 75
1000
0000
0100
0000
,  // measure 76
0010
0000
0010
0000
,  // measure 77
0001
0000
0100
0100
,  // measure 78
0100
0000
0010
0000
,  // measure 79
0100
0000
0001
0000
,  // measure 80
1000
0000
0010
0000
,  // measure 81
0000
0100
0100
0100
,  // measure 82
0100
0000
0000
0000
,  // measure 83
0000
0000
0000
0000
,  // measure 84
0001
0000
0000
0000
;
