#VERSION:0.83;
#TITLE:ENTER THE DRAGON;
#SUBTITLE:(G'z Island Mix);
#ARTIST:B3-PROJECT;
#TITLETRANSLIT:;
#SUBTITLETRANSLIT:;
#ARTISTTRANSLIT:;
#GENRE:;
#ORIGIN:;
#CREDIT:;
#BANNER:ENTER THE DRAGON (G'z Island Mix)-bn.png;
#BACKGROUND:ENTER THE DRAGON (G'z Island Mix)-bg.png;
#PREVIEWVID:;
#JACKET:ENTER THE DRAGON (G'z Island Mix)-jacket.png;
#CDIMAGE:;
#DISCIMAGE:;
#LYRICSPATH:;
#CDTITLE:;
#MUSIC:ENTER THE DRAGON (G'z Island Mix).ogg;
#OFFSET:0.000000;
#SAMPLESTART:36.773998;
#SAMPLELENGTH:20.000000;
#SELECTABLE:YES;
#DISPLAYBPM:155.000000;
#BPMS:0.000=155.000;
#STOPS:;
#DELAYS:;
#WARPS:;
#TIMESIGNATURES:0.000=4=4;
#TICKCOUNTS:0.000=4;
#COMBOS:0.000=1;
#SPEEDS:0.000=1.000=0.000=0;
#SCROLLS:0.000=1.000;
#FAKES:;
#LABELS:0.000=Song Start;
#BGCHANGES:;
#KEYSOUNDS:;
#ATTACKS:
;

//---------------dance-single - ----------------
#NOTEDATA:;
#CHARTNAME:;
#STEPSTYPE:dance-single;
#DESCRIPTION:;
#CHARTSTYLE:;
#DIFFICULTY:Hard;
#METER:14;
#RADARVALUES:0.658213,0.674614,0.184300,0.317405,0.378838,450.000000,432.000000,18.000000,31.000000,0.000000,0.000000,0.000000,0.000000,0.000000,0.658213,0.674614,0.184300,0.317405,0.378838,450.000000,432.000000,18.000000,31.000000,0.000000,0.000000,0.000000,0.000000,0.000000;
#CREDIT:;
#DISPLAYBPM:155.000000;
#NOTES:
0000
0000
0000
0000
,
0000
0000
0000
0000
,
1100
1100
0000
0001
0010
0001
0100
0110
,
0110
0000
0000
0000
1000
0000
0000
0000
1000
0001
0000
0010
0000
0001
0100
0000
,
0010
0000
1000
0000
0100
0000
1000
0001
1000
0000
0100
0000
0010
0000
0000
0000
,
0001
0000
1000
0000
0010
0000
1000
0100
1000
0000
0001
0000
0010
0000
0000
0000
,
0100
0000
0100
0000
1000
0000
0001
0100
0001
0000
1000
0000
0010
0000
0000
0000
,
0100
0000
0001
0000
1000
0010
1000
0000
0001
0100
0000
0100
0010
0000
1000
0000
,
0002
0100
0103
0020
1000
1030
0002
0000
,
0013
0000
0001
0000
0100
0000
0010
1000
0010
0000
0100
0000
0001
0000
1000
0000
,
1000
0000
1000
0000
0100
0000
0010
0001
0010
0000
0001
0000
0100
0000
0000
0000
,
0010
0000
1000
0000
0100
0010
0100
0000
1000
0001
0000
0001
1000
0000
0010
0000
,
0102
0000
0100
0103
0000
1000
0001
1000
,
0000
0000
0100
0000
0010
0001
0000
0000
0100
0010
0000
0010
1000
0010
0000
0010
,
0100
0000
0001
0000
1000
0000
0001
0000
0000
0000
0010
0100
0010
0100
0010
0000
,
0001
0001
1000
1000
0001
0001
1000
1000
,
0020
0000
0100
0000
0130
0000
0010
1000
0010
0000
0100
0000
0001
0000
1000
0000
,
0100
0000
0010
0000
0001
0000
1000
0010
1000
0000
0200
0000
0000
0320
0000
0000
,
0031
0000
0100
0000
0010
0000
1000
0001
1000
0000
0100
0000
0010
0000
0001
0000
,
0100
0000
0010
0000
0100
0001
0100
0000
0010
1000
0000
1000
0001
0000
0100
0000
,
0002
0000
0010
0000
0013
0000
0001
0100
0001
0000
1000
0000
0010
0000
0100
0000
,
0010
0000
1000
0000
0001
0000
0010
0100
0010
0000
0002
0000
0000
2003
0000
0000
,
3100
0000
0010
0000
0001
0000
1000
0010
1000
0000
0100
0000
0010
0000
0001
0000
,
0100
0010
0000
0000
1000
0010
0000
0000
0100
0001
0100
0001
1000
0000
0100
0000
,
2200
0000
0300
0002
0000
0000
0000
0000
,
0000
0000
0000
0000
3000
0000
0013
0001
,
0200
0000
0000
0020
0000
0000
0000
0000
,
0000
0000
0000
0000
0300
0000
1030
0100
,
0001
0010
0001
0100
1000
0010
1000
0001
,
0100
0010
1000
0000
0001
0000
0010
0000
0001
0000
0100
0000
0010
0000
1000
0000
,
0100
0000
0010
0000
0100
0000
1000
0000
0010
0000
0100
0000
0001
0000
1000
0001
,
0100
0000
0010
0000
0100
0000
0001
0000
1000
0010
0000
0010
1000
0000
0001
0000
,
0100
0010
0100
1000
0100
0001
0010
0100
,
1100
0000
0000
0000
0001
0010
0001
0000
0100
0010
0000
0010
1000
0000
0000
0000
,
0100
0001
0100
0010
0100
0001
0100
1000
,
0010
0100
0000
0100
0002
0000
0000
0000
1003
0010
0000
0010
1000
0000
0001
0000
,
0100
0010
0100
0001
0100
0010
0100
1000
,
0100
0000
0001
0000
0100
0000
1000
0000
0100
0001
0000
0001
0100
0000
0000
0000
,
0010
1000
0010
0100
0010
0001
0010
0100
,
0010
0000
0001
0000
0010
0000
1000
0000
0100
0010
0000
0010
0001
0000
0100
0000
,
0010
1000
0100
0010
0100
0001
0100
1000
,
0010
0000
0001
0000
0010
0000
1000
0000
0010
0100
0000
0100
0001
0000
1000
0000
,
0100
0010
0001
0000
1000
0000
0010
0000
1000
0000
0001
0000
1000
0000
0100
0000
,
0010
0000
0001
0100
0000
0100
0010
0000
0010
1000
0000
1000
0001
0000
0001
0000
,
0022
0000
0003
0200
0000
0000
0030
0000
,
1300
0010
1000
0001
0100
0000
0020
0000
,
2030
0000
0000
0000
0000
0000
3002
0000
0000
0000
0010
0000
0000
0100
0000
0000
,
0023
0000
0000
0230
0000
1000
1000
1000
,
1300
0000
0001
0100
0000
0001
0200
0000
0020
0000
0000
0000
0000
0000
0000
0000
,
0000
0000
0000
0000
0330
1010
0000
1001
,
0020
0000
0000
2000
0000
0000
3030
1100
,
0000
0101
0101
0000
0000
0011
1100
0000
,
1001
0000
0100
0000
0010
0000
1000
0001
1000
0000
0100
0000
0010
0000
0001
0000
,
0100
0000
0010
0000
1000
0000
0010
0000
0100
0010
0000
0010
1000
0000
0001
0000
,
0100
0000
0010
0000
1000
0000
0100
0000
0010
0000
0001
0000
0100
0010
1000
0000
,
0100
0000
0010
0000
1000
0000
0010
0000
0001
0100
0000
0100
0010
0000
1000
0000
,
0100
0000
0001
0000
0100
0000
1000
0010
0100
0000
0001
0000
0010
0000
0100
0000
,
1000
0000
0001
0000
0100
0000
0010
0000
0100
0001
0000
0001
1000
0000
0100
0000
,
0001
0000
0100
0000
1000
0000
0001
0000
1000
0010
1000
0010
1000
0010
1000
0000
,
0200
0000
0000
0000
0000
0000
0000
0000
0300
0000
0000
1100
0000
0000
0001
0000
,
0202
0000
0000
0000
,
0000
0000
0000
0000
,
0000
0000
0000
0303
;

//---------------dance-single - ----------------
#NOTEDATA:;
#CHARTNAME:;
#STEPSTYPE:dance-single;
#DESCRIPTION:;
#CHARTSTYLE:;
#DIFFICULTY:Medium;
#METER:11;
#RADARVALUES:0.511944,0.610365,0.307166,0.255972,0.087030,350.000000,320.000000,30.000000,25.000000,0.000000,0.000000,0.000000,0.000000,0.000000,0.511944,0.610365,0.307166,0.255972,0.087030,350.000000,320.000000,30.000000,25.000000,0.000000,0.000000,0.000000,0.000000,0.000000;
#CREDIT:;
#DISPLAYBPM:155.000000;
#NOTES:
0000
0000
0000
0000
,
0000
0000
0000
0000
,
1000
0001
0000
0200
0000
0000
0310
0100
,
0100
0000
0010
0000
0010
1000
0010
0100
,
1001
0000
0010
1000
0010
0100
0001
1000
,
0001
0000
0010
0001
0010
0100
1000
0000
,
0001
0001
1000
0001
0010
0100
1000
0000
,
0010
0000
1000
0001
1000
0100
0010
0001
,
2000
0000
0000
3020
0000
0000
0230
0000
,
0301
0100
0010
1000
0100
0010
0001
1000
,
0100
1000
0001
0100
0000
0010
0000
0010
,
0000
0000
1000
0000
0100
0000
1000
0000
0000
0001
0000
0100
0000
0000
0010
0000
,
2010
0000
0000
0001
0000
3001
0100
0010
,
0000
0000
1000
0000
0100
0000
0010
0000
0001
1000
0000
0000
0001
1000
0000
0000
,
0010
1000
0010
0100
0000
0001
0001
0000
,
0010
0011
0000
1100
0000
0101
0000
1100
,
0001
1000
0001
0010
0100
1000
0001
0000
,
0100
0000
0010
0000
1000
0000
0001
0000
1000
0000
0100
0000
0000
0100
0000
0000
,
0100
0010
0001
1000
0000
0001
0100
0010
,
0000
1000
0100
1000
0001
0010
0001
1000
,
0001
0100
0000
0010
1000
0100
0000
1000
,
0000
0000
0001
0000
0010
0000
0100
0000
0000
0000
1000
0000
0000
1000
0000
0000
,
2000
0000
3010
1000
0001
0010
0100
1000
,
0001
0100
0001
0010
0100
1000
0001
0100
,
0210
0000
0000
0020
0000
0000
0000
0000
,
0000
0000
0000
0000
0330
0000
1000
0001
,
0020
0000
0000
0200
0000
0000
0000
0000
,
0000
0000
0000
0000
0330
0000
1000
0100
,
1000
0010
0100
0001
0010
0000
0001
0100
,
0010
1000
0100
1000
0001
0000
1000
0010
,
0100
0001
1000
0100
0000
0010
0000
0010
,
0001
0000
1000
0000
0001
0000
0000
0000
0100
0010
0000
0100
0010
0000
0000
0000
,
1000
1010
0000
0101
0000
1100
0000
0001
,
0001
0000
0010
0001
0100
0010
1000
0000
,
0100
0110
0000
0011
0000
0101
0000
1001
,
0000
0000
0010
0000
1000
0000
0001
0000
1000
0100
0000
0010
0000
0000
0001
0000
,
0100
0010
1000
0001
0100
0010
1000
0001
,
0100
0010
1000
0001
0000
0000
0000
0000
,
0010
0100
1000
0001
0010
0100
1000
0001
,
0010
0000
0100
0000
1000
0000
0001
0000
0000
0000
0000
0100
0000
0000
0100
0000
,
0010
1000
0001
0100
0010
1000
0001
0100
,
0010
1000
0001
0100
0000
0000
0000
0000
,
0001
0010
0100
1000
0001
0010
0100
1000
,
0010
0000
0000
0010
0000
0000
1000
0000
0000
0001
0000
0000
1000
0000
0100
0000
,
2000
0000
0000
0002
0000
0000
0000
0000
,
0000
0000
3003
0020
,
0032
0000
0000
0000
0000
0000
2003
0000
0000
0000
3020
0000
0000
0230
0000
0000
,
0302
0000
0000
2003
0000
0010
3010
0100
,
0001
0010
0000
0001
2000
0000
0000
0000
,
0000
0000
0000
0000
3000
1010
0000
0001
,
2000
0000
0000
0200
0000
0000
3300
0110
,
0000
0001
0001
0000
0000
1000
0001
0000
,
0010
0001
0010
0100
0000
1000
0000
0001
,
1000
1100
0000
0011
0000
0101
0000
1010
,
0001
1000
0001
0010
0000
0100
1000
0001
,
1000
1001
0000
1010
0000
0101
0000
1100
,
0010
0001
1000
0001
0000
0100
0000
0010
,
1000
0101
0000
0110
0000
1010
0000
1100
,
1000
0000
0001
0000
1000
0000
0010
0000
0100
0001
0000
0100
0001
0000
1000
0000
,
0020
0000
0000
0000
0000
0000
0000
0000
0030
0000
0000
1001
0000
0000
0001
0000
,
0202
0000
0000
0000
,
0000
0000
0000
0000
,
0000
0000
0000
0303
;

//---------------dance-single - ----------------
#NOTEDATA:;
#CHARTNAME:;
#STEPSTYPE:dance-single;
#DESCRIPTION:;
#CHARTSTYLE:;
#DIFFICULTY:Easy;
#METER:8;
#RADARVALUES:0.314480,0.385494,0.040955,0.286688,0.051194,215.000000,211.000000,4.000000,28.000000,0.000000,0.000000,0.000000,0.000000,0.000000,0.314480,0.385494,0.040955,0.286688,0.051194,215.000000,211.000000,4.000000,28.000000,0.000000,0.000000,0.000000,0.000000,0.000000;
#CREDIT:;
#DISPLAYBPM:155.000000;
#NOTES:
0000
0000
0000
0000
,
0000
0000
0000
0000
,
1000
0001
0000
0000
0000
0000
0000
0100
,
0010
0010
1000
0001
,
2000
0010
0010
0010
,
0001
0100
0001
3100
,
1000
0001
0000
0000
0000
0010
0000
0100
,
0000
0010
0000
0001
0000
0100
0000
1000
,
0002
0000
0000
0023
0000
0000
0230
0000
,
0000
0000
0000
0000
0300
0000
0000
1000
,
0001
1000
0000
0000
0000
0000
0000
0000
,
0010
0010
1000
0001
,
0101
0000
0000
0010
0000
0000
0000
1010
,
0000
1000
0001
0100
,
0001
0010
0000
0000
0000
0100
1000
0000
,
0000
0001
0000
0100
0000
0001
0000
0100
,
0020
1000
0100
1000
,
0001
0000
0000
0000
0130
0000
0000
0000
0000
0000
0010
0000
0000
1000
0000
0000
,
0002
0010
1000
0100
,
0013
0000
0000
0000
0001
1000
0010
1000
,
0200
0001
1000
0001
,
0010
0000
0000
0000
1300
0000
0000
0000
0000
0000
0001
0000
0000
1000
0000
0000
,
0020
0000
0100
0000
,
1030
0000
0010
0000
1000
0000
0001
0010
,
0200
0000
0000
2000
0000
0000
0000
0000
,
0300
0000
0000
0000
3000
0000
0010
0100
,
0002
0000
0000
2000
0000
0000
0000
0000
,
0003
0000
0000
0000
3000
0000
0010
1000
,
0200
0000
0000
0320
0000
0000
0031
0100
,
0002
0000
0000
2003
0000
0000
3001
1000
,
0020
0000
0000
0230
0000
0000
0000
0000
,
0301
0000
0100
0000
0001
0000
0000
0000
0000
1000
0000
1000
0000
0000
0000
0000
,
0000
0100
0000
1000
0000
0001
0000
1000
,
0010
0000
0101
0000
1000
0001
0100
0000
,
0000
0001
0000
0010
0000
0001
0000
1000
,
0000
0000
0000
0000
1010
0000
0000
0000
1000
0001
0000
0100
0000
0000
0000
0000
,
0010
1000
0100
0001
,
0010
1000
0100
0001
0000
0000
0000
0000
,
1000
0010
1000
0001
,
0200
0000
0000
0000
0000
0000
0000
0000
0300
0000
0000
0010
0000
0000
0100
0000
,
0010
1000
0100
0001
,
0010
1000
0100
0001
0000
0000
0000
0000
,
0001
0010
1000
0100
,
0001
0010
1000
0100
0000
0000
0000
0000
,
2000
0000
0000
0002
0000
0000
0000
0000
,
3000
0000
0003
0100
,
0010
0000
0000
0000
0000
0000
0010
0000
0000
0000
1000
0000
0000
0001
0000
0000
,
0200
0000
0000
0310
0000
1000
0001
1000
,
0100
0000
0000
0010
0000
0000
0100
0000
0020
0000
0000
0000
0000
0000
0000
0000
,
0000
0000
0000
0030
0000
0001
0000
0001
,
2000
0000
0000
3020
0000
0000
0000
0100
,
0000
0100
0130
0000
0000
0000
0000
0000
,
0001
0010
0100
1000
0000
0000
0000
0010
,
1000
0001
0000
1000
0000
0100
0000
0010
,
0001
0100
0001
0010
0000
0000
0000
0100
,
1000
0001
0000
0010
0000
0001
0000
0100
,
0001
1000
0001
0100
0000
0000
0000
0010
,
1000
0100
0000
1000
0000
0001
0000
0100
,
0001
0010
0100
2000
0000
0000
0000
0000
,
0020
0000
0000
0000
0000
0000
0000
0000
3030
0000
0000
0001
0000
0000
1000
0000
,
0200
0000
0000
0000
,
0000
0000
0000
0000
,
0000
0000
0000
0300
;

//---------------dance-single - ----------------
#NOTEDATA:;
#CHARTNAME:;
#STEPSTYPE:dance-single;
#DESCRIPTION:;
#CHARTSTYLE:;
#DIFFICULTY:Beginner;
#METER:4;
#RADARVALUES:0.166747,0.215016,0.040955,0.020478,0.000000,114.000000,110.000000,4.000000,2.000000,0.000000,0.000000,0.000000,0.000000,0.000000,0.166747,0.215016,0.040955,0.020478,0.000000,114.000000,110.000000,4.000000,2.000000,0.000000,0.000000,0.000000,0.000000,0.000000;
#CREDIT:;
#DISPLAYBPM:155.000000;
#NOTES:
// measure 0
0000
0000
0000
0000
,  // measure 1
0000
0000
0000
0000
,  // measure 2
1000
0000
0000
0000
,  // measure 3
0001
0001
0001
0000
,  // measure 4
0010
0000
0001
0000
,  // measure 5
0100
0000
0010
0000
,  // measure 6
1000
0000
0000
0000
,  // measure 7
0001
0000
0000
0000
,  // measure 8
1000
0000
0010
0000
,  // measure 9
1000
0000
0000
0000
,  // measure 10
0001
0000
0000
0000
,  // measure 11
0100
0100
0100
0000
,  // measure 12
0110
0000
0000
0000
,  // measure 13
1000
1000
0000
0000
,  // measure 14
0001
0000
0000
0100
,  // measure 15
0000
0100
0100
0100
,  // measure 16
0100
0000
0000
0000
,  // measure 17
0010
0000
0000
1000
,  // measure 18
0001
0000
0010
0000
,  // measure 19
0001
0000
0100
0100
,  // measure 20
0100
0000
0000
0000
,  // measure 21
0010
0000
0000
1000
,  // measure 22
0001
0000
0000
0000
,  // measure 23
1000
1000
1000
1000
,  // measure 24
0200
0000
0000
0000
,  // measure 25
0300
0000
0000
0000
,  // measure 26
0020
0000
0000
0000
,  // measure 27
0030
0000
0000
0000
,  // measure 28
0001
0000
0001
0000
,  // measure 29
1000
0000
0001
0000
,  // measure 30
0100
0000
0010
0000
,  // measure 31
1000
1000
0000
0000
,  // measure 32
0000
0001
0000
1000
,  // measure 33
0010
0100
0010
0100
,  // measure 34
0000
0001
0000
1000
,  // measure 35
0000
1001
0000
0000
,  // measure 36
1000
0000
1000
0000
,  // measure 37
1000
0000
0000
0000
,  // measure 38
0001
0000
0100
0000
,  // measure 39
0010
0000
0000
0100
,  // measure 40
0100
0000
0010
0000
,  // measure 41
0010
0000
0000
0000
,  // measure 42
1000
0000
1000
0000
,  // measure 43
1000
0000
0001
0000
,  // measure 44
1001
0000
0000
0000
,  // measure 45
0000
0000
0000
1000
,  // measure 46
1000
0000
0010
0000
,  // measure 47
0100
0000
0001
0000
,  // measure 48
0010
0010
0010
0000
,  // measure 49
0000
0000
0000
0100
,  // measure 50
0100
0000
1000
0000
,  // measure 51
0001
0001
0000
1000
,  // measure 52
0010
0010
0010
0000
,  // measure 53
0100
0000
0010
0000
,  // measure 54
1000
1000
0001
0000
,  // measure 55
0010
0000
0100
0000
,  // measure 56
0010
0010
0010
0000
,  // measure 57
0001
0000
0100
0000
,  // measure 58
0010
0010
0010
0000
,  // measure 59
1000
0000
0000
0010
,  // measure 60
0110
0000
0000
0000
;
